#TITLE:DEATH†ZIGOQ ~怒りの高速爆走野郎~;
#SUBTITLE:;
#ARTIST:L.E.D.ALiCE(DJ NAGAI Vs. BEMANI Sound Team "L.E.D.-G");
#TITLETRANSLIT:;
#SUBTITLETRANSLIT:;
#ARTISTTRANSLIT:;
#GENRE:;
#CREDIT:;
#MENUCOLOR:;
#METERTYPE:DDR;
#BANNER:DEATH ZIGOQ.png;
#BACKGROUND:DEATH ZIGOQ-bg.png;
#LYRICSPATH:;
#CDTITLE:;
#MUSIC:DEATH ZIGOQ.ogg;
#OFFSET:-0.020;
#SAMPLESTART:92.400;
#SAMPLELENGTH:12.000;
#SELECTABLE:YES;
#LISTSORT:;
#BPMS:0.000=200.000;
#STOPS:49.000=0.600
,178.000=0.160
,179.000=0.580
,179.500=0.180
,180.500=0.580
,181.000=0.180
,182.000=0.580
,182.500=0.160
,183.500=0.580
;
#BGCHANGES:;
#ATTACKS:;

//---------------dance-single - ----------------
#NOTES:
     dance-single:
     :
     Hard:
     16:
     0.895,1.000,0.311,0.320,0.445: // measure 1
0000
0000
0000
0000
,  // measure 2
0000
0000
0000
0000
,  // measure 3
0000
0000
0000
0000
,  // measure 4
0000
0000
0000
0000
,  // measure 5
0010
0000
1000
0010
0000
1000
0001
0000
,  // measure 6
1000
0100
0000
0010
0001
0000
0100
0010
,  // measure 7
1000
0000
0001
1000
0000
0001
0100
0000
,  // measure 8
0001
0000
0010
0001
0000
1000
0100
0000
,  // measure 9
1001
0000
1000
1010
0000
1000
1001
0000
,  // measure 10
1000
0100
1100
0000
0010
0100
0001
0000
,  // measure 11
1001
0000
0001
0101
0000
0001
0011
0000
,  // measure 12
0001
1000
1001
0000
1000
0100
1000
0010
,  // measure 13
1010
0000
0110
0000
0001
0000
0001
1000
,  // measure 14
0010
1000
0100
1000
0010
0100
0001
0100
,  // measure 15
0010
1000
0001
1000
0010
0010
0020
0000
,  // measure 16
1030
0100
1000
0010
0100
0001
0100
0010
,  // measure 17
1000
0010
0200
0000
0301
1000
0001
1000
,  // measure 18
0010
0100
0010
0100
0001
0010
0001
0100
,  // measure 19
0010
1000
0010
0100
0001
0010
0001
1000
,  // measure 20
0100
0010
0001
1000
0010
0000
0000
1100
,  // measure 21
0000
0000
0101
0000
0000
0000
1000
0001
,  // measure 22
1000
0000
0100
0000
1000
0000
0010
0000
0100
0001
0100
0000
0010
0000
1000
0000
,  // measure 23
0100
1000
0100
0000
1000
0000
0001
0000
0100
0000
0010
0000
0100
0000
0001
0000
,  // measure 24
1000
0010
1000
0000
0100
0000
1000
0000
0001
0100
0001
0000
0010
0000
0001
0000
,  // measure 25
0100
0010
1000
0000
0020
0000
0000
0000
0130
0000
0001
0000
1000
0000
0010
0000
,  // measure 26
1000
0001
1000
0000
0010
0000
0100
0000
0001
0010
0001
0000
0100
0000
0010
0000
,  // measure 27
1000
0100
1000
0000
0010
0000
0100
0001
0200
0000
0000
0000
0300
0000
0010
0000
,  // measure 28
1000
0000
0010
0000
1000
0001
1000
0001
1000
0000
0010
0000
0100
0001
0000
0001
,  // measure 29
0100
0000
0010
0000
1000
0100
0000
0100
2000
0000
0000
0000
0000
0000
0000
0000
,  // measure 30
0000
0000
3000
0000
0001
0100
0010
0100
,  // measure 31
0001
0000
0000
1000
0000
0000
0100
0000
0000
0010
0000
0000
0002
0000
0000
0000
0000
0003
0001
0000
0000
0200
0000
0000
,  // measure 32
0000
0000
0310
0000
1000
0000
0100
1000
0200
0000
0000
0000
2300
0000
0000
0000
,  // measure 33
3010
0100
0001
0010
0002
0000
0000
0000
,  // measure 34
0000
0000
0003
0000
1000
0000
0001
0100
,  // measure 35
0000
0001
1000
0010
0100
0010
1000
0010
,  // measure 36
0100
0001
0100
0010
1000
0100
0010
0001
,  // measure 37
1000
1000
0000
0000
0001
0001
1000
0100
,  // measure 38
1000
0010
1000
0000
0010
0000
0100
0000
0001
0000
0001
0000
1000
0000
0010
0000
,  // measure 39
0100
0001
0100
0000
0010
0000
1000
0000
0100
0000
0100
0000
1000
0000
0010
0000
,  // measure 40
0100
0001
0100
0000
0001
0000
1000
0000
0010
0000
0100
0000
0010
0000
1000
0000
,  // measure 41
0001
0100
0001
0000
1000
0000
0010
0000
1000
0000
1000
0000
0001
0000
0100
0010
,  // measure 42
0100
0000
0010
0000
1000
0000
0010
0000
0100
0000
0100
0000
0001
0000
1000
0100
,  // measure 43
1000
0000
0001
0000
0100
0000
0010
1000
0010
0000
0100
0000
0001
0000
0010
0001
,  // measure 44
0010
0000
0001
0000
0100
0000
0010
1000
0010
0000
1000
0100
1000
0000
0001
0100
,  // measure 45
0001
0000
0100
0000
0010
0000
1000
0000
2002
3003
1100
0000
2200
3300
0022
0033
,  // measure 46
0110
0000
0220
0330
2020
3030
0101
0000
0202
0303
2200
3300
0011
0000
0022
0033
,  // measure 47
1001
0000
1000
0010
1000
0000
0010
0000
0100
0000
0001
0010
0001
0000
0100
0000
,  // measure 48
0010
0000
1000
0100
1000
0000
0010
0000
0100
0000
0001
0010
0001
0000
0100
0000
,  // measure 49
0010
1000
0010
0000
0100
0010
0100
0000
0001
0100
0001
0000
1000
0001
1000
0000
,  // measure 50
2001
0000
0001
0000
0001
0001
3001
0000
,  // measure 51
0100
0000
0010
0000
0000
0000
0100
0000
0010
0000
0000
0000
1000
0100
0010
0001
,  // measure 52
1000
0000
0001
0000
1000
0000
0010
0000
1000
0000
0100
0000
1000
0000
0001
0100
,  // measure 53
0001
0010
0001
0100
0010
1000
0100
1000
,  // measure 54
0001
0000
0100
0000
0010
0000
1000
0000
0001
0000
0100
0000
0001
0010
0001
0000
,  // measure 55
0100
0000
0101
0000
0000
0000
1010
0000
0000
0000
0110
0000
0000
0000
1000
0001
,  // measure 56
0100
0001
1000
0000
0001
1000
0100
1000
,  // measure 57
0001
1000
0010
0100
0001
0100
0010
1000
,  // measure 58
0010
0000
0010
0000
1000
0001
1000
0000
,  // measure 59
0100
0010
0000
1000
0001
0000
1000
0100
,  // measure 60
0010
0001
0100
0000
0001
1000
0000
0001
,  // measure 61
0001
1000
0001
0000
0100
0110
0000
1000
,  // measure 62
1001
0000
0001
0000
1000
0100
0010
0001
,  // measure 63
0100
0000
0010
0000
0100
0001
0100
0000
0010
0000
1000
0100
1000
0000
0010
0000
,  // measure 64
0100
0000
0001
0000
0010
0001
0010
0000
0001
0000
0100
0010
0100
0000
0010
0000
,  // measure 65
1000
0100
1000
0000
0001
0000
0100
0010
0100
0000
0001
0000
1000
0000
0020
0000
,  // measure 66
0200
0000
0000
0330
,  // measure 67
2002
0000
0000
3003
,  // measure 68
0000
0000
0000
0000
,  // measure 69
0000
0000
0000
0000
,  // measure 70
0000
0000
0000
0000
,  // measure 71
0020
0000
0000
0000
,  // measure 72
0000
0100
0000
0000
0100
0000
0130
0000
,  // measure 73
0001
0010
0002
0000
0003
0000
1000
0100
2000
0000
3000
0000
0010
0100
0020
0000
,  // measure 74
0030
0000
1000
0001
2000
0000
3000
0000
0101
0000
0000
0000
1010
0000
0000
0000
,  // measure 75
0001
0000
0100
0000
0010
0000
1000
0000
0001
0100
0001
0100
0010
0100
0010
0000
,  // measure 76
1000
0001
1000
0000
0010
0000
0100
0000
0001
0010
0001
0010
0001
0100
0001
0000
,  // measure 77
1000
0010
1000
0010
1000
0000
0001
0010
0001
0010
0001
0000
1000
0010
0100
0000
,  // measure 78
1000
0010
1000
0000
0100
0000
1000
0000
0010
0100
0010
0000
1000
0010
1000
0000
,  // measure 79
0001
0100
0001
0000
0010
0000
0001
0000
1000
0001
1000
0000
0010
0100
0010
0000
,  // measure 80
1000
0100
1000
0000
0010
0000
0100
0000
0001
0010
0001
0000
0100
0010
0100
0000
,  // measure 81
0001
1000
0001
0000
1000
0000
0010
0000
0100
0010
0100
0000
1000
0001
1000
0000
,  // measure 82
0101
0000
1000
1010
0000
0001
0100
0010
,  // measure 83
1000
0010
1000
0000
0001
0000
0100
0000
0010
1000
0010
0000
0100
0001
0100
0000
,  // measure 84
0010
0100
0010
0000
1000
0000
0001
0000
1000
0100
1000
0000
0001
0100
0001
0000
,  // measure 85
1000
0010
0100
0010
1000
0000
0001
0100
0010
0100
0001
0000
1000
0001
0100
0001
,  // measure 86
1000
0010
1000
0100
1000
0000
0001
0000
0100
0001
0100
0010
0100
0000
0001
0000
,  // measure 87
1000
0010
0100
0000
0001
0000
1000
0000
0001
0010
0001
0000
1000
0100
1000
0000
,  // measure 88
0010
0100
0001
0000
0100
0000
0010
0000
1000
0100
1000
0000
0001
0010
0001
0000
,  // measure 89
1000
0010
1000
0010
1000
0001
1000
0001
0100
0001
0100
0001
1000
0001
1000
0000
,  // measure 90
0001
0000
1000
0100
0000
1000
0010
0200
,  // measure 91
0000
0000
0000
0000
,  // measure 92
0000
0000
0000
0000
,  // measure 93
0300
0000
0000
0000
;

//---------------dance-single - ----------------
#NOTES:
     dance-single:
     :
     Medium:
     12:
     0.554,0.835,0.337,0.225,0.000:
0000
0000
0000
0000
,
0000
0000
0000
0000
,
0000
0000
0000
0000
,
0000
0000
0000
0000
,
0001
0000
0100
0010
0000
0010
1000
0000
,
1000
0001
0000
0001
1000
0000
0010
0000
,
0100
0000
0001
1000
0000
1000
0001
0000
,
1000
0010
0100
0000
,
1001
0000
0000
1100
0000
0000
0101
0000
,
0000
1000
0001
0000
0110
0000
1001
0000
,
0101
0000
0000
1001
0000
0000
0110
0000
,
0000
1000
0010
0000
0101
0000
1100
0000
,
0110
0110
0010
0010
,
1000
0001
1000
0000
0001
1000
0001
0000
,
0010
1000
0001
0000
0010
0100
0020
0000
,
0130
0000
0110
0000
1000
0001
0100
0000
,
1000
0000
0002
0000
0103
0010
0100
0000
,
0001
0100
0001
0000
1000
0010
1000
0000
,
0001
1000
0001
0000
0001
0000
0101
0000
,
1000
0001
1000
0001
0100
0000
0000
1100
,
0000
0000
0101
0000
0000
0000
1000
0001
,
0000
1000
0010
1000
0000
0001
0100
0001
,
0000
1000
0001
0000
0100
0000
1000
0010
,
0000
1000
0001
1000
0000
0001
0100
0001
,
0000
1000
0010
1000
0010
0000
0100
0100
,
0000
0001
1000
0001
0000
1000
0100
1000
,
0000
0001
0010
0000
0110
0000
0001
1000
,
0000
0001
0100
0000
0110
0000
0000
1001
,
0000
0101
1010
0000
,
0000
0000
0001
0010
,
0100
0010
0100
0000
1000
0000
0000
0100
,
0000
0001
0010
0100
,
1000
0001
1000
0000
0002
0000
0000
0000
,
0000
0003
2000
0000
,
0000
3000
0100
1000
,
0010
0001
1000
0010
,
0001
0000
0000
0000
0001
0000
0100
0001
,
0000
0000
1000
0000
0001
0000
1000
0001
,
0000
0000
1000
0000
0010
0000
0100
0010
,
0000
1000
0010
0000
0100
0000
0001
0100
,
0000
0000
0001
0000
1000
0000
0001
0100
,
0000
0000
0001
0000
1000
0000
0100
1000
,
0000
0000
0010
0000
0100
0000
0001
0010
,
0000
0001
0100
0000
0001
0000
0100
0000
,
0020
0000
0030
0000
0010
0000
0200
0301
,
0000
0000
2000
0000
0001
3000
0000
0000
0002
0000
0103
0000
0000
0000
0020
0000
,
0031
1000
0010
0000
0100
0001
0010
0000
,
0010
1000
0100
0000
0100
0001
0010
0000
,
0010
1000
0100
0000
0001
1000
0100
0000
,
2001
0000
0001
0000
0001
0001
3001
0000
,
0100
0010
0000
0100
0010
0000
2000
0000
,
3001
0000
1001
0000
1000
0100
1000
0000
,
0001
0010
0000
0001
0100
0000
0001
1000
,
0000
0100
0010
0000
0001
0100
0001
0000
,
0100
0001
0000
1001
0000
0110
0000
0001
,
1000
0001
0100
0000
0001
1000
0100
0000
,
0001
1000
0010
0100
0001
0100
0010
0000
,
0010
0000
0010
0000
1000
0001
1000
0000
,
0110
0000
0001
0000
,
1001
0000
0100
0000
,
0001
0000
1001
0000
0000
0110
0000
0000
,
1001
0000
0001
0000
1000
0001
0100
0000
,
0100
0010
0000
0100
0010
0000
1000
0010
,
0000
0001
0010
0000
0001
0100
0010
0000
,
1000
0100
1000
0010
0100
0001
1000
0020
,
0200
0000
0000
0330
,
2002
0000
0000
3003
,
0000
0000
0000
0000
,
0000
0000
0000
0000
,
0000
0000
0000
0000
,
0020
0000
0000
0000
,
0000
0100
0000
0000
0100
0000
0130
0000
,
0022
0000
0033
2200
0000
3300
0220
0000
,
0330
2002
0000
3003
0101
0000
1010
0000
,
0001
0000
1000
0000
0001
0100
0001
0000
,
1000
0000
0010
0000
0100
0001
0100
0000
,
0010
0000
0010
0000
1000
0100
1000
0000
,
0010
0000
0010
0000
0001
0100
0001
0000
,
1000
0000
1000
0000
0001
0100
0001
0100
,
0010
0000
0010
0000
1000
0001
1000
0001
,
0100
0010
0000
0100
0010
0000
1000
0000
,
0001
0000
0100
0001
0000
1000
0001
0000
,
0100
0000
0001
0000
1000
0001
1000
0000
,
0010
0000
1000
0000
0001
0100
0001
0000
,
1000
0100
1000
0001
0100
0001
1000
0100
,
1000
0001
0100
0001
1000
0010
0100
0000
,
0001
0010
0001
0100
0010
0100
0010
0000
,
1000
0010
0100
0001
0100
0001
0100
0000
,
0001
1000
1001
0000
1000
0001
1001
0000
,
0001
0000
1000
0100
0000
1000
0002
2000
,
0000
0000
0000
0000
,
0000
0000
0000
0000
,
3003
0000
0000
0000
;

//---------------dance-single - ----------------
#NOTES:
     dance-single:
     :
     Easy:
     7:
     0.432,0.556,0.587,0.173,0.000:
0000
0000
0000
0000
,
0000
0000
0000
0000
,
0000
0000
0000
0000
,
0000
0000
0000
0000
,
0001
0000
0010
0000
,
1000
0000
0001
0000
,
0100
0000
0001
0000
,
1000
0010
0100
0000
,
1001
0000
0000
1001
0000
0000
0110
0000
,
0000
1001
1001
0000
,
0101
0000
0000
0101
0000
0000
0110
0000
,
0000
1010
1010
0000
,
1001
1001
0010
0010
,
1000
1001
0001
1001
,
0010
1000
0100
0001
,
0010
0110
1000
0001
,
1000
0002
0103
0110
,
0001
0100
1000
0010
,
0001
0000
1001
0000
0001
0100
0001
0000
,
1000
0000
1000
0000
1001
0000
0000
1001
,
0000
1001
0000
1000
,
0001
0010
1000
0010
,
0001
1000
0001
0000
0100
0000
1000
0000
,
0010
1000
0100
0001
,
0001
0020
1030
0100
,
0100
1001
0001
1100
,
1000
0011
0010
0001
,
1000
0000
0001
0000
0100
0000
0000
0010
,
0000
1000
1001
0000
,
0000
0000
0000
0000
,
0000
0000
2000
0000
,
3002
0000
0203
0000
,
0320
0000
2030
0000
,
0000
0000
3000
0000
,
0000
0000
0002
0000
,
0203
0000
1300
0100
,
0001
0000
0001
0100
,
0001
1000
0001
1000
,
0001
1000
0010
0100
,
0010
1010
0100
0001
,
0100
0001
1000
0001
,
0100
0001
1000
0100
,
1000
0010
0100
0001
,
0010
0101
0001
0100
,
0020
0000
0030
0000
1001
0000
0000
0110
,
0000
0000
1001
0000
0000
0110
0000
0000
,
1010
0000
0011
0000
,
1100
0000
0011
0000
,
1000
0010
0001
0100
,
2001
0001
0001
3001
,
0110
0000
0000
2000
,
3001
1000
0001
0100
,
0001
0010
0100
1000
,
0010
0010
1001
1001
,
0100
0000
0000
0001
0000
0010
0000
0000
,
1000
0100
0010
0001
,
0001
1000
0010
0100
,
0010
0010
0010
1001
,
0110
0000
0001
0000
,
1001
0000
0100
0000
,
0001
0000
1001
0000
0000
0110
0000
0000
,
1001
0000
1000
0001
,
0100
0100
0010
0010
,
1000
0001
1000
0001
,
1000
0100
0010
0001
,
0220
0000
0000
0330
,
2002
0000
0000
3003
,
0000
0000
0000
0000
,
0000
0000
0000
0000
,
0000
0000
0000
0000
,
0000
0000
0000
0000
,
0000
0000
0000
0000
,
1001
0000
0000
1001
0000
0000
1001
0000
,
0000
1001
0000
0000
0100
0000
0010
0000
,
1000
0001
0101
0101
,
0001
1000
1100
1100
,
0010
0100
1001
1001
,
0010
0010
0001
0101
,
0010
0010
1000
1100
,
0010
0010
1000
0001
,
0100
0100
0001
1000
,
0001
0000
1000
0001
0000
1000
0001
0000
,
0100
0001
1000
1001
,
0010
1000
0001
0101
,
1000
0001
1000
1001
,
0001
1000
0001
0110
,
0001
1001
1001
0100
,
1000
1001
1001
0010
,
2002
0000
0000
3003
,
0001
0000
0100
0000
,
2002
0000
0000
0000
,
0000
0000
0000
0000
,
3003
0000
0000
0000
;

//---------------dance-single - ----------------
#NOTES:
     dance-single:
     :
     Beginner:
     4:
     0.209,0.278,0.026,0.060,0.000:
0000
0000
0000
0000
,
0000
0000
0000
0000
,
0000
0000
0000
0000
,
0000
0000
0000
0000
,
0010
0000
0000
0000
,
0001
0000
0000
0000
,
0100
0000
0000
0000
,
1000
0000
0000
0000
,
0010
0010
0000
0000
,
0100
0100
0000
0000
,
0001
0001
0000
0000
,
1000
1000
0000
0000
,
0010
0000
0100
0000
,
0001
0000
1000
0000
,
0001
0000
1000
0000
,
0001
0000
1000
1000
,
1000
0000
0001
0000
,
0100
0000
0010
0000
,
1000
0000
0100
0000
,
0001
0000
1000
1000
,
0000
1000
0000
0001
,
0000
0001
0000
1000
,
0000
1000
0000
0010
,
0000
0010
0000
0100
,
0100
0100
0000
0001
,
0000
1000
0000
0010
,
0000
0100
0000
0001
,
0000
1000
0001
0000
,
0000
0000
1001
0000
,
0000
0000
0000
0000
,
0000
0000
0010
0000
,
0100
0000
0001
0000
,
1000
0000
2002
0000
,
0000
0000
3003
0000
,
0000
0000
0010
0000
,
0001
0000
0100
0000
,
1000
0000
0010
0000
,
0000
0100
0000
0001
,
0000
0001
0000
0100
,
0000
1000
0000
1000
,
0000
0100
0000
1000
,
0000
1000
0000
0001
,
0000
0001
0000
0100
,
0000
0100
0000
0010
,
0000
0010
0010
0001
,
0001
0100
0000
1000
,
0010
0000
0001
0000
,
0100
0000
1000
0000
,
0010
0000
0100
0000
,
0020
0000
0000
0030
,
0001
0000
0000
0000
,
1000
0000
0100
0000
,
1000
1000
1000
0000
,
0001
0001
0001
0000
,
0100
0100
0100
0000
,
0010
0010
0010
0000
,
1000
0000
0001
0000
,
0100
0000
0010
0000
,
0000
0100
0000
0000
,
0001
0000
0001
0000
,
0000
0000
0010
0000
,
1000
0000
1000
0000
,
0010
0000
0001
0000
,
0100
0000
1000
0000
,
0010
0100
0010
0000
,
0002
0000
0000
0003
,
1000
0000
0000
0000
,
0000
0000
0000
0000
,
0000
0000
0000
0000
,
0000
0000
0000
0000
,
0010
0000
0100
0000
,
0010
0000
0100
0000
,
0001
0000
0000
1000
,
0000
0000
0010
0000
,
0100
0000
0100
0000
,
0001
0000
0001
0000
,
1000
0000
1000
0000
,
0010
0000
0100
0000
,
0001
0000
0001
0000
,
1000
0000
1000
0000
,
0100
0000
0100
0000
,
0220
0000
0330
0000
,
0001
0000
0001
0001
,
0001
0000
1000
1000
,
1000
0000
0010
0000
,
0100
0000
0001
0000
,
0100
0000
0100
0000
,
0001
0000
1000
0000
,
0010
0000
0100
0000
,
0001
0000
0000
0000
,
0020
0000
0000
0000
,
0000
0000
0000
0000
,
0030
0000
0000
0000
;
