#TITLE:Come to Life;
#SUBTITLE:("AIR" Special);
#ARTIST:ARM (IOSYS) feat. Nicole Curry;
#TITLETRANSLIT:;
#SUBTITLETRANSLIT:;
#ARTISTTRANSLIT:;
#GENRE:KONAMI originals;
#CREDIT:;
#BANNER:Come to Life (AIR Special).png;
#BACKGROUND:Come to Life (AIR Special)-bg.png;
#LYRICSPATH:;
#CDTITLE:;
#MUSIC:Come to Life (AIR Special).ogg;
#OFFSET:0.000000;
#SAMPLESTART:99.250000;
#SAMPLELENGTH:15.000000;
#SELECTABLE:YES;
#BPMS:0.000000=180.000000
,68.000000=90.000000
,85.000000=180.000000
,278.000000=90.000000
,286.000000=180.000000
;
#STOPS:68.000000=0.667000,
117.000000=1.000000
;
#BGCHANGES:;
#KEYSOUNDS:;
#ATTACKS:;

//---------------dance-single - ----------------
#NOTES:
     dance-single:
     :
     Challenge:
     15:
     0.799539,0.942742,1.459677,0.266129,0.221774,694.000000,513.000000,181.000000,33.000000,0.000000,0.000000,0.799539,0.942742,1.459677,0.266129,0.221774,694.000000,513.000000,181.000000,33.000000,0.000000,0.000000:
// measure 0
0000
0000
0000
0000
,  // measure 1
0000
0000
0000
0000
,  // measure 2
0000
0000
0000
0000
,  // measure 3
0000
0000
0000
0000
,  // measure 4
0000
0000
0000
0000
,  // measure 5
0000
0000
0000
0000
,  // measure 6
0001
0100
0101
0000
1010
0000
0101
0000
,  // measure 7
1000
0100
1100
0000
0011
0000
0110
0000
,  // measure 8
0001
0010
0100
1000
0001
0010
0100
1000
,  // measure 9
1001
0000
0101
0101
1001
1001
1001
0000
,  // measure 10
1000
0100
1100
0000
0010
0001
0011
0000
,  // measure 11
0001
0100
0110
0000
1000
0010
0110
0000
,  // measure 12
0001
0010
0011
0001
0100
0010
0110
0010
,  // measure 13
1000
0100
0010
0001
1000
0100
0010
0000
,  // measure 14
0101
0000
0100
0110
0110
0000
1010
0000
,  // measure 15
0001
0011
0011
0000
1100
1100
1100
0000
,  // measure 16
0001
0100
0010
1000
0001
0010
0100
1000
,  // measure 17
1001
0000
0000
0000
1010
0000
0000
1010
0000
0000
0102
0000
0000
0000
1003
0000
,  // measure 18
0000
0000
0001
0100
0110
0000
0000
0110
0000
0000
2010
0000
0000
0000
3001
0000
,  // measure 19
1001
0000
0000
0000
1100
0000
0000
1000
1100
0000
0120
0000
0000
0000
1030
0000
,  // measure 20
0101
0000
0001
0010
0001
0000
1000
0100
0000
0010
0002
0000
0000
0000
0103
0000
,  // measure 21
0101
0000
1000
1000
0020
0000
0000
0000
1030
0000
0002
0000
0100
0000
0003
0000
,  // measure 22
0101
0000
1000
0100
0010
0001
1000
0001
,  // measure 23
1001
0000
0011
0000
2000
0000
3001
0200
,  // measure 24
0010
0300
0110
0000
0001
0100
0010
1000
,  // measure 25
0010
0010
1010
0000
0101
0001
0101
0001
,  // measure 26
0101
0000
1100
1000
1100
1000
1100
0000
,  // measure 27
0001
0010
0100
1000
0010
0010
0100
0100
,  // measure 28
0001
1000
0100
0010
0001
1000
0100
0010
,  // measure 29
0110
1001
1010
0101
,  // measure 30
1100
0000
0000
1100
0000
0000
0001
0000
0101
0000
0101
0000
1001
0000
1001
0000
,  // measure 31
0101
0000
1010
1100
1010
0000
0101
0000
,  // measure 32
1010
0000
0000
1010
0000
0000
0101
0000
1000
0010
1000
0010
1000
0000
0001
0000
,  // measure 33
0100
0110
1010
0110
2000
0001
3001
0000
,  // measure 34
1100
0000
0000
1100
0000
0000
0010
0000
1000
0100
0010
0100
1000
0000
0010
0000
,  // measure 35
0110
0110
2002
3003
0001
0010
0100
1000
,  // measure 36
0100
0010
0001
1000
1001
0001
0100
1001
,  // measure 37
1000
0100
2000
0002
3003
0000
0011
0000
,  // measure 38
1100
0000
0000
1100
0000
0000
1100
0000
0001
0000
0010
0000
0100
0000
1000
0000
,  // measure 39
0010
0100
0110
0110
1000
0000
0101
0000
,  // measure 40
1001
0000
0000
1010
0000
0000
1001
0000
1000
0100
1000
0100
1000
0000
0010
0000
,  // measure 41
0110
0110
1001
2002
3003
1100
1100
0000
,  // measure 42
0101
0000
0000
0000
0000
0000
0000
0000
0000
0101
0000
0000
0000
0000
0000
0000
0000
0000
1000
0000
0000
0000
0000
0000
0001
0000
0000
0000
0010
0000
0000
0000
1000
0000
0000
0000
0001
0000
0000
0000
0100
0000
0000
0000
1000
0000
0000
0000
,  // measure 43
0001
0110
1000
0102
0000
1003
1001
2010
,  // measure 44
0000
3001
0110
1020
0000
1030
0110
0102
,  // measure 45
0000
1003
0010
0100
1001
0000
0000
1100
,  // measure 46
0000
0022
0000
0000
,  // measure 47
0033
0000
1000
0100
0010
0001
0010
0100
,  // measure 48
1000
0010
0100
0001
1000
0000
0001
0000
1000
0000
0001
0000
1001
0000
0000
0000
,  // measure 49
1100
0000
0000
0000
1000
0001
1000
0010
1000
0000
0010
0000
1010
0000
1000
0000
,  // measure 50
0100
0010
0011
0001
0100
0010
0110
0100
,  // measure 51
1001
0000
0010
0000
1000
0100
0010
0001
1000
0000
0001
0000
1010
0000
0001
0000
,  // measure 52
0100
0010
1010
0010
0100
0010
0110
0000
,  // measure 53
1001
0000
1100
1100
1000
0000
0110
0100
,  // measure 54
0001
0000
2001
0000
0010
0010
0010
0000
,  // measure 55
0001
0001
3001
0000
0101
0000
1000
1010
,  // measure 56
1000
0000
0012
0000
1000
1000
1000
0000
,  // measure 57
0100
0100
0103
0000
1010
0000
0101
0000
,  // measure 58
1100
0000
0000
1100
0000
0000
1000
0000
0010
0000
0000
0000
0101
0000
0000
0000
,  // measure 59
0110
0000
0000
0110
0000
0000
0010
0000
1000
0000
0001
0000
1000
0000
0100
0000
,  // measure 60
1000
0010
1000
0002
0100
0100
0103
0000
,  // measure 61
0101
0101
0101
0000
1100
0000
0011
0000
,  // measure 62
0110
0000
0000
1010
0000
0000
0101
0000
1000
0000
0010
0000
0100
0000
0001
0000
,  // measure 63
1001
0000
0000
1100
0000
0000
0011
0000
0011
0000
0000
0000
1010
0000
0000
0000
,  // measure 64
0110
0000
0000
1010
0000
0000
1010
0000
0001
0000
0100
0000
0010
0000
1000
0000
,  // measure 65
1100
0000
0000
0011
0000
0000
0100
0000
0110
0000
0001
0000
0100
0000
0000
0000
,  // measure 66
0110
1000
0100
0000
0011
0011
1100
1100
,  // measure 67
0001
0100
1000
0100
0001
0100
0001
0100
0010
0000
0000
1010
0000
1000
0100
0000
,  // measure 68
0011
0000
0000
0001
0000
0100
0010
0000
2002
0000
0000
0000
0000
0000
0000
0003
,  // measure 69
3001
0000
0000
0000
0100
0000
0010
0000
2000
0000
0001
0001
0000
0000
0010
0010
,  // measure 70
0000
0000
0000
0000
0001
0000
0010
0000
0001
0000
0000
0100
0000
0000
0020
0000
,  // measure 71
0000
0000
3030
0101
1000
0100
1001
0100
,  // measure 72
0010
0000
0001
0000
0110
0000
0001
0000
1000
0010
1000
0000
0001
0100
0001
0000
,  // measure 73
1000
0010
0110
0001
1000
1100
1100
1100
,  // measure 74
1000
0010
0110
0001
0101
0101
0101
0101
,  // measure 75
0010
0000
1000
0000
0100
0000
0010
0000
0001
0100
0001
0000
1000
0100
1000
0000
,  // measure 76
0001
0000
0010
0000
0011
0000
0001
0000
0100
0010
0100
0000
0001
1000
0100
0000
,  // measure 77
1000
0010
0110
0010
1000
0001
1010
0001
,  // measure 78
1000
0100
0011
0100
1000
0010
0101
0010
,  // measure 79
1000
0100
0010
0000
0001
0100
0010
0000
1020
0000
1000
0000
0000
0000
0100
0000
,  // measure 80
0000
1030
0000
2001
0000
0010
0000
0001
,  // measure 81
0000
0200
0000
3300
0011
0000
0000
1100
,  // measure 82
0000
0220
0000
0000
,  // measure 83
0000
0000
0330
0000
;
