#TITLE:CoMAAAAAAA;
#SUBTITLE:;
#ARTIST:Ryu☆;
#TITLETRANSLIT:;
#SUBTITLETRANSLIT:;
#ARTISTTRANSLIT:;
#GENRE:;
#CREDIT:;
#BANNER:ComAAAAAAA.png;
#BACKGROUND:ComAAAAAAA-bg.png;
#LYRICSPATH:;
#CDTITLE:;
#MUSIC:CoMAAAAAAA.ogg;
#OFFSET:1.583001;
#SAMPLESTART:37.617001;
#SAMPLELENGTH:12.799999;
#LASTBEATHINT:1.457503;
#SELECTABLE:YES;
#BPMS:0.000000=150.000000
;
#STOPS:
;
#BGCHANGES:0.000=ComAAAAAAA.avi=1.000=0=0=0=StretchNoLoop====,
99999=-nosongbg-=1.000=0=0=0 // don't automatically add -songbackground-
;
#KEYSOUNDS:;
#ATTACKS:;

//---------------dance-single - ----------------
#NOTES:
     dance-single:
     :
     Hard:
     13:
     0.624822,0.653540,0.285976,0.159810,0.252332,520.000000,486.000000,34.000000,19.000000,0.000000,0.000000,0.624822,0.653540,0.285976,0.159810,0.252332,520.000000,486.000000,34.000000,19.000000,0.000000,0.000000:
0000
0000
0000
0000
,
0000
0000
0000
0000
,
0000
0000
0000
0000
,
0000
0000
0000
0000
,
0000
0000
0000
0000
,
1000
0001
1000
0100
0010
0001
1000
0000
,
0001
1000
0001
0010
0100
1000
0001
0000
,
1000
0100
0010
0100
1000
0001
1000
0010
,
0100
0100
0001
1000
0002
0000
2003
0000
,
3001
0000
0010
0001
0010
0000
0001
0000
0100
0000
0010
0000
1000
0000
0100
0000
,
0010
0001
1000
0010
1000
0100
0020
0000
,
0130
0000
0000
0000
0100
0001
0000
0000
0001
0000
0000
0001
1000
0000
0000
0000
,
1000
0000
0000
0000
1000
0010
0000
0000
0010
0000
0000
0010
0100
0000
0000
0000
,
0001
0000
1000
0001
1000
0000
0010
0000
1000
0000
0100
0000
0010
0000
0001
0000
,
1000
0000
0000
0000
0001
0100
0001
0100
0001
0000
1000
0000
0002
0000
0000
0000
,
1003
0000
0000
0000
1000
0010
0000
0000
0010
0000
0000
0010
0100
0000
0000
0000
,
0001
0000
1000
1000
0001
0001
1000
0000
,
1001
0000
0010
0010
0100
0100
0010
0000
,
1001
0000
0100
0100
0010
0010
0100
0000
,
1001
0000
1000
1000
0001
0001
0100
0000
,
1001
0000
0001
0001
1000
1000
0100
0000
,
1100
0000
0010
0010
0011
0000
1000
1000
,
1010
0000
0001
0001
0011
0000
1000
1000
,
0100
0010
0001
0010
0100
1000
0100
0010
,
0002
0003
2002
3003
,
0010
0000
1000
0010
1000
0000
0001
0000
1000
0000
0100
0000
0010
0000
0001
0000
,
1000
0100
0010
0001
0010
0100
1000
0000
,
0001
0000
0100
0010
0100
0000
0001
0000
1000
0000
0010
0000
0100
0000
0001
0000
,
1000
0100
0010
0001
1000
0000
1001
0000
,
0001
0000
0100
0010
0100
0000
0001
0000
1000
0000
0100
0000
0010
0000
0001
0000
,
1000
0000
0000
0000
0001
0100
0001
0100
0001
0000
1000
0000
0001
0000
0000
0000
,
0010
0000
1000
0010
1000
0000
0001
0000
1000
0000
0100
0000
0010
0000
0001
0000
,
0100
0010
0100
0010
2000
0000
3001
0000
,
0100
0000
0010
0100
0000
0100
0010
0000
1000
0000
0100
0000
0010
0000
0001
0000
,
1000
0000
0001
1000
0000
1000
0001
0000
1000
0000
0010
0000
0100
0000
0000
0000
,
0001
0000
0100
0001
0000
0001
0100
0000
0010
0000
1000
0000
0100
0000
0010
0000
,
0001
0000
1000
0100
0000
0100
1000
0000
0020
0000
0000
0000
0130
0000
0000
0000
,
0001
0000
1000
0001
0000
0001
1000
0000
0100
0000
0010
0000
0001
0000
1000
0000
,
0001
0000
0000
0000
1000
0010
1000
0010
1000
0000
0001
0000
0100
0000
0000
0000
,
0010
0000
1000
0100
0000
0100
1000
0000
0010
0000
0100
0000
0001
0000
1000
0000
,
1001
0110
2002
3003
,
0010
0000
0000
0000
0000
1000
0001
1000
0001
0000
0000
0000
0000
0000
0000
0000
,
0100
0000
0000
0000
0000
0001
1000
0001
1000
0000
0000
0000
0010
0000
0000
0000
,
1000
0000
0000
0000
0000
0001
0100
0001
0100
0000
0010
1000
0000
0000
0000
0000
,
0001
0010
0001
0010
0001
0000
1000
0100
0000
0000
0010
0001
0000
0000
1000
0000
,
0010
0000
0100
0010
0000
0000
1000
0000
1000
0000
1000
0000
1001
0000
0000
0000
,
0001
0010
0001
0010
0100
0100
1100
0000
,
1000
0010
1000
0010
0100
0001
0100
0001
,
1000
1000
0001
0001
0200
0000
0310
0000
,
1000
0000
0100
1000
0100
0000
1000
0000
0010
0000
0100
0000
0001
0000
0010
0000
,
0001
0100
0010
1000
0100
0001
0200
0000
,
0310
0000
0001
0010
0001
0000
0100
0000
0010
0000
1000
0000
0100
0000
0010
0000
,
0001
1000
0100
1000
0002
0000
0103
0000
,
0010
0000
1000
0010
1000
0000
0001
0000
1000
0000
0100
0000
0010
0000
0001
0000
,
0100
0000
0000
0000
0010
1000
0010
1000
0010
0000
0100
0000
0001
0000
0000
0000
,
1000
0000
0100
1000
0100
0000
0010
0000
0001
0000
0010
0001
0010
0000
0001
0000
,
0100
0010
1000
1001
,
0010
1000
0010
1000
0010
0001
0010
0001
,
0010
1000
0010
0001
0010
1000
0010
0000
,
0100
0001
0100
0001
0100
1000
0100
1000
,
0100
0001
0100
1000
0200
0000
0310
0000
,
1000
0100
0010
0001
1000
0100
0010
0001
,
1000
0000
0000
0000
0001
0100
0010
0100
0001
0000
1000
0000
0010
0000
0000
0000
,
1000
0100
0010
0100
1000
0100
0001
0100
,
1000
0010
0100
0001
1000
0000
1001
0000
,
1001
0000
0000
0000
0110
0000
0000
0000
1100
0000
0000
1100
0000
0000
1000
0000
,
0001
0000
0000
0000
0011
0000
0000
0000
0101
0000
0000
0101
0000
0000
1000
0000
,
1001
0000
0000
0000
1010
0000
0000
0000
0011
0000
0000
0011
0000
0000
0011
0000
,
1000
0100
0010
0001
1000
0000
1001
0000
,
0010
0000
1000
0010
1000
0000
0001
0000
0100
0000
0010
0100
0010
0000
0100
0000
,
0001
0000
0000
0000
1000
0010
1000
0010
1000
0000
0001
0000
0100
0000
0000
0000
,
0001
0000
0010
0001
0010
0000
0001
0000
1000
0000
0100
1000
0100
0000
1000
0000
,
1001
0011
2200
3300
,
2002
0000
0000
0000
,
3003
0000
0000
0000
;

//---------------dance-double - ----------------
#NOTES:
     dance-double:
     :
     Hard:
     12:
     0.595984,0.591298,0.134577,0.092522,0.138783,496.000000,480.000000,16.000000,11.000000,0.000000,0.000000,0.595984,0.591298,0.134577,0.092522,0.138783,496.000000,480.000000,16.000000,11.000000,0.000000,0.000000:
00000000
00000000
00000000
00000000
,
00000000
00000000
00000000
00000000
,
00000000
00000000
00000000
00000000
,
00000000
00000000
00000000
00000000
,
00000000
00000000
00000000
00000000
,
00100000
10000000
01000000
00100000
00010000
01000000
00010000
00000000
,
00100000
00001000
00010000
00001000
00100000
00100000
00001000
00000000
,
00010000
00000100
00001000
00000100
00001000
00000010
00000100
00000001
,
00001000
00001000
00000100
00000100
00020000
00000000
00031000
00000000
,
00100000
00010000
10000000
01000000
00100000
00010000
00100000
00001000
,
00010000
00000010
00001000
00000001
00000100
00000010
00001000
00000000
,
00000100
00000000
00000000
00000000
00000100
00010000
00000000
00000000
00010000
00000000
00000000
00010000
00001000
00000000
00000000
00000000
,
00100000
00000000
00000000
00000000
00100000
00010000
00000000
00000000
00010000
00000000
00000000
00010000
01000000
00000000
00000000
00000000
,
10000000
00100000
10000000
00010000
00100000
00001000
00010000
00000100
,
00001000
00000000
00000000
00000000
00000001
00000100
00000001
00000100
00000001
00000000
00001000
00000000
00000100
00000000
00000000
00000000
,
00010000
00000000
00000000
00000000
00010000
00001000
00000000
00000000
00001000
00000000
00000000
00001000
01000000
00000000
00000000
00000000
,
00100000
00000000
10000000
10000000
00010000
00010000
00100000
00000000
,
00001000
00000000
00010000
00010000
00000010
00000010
00001000
00000000
,
00001001
00000000
00000100
00000100
00010000
00010000
00001000
00000000
,
00011000
00000000
00100000
00100000
00010000
00010000
01000000
00000000
,
10010000
00000000
00100000
00100000
01000000
01000000
00001000
00000000
,
00011000
00000000
00010000
00000100
00001000
00000000
00000010
00000100
,
00000001
00000000
00001000
00000100
00010000
00000000
00001000
01000000
,
00010000
10000000
00010000
01000000
00010000
00100000
00001000
00010000
,
00000200
00000000
00010300
00011000
,
00001000
00100000
00001000
00010000
00001000
00100000
00010000
01000000
,
00100000
10000000
01000000
00100000
00010000
00100000
00001000
00000000
,
00010000
00000100
00001000
00000100
00010000
00000100
00001000
00000100
,
00000010
00000001
00001000
00000100
00020000
00000000
00031000
00000000
,
00100000
00010000
01000000
00010000
10000000
00010000
00100000
00001000
,
00010000
00000000
00000000
00000000
00000100
00010000
00000100
00010000
00000100
00000000
00001000
00000000
00000010
00000000
00000000
00000000
,
00000100
00000001
00001000
00000010
00010000
00001000
00100000
00010000
,
10000000
01000000
00100000
00010000
01000000
00000000
10010000
00000000
,
10000000
00000000
00100000
10000000
00100000
00000000
10000000
00000000
01000000
00000000
00100000
00000000
00010000
00000000
00100000
00000000
,
00001000
00010000
00001000
00100000
00001000
00010000
00000010
00000000
,
00001000
00000000
00000100
00010000
00000100
00000000
00001000
00000000
00000010
00000000
00000100
00000000
00000001
00000000
00001000
00000000
,
00000100
00010000
00001000
00010000
00001000
00000000
00101000
00000000
,
00100000
00010000
01000000
00100000
10000000
01000000
00100000
00010000
,
00100000
00000000
00000000
00000000
00001000
00100000
00001000
00100000
00001000
00000000
00010000
00000000
00001000
00000000
00000000
00000000
,
00010000
00000100
00001000
00000100
00000010
00000001
00001000
00000100
,
00010000
00011000
02002000
03003000
,
00010000
00000000
00000000
00000000
00000000
10000000
01000000
10000000
01000000
00000000
00000000
00000000
00000000
00000000
00000000
00000000
,
00100000
00000000
00000000
00000000
00000000
00001000
00010000
00001000
00010000
00000000
00000000
00000000
00000000
00000000
00000000
00000000
,
00000010
00000000
00000000
00000000
00000000
00001000
00000001
00001000
00000001
00000000
00001000
00000100
00000000
00000000
00000000
00000000
,
00010000
00001000
00010000
00001000
00010000
00000000
00001000
00100000
00000000
00000000
00100000
00010000
00000000
00000000
01000000
00000000
,
00100000
00000000
10000000
01000000
00000000
00000000
00100000
00000000
00001000
00000000
00010000
00000000
00000010
00000000
00001000
00000000
,
00000001
00000001
00001000
00000100
00010000
00001000
01000000
01000000
,
00010000
10000000
01000000
00100000
00010000
00100000
00100000
00001000
,
00010000
00010000
00001000
00001000
00020000
00000000
00030010
00000000
,
00001000
00000100
00000010
00000001
00001000
00000100
00010000
00001000
,
00010000
00001000
01000000
00010000
10000000
01000000
00200000
00000000
,
00301000
00010000
00001000
00010000
00000100
00001000
00000100
00000010
,
00000001
00001000
00000100
00010000
00002000
00000000
01003000
00000000
,
00010000
00100000
01000000
10000000
00010000
00100000
00001000
00010000
,
00001000
00000000
00000000
00000000
00010000
00000100
00010000
00000100
00010000
00000000
00001000
00000000
00020000
00000000
00000000
00000000
,
00030010
00001000
00000100
00000010
00000001
00001000
00000100
00010000
,
00001000
00001000
00001000
00001000
01000000
00000000
10010000
00000000
,
10000000
00100000
10000000
00010000
10000000
01000000
00100000
00010000
,
00100000
00001000
00100000
00010000
00100000
00001000
00010000
00000000
,
00000100
00001000
00000100
00000010
00000001
00001000
00000100
00010000
,
00001000
00010000
00001000
01000000
00010000
00000000
10010000
00000000
,
10000000
00000000
00100000
01000000
00100000
00000000
10000000
00000000
01000000
00000000
00100000
00000000
00010000
00000000
00100000
00000000
,
00001000
00000000
00000000
00000000
00010000
00000100
00010000
00001000
00010000
00000000
00000100
00000000
00001000
00000000
00000000
00000000
,
00000001
00000010
00000100
00001000
00000100
00010000
00001000
00010000
,
00001000
00100000
00010000
01000000
00100000
00000000
10010000
00000000
,
10000000
00100000
00010000
00100000
10000000
01000000
00010000
01000000
,
10000000
00100000
01000000
00010000
00100000
00001000
00001000
00000000
,
00010000
00000100
00001000
00000100
00010000
00000100
00001000
00000100
,
00000010
00000001
00001000
00000100
00010000
00000000
00011000
00000000
,
00100000
00010000
01000000
00100000
10000000
01000000
00010000
01000000
,
10000000
00000000
00000000
00000000
00010000
00100000
01000000
00100000
00010000
00000000
00100000
00000000
00001000
00000000
00000000
00000000
,
00010000
00000100
00001000
00000100
00000010
00000001
00001000
00000100
,
00010000
00011000
01001000
00000000
,
00022000
00000000
00000000
00000000
,
00033000
00000000
00000000
00000000
;

//---------------dance-double - ----------------
#NOTES:
     dance-double:
     :
     Medium:
     10:
     0.480632,0.497935,0.218688,0.067289,0.012617,400.000000,374.000000,26.000000,8.000000,0.000000,0.000000,0.480632,0.497935,0.218688,0.067289,0.012617,400.000000,374.000000,26.000000,8.000000,0.000000,0.000000:
00000000
00000000
00000000
00000000
,
00000000
00000000
00000000
00000000
,
00000000
00000000
00000000
00000000
,
00000000
00000000
00000000
00000000
,
00000000
00000000
00000000
00000000
,
00100000
00010000
00100000
00000000
00001000
00010000
00001000
00000000
,
00010000
00000100
00010000
00000100
00010000
00000100
00010000
00000000
,
00000100
00001000
00000100
00000000
00001000
00000010
00000100
00000000
,
00000001
00001000
00000001
00001000
00000001
00000000
00001001
00000000
,
00000100
00010000
00000100
00000000
00001000
00010000
00001000
00000000
,
00010000
00000000
00001000
00100000
00001000
00000000
00100000
00000000
,
00010000
01000000
10000000
01000000
,
00010000
00100000
00001000
00010000
,
00000100
00000000
00001000
00000010
00001000
00000000
00000001
00000100
,
00000001
00000000
00001000
00000100
00001000
00000100
00001000
00000000
,
00000100
00010000
00001000
01000000
,
00010000
00000000
10000000
10000000
10000000
00000000
10010000
00000000
,
00100000
00000000
00001000
00001000
00001000
00000000
00010000
00000000
,
00001010
00000000
00000100
00000100
00000100
00000000
00000001
00000000
,
00001010
00000000
00000100
00000100
00000100
00000000
00010000
00000000
,
00011000
00000000
00001000
00001000
00001000
00000000
00100000
00000000
,
01010000
00100000
10010000
00100000
,
01010000
00100000
00011000
00100000
,
00010100
00010000
00011000
00001000
,
00200000
00000000
02000000
03300000
,
00010000
10000000
00010000
00000000
00100000
00010000
00100000
00000000
,
00001000
00010000
00001000
00010000
00001000
00000000
00010000
00000000
,
00000100
00001000
00000100
00000000
00001000
00000010
00001000
00000000
,
00000001
00000100
00000010
00000100
00000001
00000000
00001001
00000000
,
00000010
00001000
00000010
00000000
00001000
00000100
00000010
00000100
,
00001000
00000000
00000100
00010000
00001000
00010000
00000100
00000000
,
00010000
00001000
00100000
00000000
00001000
00100000
00010000
00000000
,
00100000
00010000
10000000
00010000
00100000
00000000
10010000
00000000
,
10000000
00100000
01000000
00000000
00010000
01000000
00010000
00000000
,
00100000
00100000
00001000
00001000
00010000
00000000
00000100
00000000
,
00001000
00000010
00001000
00000000
00000001
00000100
00000001
00000000
,
00000010
00000010
00001000
00001000
00000100
00000000
00010000
00000000
,
00001000
00100000
00001000
00000000
00100000
00010000
01000000
00010000
,
00100000
00000000
00010000
01000000
00100000
01000000
00010000
00000000
,
10000000
00100000
01000000
00100000
10000000
00100000
01000000
00100000
,
10000000
10010000
00110000
00001000
,
00010000
00000000
00000000
00010000
00011000
00000000
00000000
00000000
,
00000100
00000000
00000000
00001000
00001100
00000000
00000000
00000000
,
00000010
00000000
00000000
00001000
00001000
00000000
00000001
00000000
,
00000100
00000010
00000100
00000000
00000001
00000000
00001000
00000000
,
00000100
00010000
00000100
00000000
00010000
00001000
00010000
00000000
,
00001000
00100000
00001000
00100000
00001000
00100000
00001000
00000000
,
00100000
00010000
01000000
00000000
00100000
10000000
01000000
00000000
,
00100000
00100000
00100000
00100000
00020000
00000000
00130000
00000000
,
00100000
00001000
00100000
00001000
00010000
00000000
00000100
00000000
,
00001000
00000100
00001000
00000100
00000010
00000000
00000001
00000000
,
00001000
00000010
00001000
00000010
00000100
00000000
00000001
00000000
,
00001000
00000100
00001000
00000100
00010000
00000000
00001000
00000000
,
00100000
00010000
00100000
00000000
00010000
01000000
00100000
00000000
,
10000000
00100000
01000000
00000000
00010000
01000000
00100000
00000000
,
10000000
00010000
10000000
00010000
00100000
00010000
00100000
00000000
,
00001000
00010000
00002000
00013000
,
00010000
00000100
00010000
00000000
00000100
00001000
00000100
00000000
,
00001000
00000010
00000100
00000001
00000100
00000000
00000010
00000000
,
00001000
00000100
00001000
00000000
00000100
00010000
00000100
00000000
,
00010000
00001000
00010000
00001000
00010000
00000000
00001000
00000000
,
00100000
00010000
01000000
00000000
00100000
10000000
01000000
00000000
,
00110000
00000000
00100000
00001000
00100000
00001000
00100000
00000000
,
00001000
00010000
00000100
00000000
00001000
00000100
00000010
00000000
,
00000101
00001010
00000101
00001001
,
00000010
00000000
00000000
00000000
00000010
00000000
00000000
00000000
00001000
00000000
00000000
00000100
00000000
00000000
00000001
00000000
,
00000010
00000000
00000000
00000000
00000010
00000000
00000000
00000000
00000001
00000000
00000000
00000100
00000000
00000000
00001000
00000000
,
00000100
00000000
00000000
00000000
00000100
00000000
00000000
00000000
00010000
00000000
00000000
00001000
00000000
00000000
00100000
00000000
,
00010000
01000000
00100000
10000000
01000000
00000000
00110000
00000000
,
10000000
00100000
10000000
00000000
00010000
00100000
00010000
00000000
,
00100000
00001000
00100000
00001000
00100000
00001000
00100000
00000000
,
00001000
00010000
00001000
00000000
00010000
00000100
00001000
00000000
,
00000010
00000110
00002002
00003003
,
00022000
00000000
00000000
00000000
,
00033000
00000000
00000000
00000000
;

//---------------dance-single - ----------------
#NOTES:
     dance-single:
     :
     Medium:
     10:
     0.487842,0.497935,0.277565,0.042055,0.012617,406.000000,373.000000,33.000000,5.000000,0.000000,0.000000,0.487842,0.497935,0.277565,0.042055,0.012617,406.000000,373.000000,33.000000,5.000000,0.000000,0.000000:
0000
0000
0000
0000
,
0000
0000
0000
0000
,
0000
0000
0000
0000
,
0000
0000
0000
0000
,
0000
0000
0000
0000
,
0010
1000
0010
0000
0100
0010
0100
0000
,
0001
1000
0001
1000
0001
1000
0001
0000
,
0100
0100
0010
0000
0010
0010
0100
0000
,
0001
1000
0001
1000
0001
0000
1001
0000
,
0001
0100
0001
0000
1000
0100
1000
0000
,
0001
1000
0010
0100
,
0001
0100
1000
0100
,
0001
0010
1000
0010
,
0001
0010
0001
0000
1000
0010
1000
0000
,
0001
0000
0100
0010
0100
0010
0100
0000
,
0001
1000
0010
0100
,
1001
0000
0010
0010
0010
0000
0100
0000
,
1001
0000
0100
0100
0100
0000
0010
0000
,
1100
0000
0001
0001
0001
0000
0010
0000
,
1010
0000
0100
0100
0100
0000
0001
0000
,
1001
0000
0010
0010
0010
0000
1001
0000
,
0110
0100
1001
0100
,
1010
0100
1001
0010
,
0100
0001
0100
0000
1000
0010
1000
0000
,
0100
0000
0220
0330
,
0001
0100
0001
0000
1000
0100
1000
0000
,
0010
0100
0010
0100
0010
0000
0010
0000
,
1000
0001
1000
0000
0001
1000
0001
0000
,
1000
0100
1000
0100
1000
0000
1001
0000
,
0001
0100
0001
0000
1000
0010
1000
0010
,
1000
0000
0010
0100
0010
0100
0010
0000
,
1000
0100
1000
0000
0010
0100
0010
0000
,
0100
0001
0100
0001
0100
0000
0010
0000
,
1000
0100
0010
0000
0100
0010
0001
0000
,
1000
0001
1000
0001
1000
0001
1000
0000
,
0001
0010
0100
0000
0010
0100
1000
0000
,
0010
0100
0010
0100
0010
0000
1001
0000
,
0010
0100
0010
0000
0010
1000
0010
0000
,
0101
0000
0001
1000
0001
1000
0001
0000
,
1000
0100
1000
0000
0001
0100
0001
0000
,
0110
1001
0110
0000
,
1001
0000
0000
1000
1100
0000
0000
0000
,
0000
0000
0000
0010
0011
0000
0000
0000
,
0000
0000
0000
0100
0010
0000
0100
0000
,
0001
0100
1000
0000
0010
0000
0100
0000
,
0001
1000
0001
0000
1000
0000
1000
0000
,
0100
0010
0100
0000
0001
0000
0001
0000
,
0010
0100
0010
0000
1000
0000
1000
0000
,
0001
1000
0001
1000
0001
0000
1001
0000
,
0100
0000
0010
1000
0010
0000
0100
0000
,
0001
0000
1000
0010
1000
0000
0001
0000
,
1001
0000
0010
0100
0010
0100
0010
0000
,
1000
0100
1000
0100
1000
0000
0101
0000
,
0001
1000
0001
0000
1000
0010
1000
0000
,
0001
0100
0010
0000
1000
0010
0100
0000
,
0001
0100
0010
1000
0001
0100
0010
1000
,
0001
1000
0001
1000
0001
0000
1001
0000
,
0010
0100
0010
0000
1000
0010
1000
0000
,
0001
0010
0001
0100
0001
0010
0001
0000
,
1000
0010
1000
0000
0001
0100
0001
0000
,
1000
0100
0010
0100
1000
0000
1001
0000
,
0001
0010
0001
0000
1000
0010
1000
0010
,
0100
0000
0001
0100
0001
0100
0010
0000
,
1000
0010
1000
0010
0100
0010
0100
0010
,
1000
0101
1000
0110
,
1001
0000
0000
0000
0010
0000
0000
0000
0100
0000
0000
0100
0000
0000
0100
0000
,
0010
0000
0000
0000
1001
0000
0000
0000
0100
0000
0000
0100
0000
0000
0100
0000
,
0010
0000
0000
0000
1001
0000
0000
0000
0010
0000
0000
0010
0000
0000
0010
0000
,
0100
0001
0100
0010
0200
0000
0310
0000
,
1000
0100
1000
0100
0010
0001
0010
0001
,
1000
0000
0001
0100
0001
0000
1000
0000
,
0001
0010
0001
0010
0100
1000
0100
1000
,
0010
0100
1001
0000
,
2002
0000
0000
0000
,
3003
0000
0000
0000
;

//---------------dance-double - ----------------
#NOTES:
     dance-double:
     :
     Easy:
     6:
     0.314814,0.404572,0.235510,0.235510,0.000000,262.000000,234.000000,28.000000,28.000000,0.000000,0.000000,0.314814,0.404572,0.235510,0.235510,0.000000,262.000000,234.000000,28.000000,28.000000,0.000000,0.000000:
00000000
00000000
00000000
00000000
,
00000000
00000000
00000000
00000000
,
00000000
00000000
00000000
00000000
,
00000000
00000000
00000000
00000000
,
00000000
00000000
00000000
00000000
,
00100000
00001000
00010000
00000010
,
00001000
00000100
00000010
00000001
,
00001000
00000100
00010000
00001000
,
00100000
00100000
00200000
02300000
,
03010000
10000000
00010000
10000000
,
00100000
01000000
00100000
01000000
,
00010000
00000000
10010000
00000000
,
10000000
00000000
10010000
00000000
,
00100000
00001000
00010000
00001000
,
00010000
00000010
00001000
00000010
,
00001000
00000000
00001001
00000000
,
00000010
00001000
00000100
00010000
,
00011000
00001000
00100000
00010000
,
10010000
00100000
00001000
00010000
,
00011000
00010000
00000010
00001000
,
00001001
00001000
00000010
00010000
,
00011000
00000000
01001000
00000000
,
00011000
00000000
00010100
00000000
,
00011000
00000000
00011000
00000000
,
00000000
00000000
00022000
00033000
,
00001000
00100000
00001000
00000000
00100000
00000000
00010000
00000000
,
01000000
00100000
10000000
00010000
,
10000000
00010000
10000000
00000000
00100000
00000000
01000000
00000000
,
00010000
00010000
20020000
30030000
,
00100000
00010000
00100000
00000000
00001000
00000000
00010000
00000000
,
00000100
00000100
00001000
00000010
,
00000100
00000001
00000100
00000000
00000010
00000000
00001000
00000000
,
00000100
00000100
00002002
00003003
,
00000010
00000100
00000001
00001000
,
00000010
00000100
00000100
00000010
,
00001000
00000100
00010000
00001000
,
01000000
00010000
20020000
30030000
,
00100000
00001000
00010000
00001000
,
00100000
00001000
00001000
00010000
,
00000010
00001000
00000001
00000100
,
00001000
00010000
01000000
00000000
,
20000000
30000000
00020000
00030000
,
00200000
00300000
00002000
00003000
,
00020000
00030000
00000200
00000300
,
00001000
00000100
00000001
00000100
,
00002000
00003000
00000020
00000030
,
00000002
00000003
00000200
00000300
,
00001000
00000100
00010000
00001000
,
01000000
01000000
02000000
03000000
,
00100000
00000000
10000000
00000000
,
00010000
00000000
00100000
00000000
,
00001000
00000000
00010000
00010000
,
00000010
00000010
00001000
00001000
,
00000001
00000100
00000001
00000100
,
00001000
00000010
00001000
00000010
,
00001000
00000100
00010000
00001000
,
00010000
00010000
00020000
00030000
,
00001000
00100000
00001000
00100000
,
00010000
01000000
10000000
01000000
,
00010000
00100000
00010000
00100000
,
00001000
00010000
00000200
00000300
,
00001000
00000100
00000001
00000100
,
00001000
00000010
00000010
00001001
,
00000001
00000100
00001000
00000100
,
00000001
00001000
00000200
00000300
,
00010000
00000000
00011000
00011000
,
00001000
00000000
00011000
00011000
,
00010000
00000000
00011000
00011000
,
00001000
00100000
20020000
30030000
,
00100000
00001000
00010000
00000100
,
00001000
00000100
00000010
00000001
,
00001000
00000100
00010000
00001000
,
00100000
01010000
10010000
00000000
,
02200000
00000000
00000000
00000000
,
03300000
00000000
00000000
00000000
;

//---------------dance-single - ----------------
#NOTES:
     dance-single:
     :
     Easy:
     6:
     0.322024,0.435693,0.285976,0.294387,0.000000,268.000000,234.000000,34.000000,35.000000,0.000000,0.000000,0.322024,0.435693,0.285976,0.294387,0.000000,268.000000,234.000000,34.000000,35.000000,0.000000,0.000000:
// measure 0
0000
0000
0000
0000
,  // measure 1
0000
0000
0000
0000
,  // measure 2
0000
0000
0000
0000
,  // measure 3
0000
0000
0000
0000
,  // measure 4
0000
0000
0000
0000
,  // measure 5
0100
0001
1000
0010
,  // measure 6
1000
0001
0100
0010
,  // measure 7
1000
0100
0010
0001
,  // measure 8
0100
0100
2002
3003
,  // measure 9
0010
0010
0001
0001
,  // measure 10
0100
0100
1000
1000
,  // measure 11
0010
0000
0100
0000
,  // measure 12
0001
0000
1000
0000
,  // measure 13
0010
0010
1000
1000
,  // measure 14
0100
0100
0001
0001
,  // measure 15
1000
0000
0010
0000
,  // measure 16
0100
0001
0001
0001
,  // measure 17
1001
1000
1000
1000
,  // measure 18
1001
0001
0001
0001
,  // measure 19
1001
0100
0100
0100
,  // measure 20
1001
0010
0010
0010
,  // measure 21
1001
0000
0110
0000
,  // measure 22
1001
0000
0110
0000
,  // measure 23
1001
0000
0110
0000
,  // measure 24
0000
0000
2002
3003
,  // measure 25
0001
0100
0001
0000
1000
0000
1000
0000
,  // measure 26
0010
0010
0100
0100
,  // measure 27
0001
0001
1000
1000
,  // measure 28
0010
0100
2002
3003
,  // measure 29
0001
0100
0001
0000
1000
0000
1000
0000
,  // measure 30
0010
0010
1000
1000
,  // measure 31
0001
0100
0010
1000
,  // measure 32
0010
0010
0100
0000
,  // measure 33
1000
0001
1000
0000
0010
0000
0010
0000
,  // measure 34
0100
0100
0001
0001
,  // measure 35
1000
0100
1000
0000
0010
0000
0010
0000
,  // measure 36
0100
0001
2000
3000
,  // measure 37
0010
0100
0010
0000
0010
0000
0010
0000
,  // measure 38
1000
0100
0010
0001
,  // measure 39
0100
0010
0100
0000
0100
0000
0100
0000
,  // measure 40
0010
0100
2002
3003
,  // measure 41
0020
0030
0002
0003
,  // measure 42
0200
0300
2000
3000
,  // measure 43
0020
0030
2000
3000
,  // measure 44
0200
0300
0002
0003
,  // measure 45
1000
0100
1000
0100
,  // measure 46
0001
0100
0001
0100
,  // measure 47
1000
0100
0010
0001
,  // measure 48
0100
0100
0100
0000
,  // measure 49
0020
0030
2000
3000
,  // measure 50
0200
0300
2000
3000
,  // measure 51
0020
0030
0002
0003
,  // measure 52
0200
0300
0002
0003
,  // measure 53
1000
0010
1000
0010
,  // measure 54
0001
0010
0001
0010
,  // measure 55
1000
0001
0100
0010
,  // measure 56
1000
1000
2002
3003
,  // measure 57
0010
0010
0100
0100
,  // measure 58
0001
0100
1000
0100
,  // measure 59
0001
0001
1000
1000
,  // measure 60
0010
0100
2002
3003
,  // measure 61
0010
0001
0100
1000
,  // measure 62
0010
1010
0101
1010
,  // measure 63
0010
1000
0100
0001
,  // measure 64
0010
0100
2002
3003
,  // measure 65
0110
0000
1001
1001
,  // measure 66
0110
0000
1001
1001
,  // measure 67
1100
0000
1001
1001
,  // measure 68
0100
0010
2002
3003
,  // measure 69
0001
0100
0010
1000
,  // measure 70
0100
0010
0001
0100
,  // measure 71
0010
0010
0100
0100
,  // measure 72
1001
0110
1001
0000
,  // measure 73
2002
0000
0000
0000
,  // measure 74
3003
0000
0000
0000
;

//---------------dance-single - ----------------
#NOTES:
     dance-single:
     :
     Beginner:
     3:
     0.171826,0.248968,0.067289,0.016822,0.000000,143.000000,135.000000,8.000000,2.000000,0.000000,0.000000,0.171826,0.248968,0.067289,0.016822,0.000000,143.000000,135.000000,8.000000,2.000000,0.000000,0.000000:
// measure 0
0000
0000
0000
0000
,  // measure 1
0000
0000
0000
0000
,  // measure 2
0000
0000
0000
0000
,  // measure 3
0000
0000
0000
0000
,  // measure 4
0000
0000
0000
0000
,  // measure 5
0010
0000
0000
0000
,  // measure 6
0001
0000
0000
0000
,  // measure 7
0100
0000
0000
0000
,  // measure 8
1000
0000
1000
0000
,  // measure 9
0001
0000
0001
0000
,  // measure 10
1000
0000
1000
0000
,  // measure 11
0001
0000
1000
0000
,  // measure 12
0001
0000
1000
0000
,  // measure 13
0010
0000
0010
0000
,  // measure 14
0100
0000
0100
0000
,  // measure 15
0010
0000
0100
0000
,  // measure 16
0010
0000
0010
0000
,  // measure 17
0001
0000
0000
0000
,  // measure 18
0100
0000
0000
0000
,  // measure 19
1000
0000
0000
0000
,  // measure 20
0010
0000
0000
0000
,  // measure 21
0001
0000
1000
0000
,  // measure 22
0001
0000
1000
0000
,  // measure 23
0001
0000
1000
0000
,  // measure 24
0000
0000
0100
0000
,  // measure 25
0001
0001
0001
0000
,  // measure 26
1000
0000
1000
0000
,  // measure 27
0001
0001
0001
0000
,  // measure 28
1000
1000
0000
0000
,  // measure 29
0010
0010
0010
0000
,  // measure 30
0100
0000
0100
0000
,  // measure 31
0010
0010
0010
0000
,  // measure 32
0100
0100
0100
0000
,  // measure 33
0001
0000
0100
0000
,  // measure 34
1000
0000
0010
0000
,  // measure 35
1000
0000
0100
0000
,  // measure 36
0001
0000
0010
0000
,  // measure 37
0001
0000
0100
0000
,  // measure 38
1000
0000
0100
0000
,  // measure 39
0001
0000
0010
0000
,  // measure 40
0100
0100
0100
0000
,  // measure 41
0000
0000
1001
0000
,  // measure 42
0000
0000
1001
0000
,  // measure 43
0000
0000
1001
0000
,  // measure 44
0000
1000
1000
0000
,  // measure 45
0000
0001
0000
0001
,  // measure 46
0000
1000
0000
1000
,  // measure 47
0000
0010
0000
0100
,  // measure 48
0000
0100
0100
0000
,  // measure 49
0000
0000
1001
0000
,  // measure 50
0000
0000
1001
0000
,  // measure 51
0000
0000
1001
0000
,  // measure 52
0010
0010
0010
0000
,  // measure 53
0001
0000
1000
0000
,  // measure 54
0001
0000
1000
0000
,  // measure 55
0001
0000
1000
0000
,  // measure 56
0000
0000
0000
0000
,  // measure 57
0100
0100
0100
0000
,  // measure 58
0001
0000
1000
0000
,  // measure 59
0001
0000
1000
0000
,  // measure 60
0010
0010
0010
0000
,  // measure 61
1000
0000
0001
0000
,  // measure 62
1000
0000
0001
0000
,  // measure 63
1000
0000
0100
0000
,  // measure 64
0010
0010
0010
0000
,  // measure 65
1000
0000
0001
0000
,  // measure 66
1000
0000
0001
0000
,  // measure 67
1000
0000
0001
0000
,  // measure 68
0100
0000
1001
0000
,  // measure 69
0010
0010
0010
0000
,  // measure 70
0100
0100
0100
0000
,  // measure 71
1000
1000
1000
0000
,  // measure 72
0001
0001
0001
0000
,  // measure 73
2002
0000
0000
0000
,  // measure 74
3003
0000
0000
0000
;
