#TITLE:Chaos\:Q;
#SUBTITLE:;
#ARTIST:nonuplet;
#TITLETRANSLIT:;
#SUBTITLETRANSLIT:;
#ARTISTTRANSLIT:;
#GENRE:;
#CREDIT:;
#BANNER:Chaos Q.png;
#BACKGROUND:Chaos Q-bg.png;
#LYRICSPATH:;
#CDTITLE:;
#MUSIC:Chaos Q.ogg;
#OFFSET:0.043000;
#SAMPLESTART:41.180008;
#SAMPLELENGTH:12.000000;
#SELECTABLE:YES;
#BPMS:0.000000=201.000000
,82.000000=300.000000
,83.000000=280.000000
,84.000000=260.000000
,86.000000=201.000000
,308.000000=100.489998
,323.000000=97.000000
,324.000000=300.000000
,356.000000=201.000000
,388.000000=402.000000
,406.000000=201.000000
;
#STOPS:
;
#BGCHANGES:;
#KEYSOUNDS:;
#ATTACKS:;

//---------------dance-single - ----------------
#NOTES:
     dance-single:
     :
     Hard:
     15:
     0.783112,1.001260,0.303700,0.083517,0.311292,722.000000,682.000000,40.000000,11.000000,0.000000,0.000000,0.783112,1.001260,0.303700,0.083517,0.311292,722.000000,682.000000,40.000000,11.000000,0.000000,0.000000:
// measure 0
0000
0000
0000
0000
,  // measure 1
0000
0000
0000
0000
,  // measure 2
0000
0000
0000
0000
,  // measure 3
0000
0000
0000
0000
,  // measure 4
1001
0001
0010
0100
0010
0001
1001
1000
,  // measure 5
0100
0010
0100
1000
1001
0000
0110
0000
,  // measure 6
1001
1000
0100
0010
0100
1000
1001
1001
,  // measure 7
0000
1100
0000
0011
0011
0000
0100
0000
,  // measure 8
0010
1000
0010
0100
0010
1000
0010
0100
,  // measure 9
0001
1000
0010
1000
0001
1000
0010
1000
,  // measure 10
0001
0000
0101
0000
1010
0000
0000
1100
,  // measure 11
1100
0000
0000
0010
0001
0100
0010
1000
,  // measure 12
0100
0010
0001
0100
0010
1000
0100
1000
,  // measure 13
0010
1000
0001
0010
0001
1000
0100
1000
,  // measure 14
0001
0100
0001
1000
0010
0100
0001
1000
,  // measure 15
0002
0000
0000
0000
0000
0000
0000
0000
0003
0000
1000
0010
1000
0000
0001
0000
,  // measure 16
0100
0010
1000
0100
0000
1001
0000
0011
,  // measure 17
0000
0001
0010
0100
1000
0100
0010
0001
,  // measure 18
0000
1010
0000
0010
0001
0100
0001
0010
,  // measure 19
0001
0001
0001
0100
0100
0100
0010
0010
,  // measure 20
0010
1000
1000
1000
0001
0100
0001
0000
,  // measure 21
1000
0010
1000
0000
1000
0100
1000
0001
,  // measure 22
0100
0001
1000
0010
1000
0001
0010
0001
,  // measure 23
1000
0100
1000
0001
0100
0001
1000
0010
,  // measure 24
1000
0001
0010
0001
1000
0001
1000
0010
,  // measure 25
0100
0010
1000
0001
1000
0010
0100
0010
,  // measure 26
1000
0100
1000
0001
0100
0001
1000
0010
,  // measure 27
1000
0001
0010
0001
1000
0100
1000
0001
,  // measure 28
0010
0001
1000
0001
1000
0010
0100
0010
,  // measure 29
1000
0100
1000
0001
0010
0001
1000
0001
,  // measure 30
0010
0000
0001
0000
1000
0000
0000
0000
0001
0100
0001
0100
0000
0000
0010
1000
,  // measure 31
0010
1000
0000
0000
0010
0100
0010
0100
0000
0000
1000
0001
1000
0001
0000
0000
,  // measure 32
0100
0010
0100
0010
1000
0001
1000
0001
0000
0000
0000
0000
0010
0000
0000
1100
,  // measure 33
0000
0000
0010
0000
0000
0101
0000
0000
1000
0000
0000
0110
0000
0000
0001
0000
,  // measure 34
0000
0110
0000
0000
0001
0100
0001
0100
0010
1000
0010
1000
0001
0000
0100
0000
,  // measure 35
0020
0000
1030
0100
1200
0000
1300
0010
,  // measure 36
0210
0000
0301
0010
0012
0000
0103
0010
,  // measure 37
1020
0000
0130
0001
0102
0000
1003
0010
,  // measure 38
1000
0010
0000
0000
0010
0100
0000
0000
0100
0001
0000
0000
0001
1000
0000
0000
,  // measure 39
1000
0010
1000
0000
0010
0000
0100
0000
0001
0100
0001
0000
1000
0000
0001
0000
,  // measure 40
0100
0010
0100
0000
0010
0000
1000
0000
0001
0010
0001
0000
0100
0000
0010
0000
,  // measure 41
1000
0100
1000
0001
0100
0001
0100
0000
,  // measure 42
0001
0010
0001
0000
0100
0001
0100
0000
0001
1000
0001
0000
0010
0001
0010
0000
,  // measure 43
0001
0100
0001
0100
0000
0000
0010
1000
0010
1000
0000
0000
,  // measure 44
0001
0010
0001
0010
0000
0000
1000
0010
1000
0010
0000
0000
,  // measure 45
0100
0010
0100
0010
1000
0001
1000
0001
,  // measure 46
1000
0100
1000
0000
0001
0100
0001
0000
,  // measure 47
1000
0010
1000
0000
0001
0100
0001
0000
1000
0100
1000
0000
0001
0100
0001
0000
,  // measure 48
1000
0100
1000
0000
0001
0100
0001
0000
1000
0001
1000
0000
0001
1000
0001
0000
,  // measure 49
1000
0100
0010
0001
1000
0010
0100
0001
,  // measure 50
1000
1000
0001
0001
0100
0100
0010
0010
,  // measure 51
1000
0000
0001
0000
,  // measure 52
0100
0000
0010
0000
,  // measure 53
1000
0000
0100
0000
,  // measure 54
0010
0000
0001
0000
,  // measure 55
0100
0001
0100
0001
1000
0010
0100
0001
,  // measure 56
1000
0001
1000
0001
1000
0100
0010
0001
,  // measure 57
0100
0010
0100
0010
1000
0001
1000
0001
,  // measure 58
1000
0010
1000
0010
0100
0010
0100
0001
,  // measure 59
1000
0001
1000
0001
0100
0010
0100
0001
,  // measure 60
1000
0100
1000
0001
0100
0001
0100
0001
,  // measure 61
1000
0010
1000
0010
0100
0001
0100
0001
,  // measure 62
1000
0100
0010
0001
1000
0100
0010
0001
,  // measure 63
1000
0000
0001
0100
0000
0101
0000
1100
,  // measure 64
0000
0001
0010
0100
1000
0000
1001
0000
,  // measure 65
1010
0000
0001
1000
0000
0101
0000
1100
,  // measure 66
0000
0010
0100
0001
0100
0010
1000
0000
,  // measure 67
0001
0000
1000
0001
0000
1100
0000
0101
,  // measure 68
0000
1000
0010
0000
0100
0001
1000
0000
,  // measure 69
0100
0000
0010
1000
0000
0001
1000
0001
,  // measure 70
0000
1100
0000
0001
0010
0100
1000
0000
,  // measure 71
0001
0100
0000
0001
0100
0000
0001
0100
0000
0001
0100
0000
0010
0000
1000
0000
,  // measure 72
0010
0100
0000
0010
0100
0000
0010
0100
0000
0010
0100
0000
0001
0000
1000
0000
,  // measure 73
0100
1000
0000
0100
1000
0000
0100
1000
0000
0100
1000
0000
0010
0000
0100
0000
,  // measure 74
0001
0010
0000
0001
0010
0000
0001
0010
0000
0001
0010
0000
0001
0000
0100
0000
,  // measure 75
0010
1000
0010
1000
0010
0000
0000
0000
0100
0001
0100
0001
0100
0000
0000
0000
,  // measure 76
0010
0100
0010
0100
0010
0000
0000
0000
1001
0000
0000
1001
0000
0000
1001
0000
,  // measure 77
0000
0000
0000
0010
0001
0000
0000
0001
0100
0000
0000
0100
1000
0000
0000
1000
,  // measure 78
0010
0000
0000
0010
0100
0000
0000
0100
0001
0000
1000
0000
0010
0000
0100
0000
,  // measure 79
0001
0000
0000
0001
0010
0000
0000
0010
1000
0000
0010
0000
0100
0000
0001
0000
,  // measure 80
1000
0000
0000
1000
0001
0000
0001
1000
0100
0000
0100
0000
0010
0000
0000
0000
,  // measure 81
0001
0010
0001
0000
1000
0100
1000
0000
,  // measure 82
0001
0100
0001
0000
1000
0100
1000
0000
,  // measure 83
0001
0100
0001
0000
1000
0010
1000
0000
,  // measure 84
0001
0010
0001
0000
1000
0010
1000
0000
,  // measure 85
0001
0010
0001
0010
0001
0010
0001
0000
,  // measure 86
1000
0100
1000
0100
1000
0100
1000
0000
,  // measure 87
0010
0100
0010
0100
0010
0100
0010
0000
,  // measure 88
1000
0001
1000
0001
0100
0010
0100
0000
,  // measure 89
2002
0000
0000
0000
,  // measure 90
0000
0000
0000
0000
,  // measure 91
0000
0000
0000
0000
,  // measure 92
0000
0000
3003
0000
,  // measure 93
1000
0100
0010
0100
1000
0100
0001
0100
,  // measure 94
1000
0010
0100
0010
1000
0010
0001
0010
,  // measure 95
1000
0100
0010
0100
1000
0001
0010
0001
,  // measure 96
1000
0100
0010
0100
1000
0010
0100
0010
,  // measure 97
1000
0000
0010
1000
0010
1000
0010
0000
,  // measure 98
0100
0000
0001
0010
0001
0010
0001
0000
,  // measure 99
1000
0100
1000
0000
0001
0010
0001
0000
,  // measure 100
0100
0010
0100
0010
0100
0010
0100
0010
,  // measure 101
0100
0000
2002
0000
,  // measure 102
0000
0000
0000
0000
,  // measure 103
0000
0000
0000
0000
,  // measure 104
0000
0000
0000
0000
,  // measure 105
0000
0000
3003
0000
;

//---------------dance-single - ----------------
#NOTES:
     dance-single:
     :
     Medium:
     12:
     0.485920,0.640807,0.174627,0.220182,0.034166,448.000000,425.000000,23.000000,29.000000,0.000000,0.000000,0.485920,0.640807,0.174627,0.220182,0.034166,448.000000,425.000000,23.000000,29.000000,0.000000,0.000000:
0000
0000
0000
0000
,
0000
0000
0000
0000
,
0000
0000
0000
0000
,
0000
0000
0000
0000
,
1001
0000
0010
1000
0010
0000
1001
0000
,
0010
0001
0010
0000
1001
0000
0110
0000
,
1001
0000
0010
1000
0010
0000
0100
0001
,
0000
1001
0000
1000
0001
0000
0000
0000
,
0010
1000
0010
0000
0100
0000
0001
1000
,
0000
1000
0001
0000
1000
0010
1000
0010
,
1000
0000
1001
0000
1001
0000
0000
0010
,
0100
0000
0100
0001
0000
0001
1000
0000
,
1000
0010
0000
0010
0100
0000
0100
0010
,
0000
0010
1000
0000
1000
0001
0000
0000
,
1001
0000
0000
0010
0000
1000
0100
0010
,
0002
0000
0000
0000
0003
0100
0001
0100
,
0010
0000
1000
0010
1000
0001
0000
0100
,
0000
0010
1000
0000
0010
0000
0100
0001
,
0000
1000
0000
0001
0100
0000
0001
0000
,
1000
0000
1000
0001
0000
0001
0100
0000
,
0100
0010
0000
0000
1000
0000
0001
0000
,
1000
0000
0001
0000
1000
0000
0001
0100
,
0000
0100
0001
0000
0001
1000
0000
1000
,
0001
0000
0100
0001
0000
0001
1000
0000
,
1000
0010
0000
0010
1000
0000
0001
0100
,
0000
0100
0001
0000
1000
0010
0000
0010
,
1000
0000
0001
1000
0000
1000
0001
0000
,
0001
0010
0000
0001
1000
0001
1000
0001
,
0000
0100
0010
0000
1000
0001
0000
0010
,
0100
0000
0001
0010
0000
0100
1000
0000
,
0001
0100
0000
0010
1000
0000
0000
0001
,
0000
0000
0100
0000
0000
0010
0000
0000
,
1000
0000
0001
0100
0000
0000
0011
0000
,
0000
1010
0000
0000
1100
0000
0000
0101
,
0000
0011
0000
0000
,
2000
0000
0000
3010
0200
0000
0000
0310
,
2000
0000
0000
3001
0020
0000
0000
0031
,
0200
0000
0000
0301
2000
0000
0000
3010
,
0100
0001
1100
0101
,
0020
0000
0000
1030
0100
0000
1000
0010
,
0200
0302
2003
3002
,
0203
0000
0000
0310
1000
0000
0001
0100
,
0010
1000
1010
1001
,
1000
0010
1000
0000
0001
0000
0100
0000
,
0001
0010
0001
0000
1000
0000
0100
0000
,
1000
0001
1000
0000
0010
0000
0100
0000
,
0001
1000
0001
0000
0100
0000
0010
0000
,
1000
0100
1000
0100
1000
0100
1000
0000
,
0010
0100
0001
1000
,
0001
0010
0001
0010
0001
0010
0001
0000
,
0100
0010
1000
0001
,
1010
0000
0011
0000
,
0101
0000
1100
0000
,
0010
0000
0001
0000
,
0100
0000
1000
0000
,
0001
0000
1000
0001
0000
0100
0000
0100
,
0000
0100
0001
0000
1000
0010
0100
0000
,
0001
0000
1000
0100
0000
0100
0000
0100
,
0000
1000
0001
0000
0100
0010
1000
0000
,
0001
0000
1000
0010
0000
0010
0000
0010
,
0000
1000
0001
0000
0100
0010
1000
0000
,
0001
0000
0010
1000
0000
1000
0000
1000
,
0000
0010
0100
0000
0001
1000
0100
0000
,
1000
0000
0001
0100
0000
0100
0001
0100
,
0000
0010
1000
0000
0001
0000
0100
0000
,
0010
0000
1000
0100
0000
0100
1000
0100
,
0000
0100
1000
0000
0001
0100
0010
0100
,
0001
0000
1000
0001
0000
0001
0000
1000
,
0000
0010
0100
0000
0001
1000
0100
1000
,
0002
0000
0100
0000
0103
0001
1000
0002
,
0000
0010
0010
0013
,
1000
0000
0000
0001
0000
0000
1000
0000
0000
0001
0000
0000
1000
0000
1000
0000
,
0010
0000
0000
0100
0000
0000
0010
0000
0000
0100
0000
0000
0010
0000
0010
0000
,
0100
0000
0000
0001
0000
0000
1000
0000
0000
0001
0000
0000
0100
0000
0100
0000
,
0001
0000
0000
0010
0000
0000
0100
0000
0000
1000
0000
0000
0010
0000
0010
0000
,
1000
0100
1000
0000
0001
0010
0001
0000
,
1000
0000
0010
0000
1000
0000
0000
0000
0001
0000
0000
0001
0000
0000
0001
0000
,
1000
0010
0001
0100
,
1000
0000
0100
0000
0001
0010
0100
1000
,
0010
0000
1000
0100
0010
0001
0100
0000
,
0001
1000
0010
0100
0001
1000
0001
0000
,
0020
0000
0032
0000
,
0203
0000
2300
0000
,
3020
0000
2030
0000
,
3200
0000
0302
0000
,
0013
0001
0010
0001
,
1000
0100
1000
0100
,
0001
0100
0001
0100
,
0010
1000
0010
1000
,
0020
0000
0000
0000
,
0000
0000
0000
0000
,
0200
0000
0000
0000
,
0000
0000
0330
0000
,
0002
0003
0100
1000
,
0002
0003
0010
1000
,
0001
0100
0010
1000
,
0001
0010
0100
1000
,
0001
0100
0001
0000
,
1000
0100
1000
0000
,
0010
0000
0100
0000
,
0010
0100
0010
0100
,
0010
0000
2002
0000
,
0000
0000
0000
0000
,
0000
0000
0000
0000
,
0000
0000
0000
0000
,
0000
0000
3003
0000
;

//---------------dance-single - ----------------
#NOTES:
     dance-single:
     :
     Easy:
     8:
     0.311292,0.480605,0.250552,0.296107,0.000000,287.000000,254.000000,33.000000,39.000000,0.000000,0.000000,0.311292,0.480605,0.250552,0.296107,0.000000,287.000000,254.000000,33.000000,39.000000,0.000000,0.000000:
0000
0000
0000
0000
,
0000
0000
0000
0000
,
0000
0000
0000
0000
,
0000
0000
0000
0000
,
1001
0000
0000
1001
,
0000
0000
1001
0110
,
1001
0000
0000
0000
0000
0000
1000
0001
,
0000
0001
0000
0001
1000
0000
0000
0000
,
0010
0000
0110
0000
0000
0000
0000
1000
,
0000
1000
0001
0000
0000
0000
0000
0000
,
1001
0000
1001
0000
1001
0000
0000
0010
,
0010
0000
0000
0001
0000
0000
0100
0000
,
0000
1000
0000
0000
0010
0000
0000
1000
,
0000
0000
0100
0000
0000
0001
0000
0000
,
1001
0000
0000
0010
0000
1000
0000
0000
,
0002
0000
0003
0100
,
0010
0000
1000
0000
0000
0001
0000
0100
,
0000
0010
0000
0000
0010
0000
0100
0010
,
0000
1000
0000
0001
0000
0000
0001
0000
,
1001
0000
0000
1001
0000
0000
0110
0000
,
0000
0110
0000
0000
2002
0000
0000
0000
,
0000
0000
3003
0000
1000
0000
0000
0100
,
0000
0000
0001
0000
0000
0100
0000
0000
,
1000
0000
0000
0010
0000
0000
0001
0000
,
0000
0010
0000
0000
1000
0000
0000
0100
,
0000
0000
0001
0000
0000
0100
0000
0000
,
1000
0000
0000
0010
0000
0000
0001
0000
,
0000
0010
0000
0000
1000
0000
0000
0100
,
0000
0000
0010
0000
0000
0001
0000
0000
,
1000
0000
0000
0010
0000
0000
0100
0000
,
0000
0001
0000
0000
1000
0000
0000
0001
,
0000
0000
0100
0000
0000
0010
0000
0000
,
1000
0000
0001
1000
0000
0000
0011
0000
,
0000
1010
0000
0000
1100
0000
0000
0101
,
0000
0011
0000
0000
,
2000
3100
0200
0310
,
0020
0031
0002
0103
,
0200
0310
0020
1030
,
1000
0100
0010
0001
,
0200
0310
0020
1030
,
1000
0001
0100
0010
,
2000
3100
0200
0310
,
1000
0001
2002
3003
,
0001
0010
0100
1000
,
1000
0100
0010
0001
,
1000
0010
0100
0001
,
0001
0100
0010
1000
,
0010
0100
0010
0010
,
1000
0100
0010
0001
,
0100
0010
0100
0100
,
0001
1000
0001
0000
0100
0000
0100
0000
,
2002
0000
0000
0000
,
0000
0000
0000
0000
,
3003
0000
0000
0000
,
0000
0000
0000
0000
,
0001
0000
0000
0100
0000
0100
0000
0100
,
0000
0000
1000
0001
,
1000
0000
0010
0000
0000
0100
0000
0100
,
0000
0001
0100
0010
,
1000
0000
0010
0000
0000
0010
0000
0010
,
0000
0001
1000
0010
,
1000
0000
0001
0000
0000
1000
0000
1000
,
0000
0100
0001
0100
,
0010
0000
1000
0000
0000
0001
0000
0001
,
0000
1000
0001
0100
,
0010
0000
0100
0000
0000
0001
0000
1000
,
0000
0100
0010
1000
,
0001
0000
1000
0000
0000
0001
0000
1001
,
0000
0100
0001
1000
,
0002
0000
0000
0003
,
2000
0000
0000
3000
,
1001
0000
0000
0110
0000
0000
0000
0000
,
0110
0000
0000
1001
0000
0000
0000
0000
,
1001
0000
0000
0110
0000
0000
0000
0000
,
0110
0000
0000
1001
0000
0000
0000
0000
,
1000
0001
1000
0000
0001
1000
0001
0000
,
1000
0001
1000
0000
2002
0000
0000
0000
,
3003
0010
0001
0100
,
1000
0100
0001
0010
,
1000
0001
0100
0010
,
0001
0010
0100
1000
,
0020
0000
0000
0000
,
0000
0000
0030
0000
,
0200
0000
0000
0000
,
0000
0000
0300
0000
,
0002
0000
0000
0000
,
0000
0000
0003
0000
,
2000
0000
0000
0000
,
0000
0000
3000
0000
,
0020
0000
0000
0000
,
0000
0000
0000
0000
,
0200
0000
0000
0000
,
0000
0000
0330
0000
,
0002
0003
2000
3000
,
0002
0003
2000
3000
,
0020
0030
0200
0300
,
0020
0030
0200
0300
,
0002
0000
0003
0000
,
2000
0000
3000
0000
,
0010
0000
0100
0000
,
0010
0100
0010
0000
,
0000
0000
2002
0000
,
0000
0000
0000
0000
,
0000
0000
0000
0000
,
0000
0000
0000
0000
,
0000
0000
3003
0000
;

//---------------dance-single - ----------------
#NOTES:
     dance-single:
     :
     Beginner:
     6:
     0.188728,0.440555,0.068332,0.212590,0.000000,174.000000,165.000000,9.000000,28.000000,0.000000,0.000000,0.188728,0.440555,0.068332,0.212590,0.000000,174.000000,165.000000,9.000000,28.000000,0.000000,0.000000:
0000
0000
0000
0000
,
0000
0000
0000
0000
,
0000
0000
0000
0000
,
0000
0000
0000
0000
,
0010
0000
0000
0010
,
0000
0000
0100
0010
,
0100
0000
0000
0000
0000
0000
0000
1001
,
0000
1001
0000
1001
0000
0000
0000
0000
,
0110
0000
0110
0000
0000
0000
0000
1000
,
0000
1000
0001
0000
0000
0000
0000
0000
,
0010
0000
0010
0000
0010
0000
0000
0010
,
0000
0000
0000
0001
0000
0000
1000
0000
,
0000
0001
0000
0000
1000
0000
0000
0001
,
0000
0000
1000
0000
0000
0001
0000
0000
,
1000
0000
0000
0001
0000
0000
0000
0000
,
0002
0000
0003
0100
,
0000
0100
0000
0001
,
0000
1000
0000
0001
,
0000
0100
0000
0001
,
0001
0000
0000
0001
0000
0000
1000
0000
,
0000
1000
0000
0000
2002
0000
0000
0000
,
0000
3003
1000
0000
,
0000
0001
0000
0000
,
1000
0000
0000
0001
,
0000
0000
0010
0000
,
0000
0100
0000
0000
,
0010
0000
0000
0100
,
0000
0000
1000
0000
,
0000
0001
0000
0000
,
1000
0000
0000
0001
,
0000
0000
0000
0000
1000
0000
0000
1000
,
0000
0000
1000
0000
0000
1000
0000
0000
,
0000
0000
0000
0001
,
0000
0001
0000
0000
0001
0000
0000
0001
,
0000
0001
0000
0000
,
0010
0000
0010
0000
,
0100
0000
0100
0000
,
1000
0000
0001
0000
,
1000
0000
0001
0000
,
0010
0000
0100
0000
,
1000
0000
0001
0000
,
0100
0000
0010
0000
,
0001
0000
1000
0000
,
0002
0000
0003
0000
,
2000
0000
3000
0000
,
0001
0001
0001
0000
,
1000
1000
1000
0000
,
0010
0100
0010
0000
,
0100
0010
0100
0000
,
0001
0000
0100
0000
,
1000
0000
0010
0000
,
2002
0000
0000
0000
,
0000
0000
0000
0000
,
3003
0000
0000
0000
,
0000
0000
0000
0000
,
0200
0000
0300
0000
0000
0100
0000
0100
,
0000
0000
1000
0000
,
0020
0000
0030
0000
0000
0010
0000
0010
,
0000
0000
0100
0000
,
2000
0000
3000
0000
0000
1000
0000
1000
,
0000
0000
0100
0000
,
0002
0000
0003
0000
0000
0001
0000
0001
,
0000
0000
0100
0000
,
0020
0000
0030
0000
0000
1000
0000
0001
,
0000
0100
0000
0100
,
0100
0000
0000
0000
0000
0001
0000
1000
,
0000
0010
0000
0001
,
1000
0000
0000
0000
0000
0001
0000
0001
,
0000
0000
0001
0000
,
0002
0000
0000
0003
,
2000
0000
0000
3000
,
0010
0000
0000
0010
0000
0000
0000
0000
,
0100
0000
0000
0100
0000
0000
0000
0000
,
0010
0000
0000
0010
0000
0000
0000
0000
,
0100
0000
0000
0100
0000
0000
0000
0000
,
0001
0000
1000
0000
,
0001
0000
1001
0000
,
0000
0010
0010
0001
,
0001
0100
0100
1000
,
1000
0000
0001
0000
,
1000
0000
0001
0000
,
0020
0000
0000
0000
,
0000
0000
0030
0000
,
0200
0000
0000
0000
,
0000
0000
0300
0000
,
0002
0000
0000
0000
,
0000
0000
0003
0000
,
2000
0000
0000
0000
,
0000
0000
3000
0000
,
0020
0000
0000
0000
,
0000
0000
0000
0000
,
0000
0000
0000
0000
,
0000
0000
0030
0000
,
0002
0000
0003
0000
,
2000
0000
3000
0000
,
0020
0000
0030
0000
,
0200
0000
0300
0000
,
0002
0000
0003
0000
,
2000
0000
3000
0000
,
0001
0000
0001
0000
,
0002
0000
0000
0000
,
0003
0000
2002
0000
,
0000
0000
0000
0000
,
0000
0000
0000
0000
,
0000
0000
0000
0000
,
0000
0000
3003
0000
;

//---------------dance-single - ----------------
#NOTES:
     dance-single:
     :
     Challenge:
     18:
     0.964247,1.361714,0.493512,0.189812,0.721287,889.000000,824.000000,65.000000,25.000000,0.000000,0.000000,0.964247,1.361714,0.493512,0.189812,0.721287,889.000000,824.000000,65.000000,25.000000,0.000000,0.000000:
0000
0000
0000
0000
,
0000
0000
0000
0000
,
0000
0000
0000
0000
,
0000
0000
0000
0000
,
1001
0001
1000
0010
1000
0010
1010
1000
,
0010
0100
0010
1000
1010
0010
0110
0100
,
0101
0001
1001
1001
1000
1010
1001
1001
,
0001
0101
0100
0110
0110
1000
0001
1000
,
0001
0000
0001
0000
0101
0000
0000
0000
0100
0010
1000
0010
0100
0000
0110
0000
,
0000
0000
1100
0000
1100
0000
0000
0000
1001
0000
0000
0000
0001
0100
0010
0100
,
0001
0000
0000
0000
1010
0000
0000
0000
1000
0000
0001
1000
0100
1000
0001
0000
,
1002
0000
0000
0203
0010
0000
0302
0000
,
1003
0200
0010
0000
1300
0000
0001
2000
,
0100
0000
3001
0000
0100
0002
1000
0000
,
0203
0000
0301
1000
0010
1000
0100
1000
,
0020
0000
0000
0000
0100
0000
0000
0000
0130
0000
0001
0010
0100
0000
0001
0000
,
1000
0100
0010
0001
0000
0101
0000
1010
,
0000
0100
0001
1000
0010
0100
0001
1000
,
0000
0000
0110
0000
0000
0000
1000
0000
0001
0100
0001
0000
1000
0010
1000
0000
,
1001
0001
0001
0101
0100
0100
0110
0010
,
0010
1010
1000
1000
0001
0010
0001
0010
,
0100
1000
0100
1000
0010
1000
0010
0100
,
0001
0100
0010
1000
0010
0100
0001
0100
,
0001
1000
0001
0100
0010
0100
0001
1000
,
0001
0100
0010
0100
0001
0010
0001
1000
,
0010
0000
1000
0000
0001
0100
0001
0000
0100
0000
0001
1000
0001
0000
0010
0000
,
1000
0000
0010
0000
0100
0000
0001
0000
1000
0000
0010
0000
0100
0001
0100
0000
,
0010
0000
1000
0001
1000
0000
0010
0000
0001
0010
0001
0000
1000
0000
0001
0100
,
0001
0000
1000
0000
0001
0010
0001
0000
1000
0000
0001
0100
0001
0000
1000
0000
,
0010
0100
0010
0000
1000
0000
0001
0100
0001
0000
1000
0000
0010
0100
0010
0000
,
1000
0000
0001
0100
0001
0000
1000
0000
0001
0010
0001
0100
0000
0000
0010
1000
,
0010
0100
0000
0000
0010
0100
0001
0100
0000
0000
1000
0010
0100
0010
0000
0000
,
1000
0010
0100
0001
1000
0001
1000
0001
0000
0000
0000
0000
1010
0000
0000
0100
,
0000
0000
1001
0000
0000
0010
0000
0000
1001
0000
0000
0010
0000
0000
0101
0000
,
0000
0010
0000
0000
1100
0000
0000
0000
0010
0000
0000
0000
0100
0000
0010
0000
,
2010
0000
3001
0100
0210
0000
0301
0010
,
0021
0000
0031
0100
0201
0000
0310
1000
,
2010
0000
3010
0100
0102
0000
0013
0001
,
0100
0001
0100
0000
0010
1000
0010
0000
1000
0100
1000
0000
0001
0010
0001
0000
,
2000
0000
0000
0000
3001
0000
0100
0000
0001
0010
0100
0010
0001
0000
1000
0000
,
0100
0010
0001
0010
0100
0000
1000
0000
0001
0100
0001
0100
0010
0000
1000
0000
,
0001
0000
1000
0000
0100
0000
1000
0000
0001
0010
0100
0010
0001
0000
1000
0000
,
0001
0000
1000
0010
1000
0000
0001
0000
0100
0010
0100
0000
0001
0000
1000
0000
,
0001
0010
0001
0000
1000
0001
1000
0000
0001
0100
0001
0000
1000
0000
0010
0000
,
1000
0100
1000
0000
0010
1000
0010
0000
1000
0001
1000
0000
0010
0000
0100
0000
,
0001
0010
0001
0000
0100
0001
0100
0000
0001
1000
0001
0000
1000
0000
0010
0000
,
0100
0001
0100
0000
1000
0001
1000
0000
0010
1000
0010
1000
0001
0100
0001
0000
,
1000
0010
1000
0010
0100
0001
0100
0001
1000
0100
1000
0100
0010
0001
0010
0001
,
1000
0000
0010
0000
1000
0000
0001
0000
1000
0010
1000
0010
0100
0001
0100
0000
,
0001
0010
0001
0010
0001
1000
0001
1000
0010
0100
0010
0100
0001
1000
0001
1000
,
0010
0000
0100
0000
0001
0000
1000
0000
0001
0010
0001
0010
0001
0100
0001
0000
,
1001
0000
0002
0003
,
0000
0000
0000
0000
0002
0000
0000
0000
0003
0000
0000
0000
0000
0000
0000
0002
,
0000
0003
0000
2002
,
0000
0000
0000
3003
,
0010
1000
0001
1000
0000
1010
0000
0101
,
0000
0000
1000
0000
0001
0000
1000
0010
1000
0000
0001
0000
0100
0010
0100
0010
,
1000
0001
0010
0011
0000
0101
0000
1001
,
0000
0000
0001
0000
0100
0000
0010
1000
0100
0000
1000
0000
0001
0100
0010
0100
,
0001
1000
0001
1001
0000
1100
0000
0101
,
0000
0000
0010
0000
1000
0000
0001
1000
0010
0000
1000
0000
0001
0100
0001
0100
,
0010
1000
0100
1100
0000
0101
0000
1100
,
0000
0000
0001
0000
0100
0010
1000
0010
1000
0000
0001
0100
0010
0100
0001
0000
,
0100
0000
0001
1000
0010
0000
1010
0000
0000
0000
1001
0000
0000
0000
1100
0000
,
0000
0000
0001
0000
0100
0010
0100
0001
0100
0000
0010
0000
1000
0000
0001
0000
,
0100
0100
0010
1010
0000
0101
0000
1001
,
0000
0000
0001
0100
0010
0000
0100
0001
1000
0001
0100
0000
0001
0000
1000
0000
,
0001
0100
0010
0110
0000
1010
0000
0101
,
0000
0000
1000
0001
1000
0000
0010
0000
0200
0000
0000
0000
0302
0000
0000
0000
,
1003
0000
0010
0000
0010
0000
1000
0010
1000
0000
0100
0000
0001
0000
0010
0001
,
0010
0000
0100
0000
0001
0000
0100
0001
0100
0000
0001
0000
1000
0100
1000
0000
,
0001
0010
0000
0001
0100
0000
0001
0010
0000
0001
0100
0000
0010
0000
1000
0000
,
0010
0100
0000
0010
1000
0000
0010
0100
0000
0010
1000
0000
0001
0000
0100
0000
,
0010
1000
0000
0001
1000
0000
0010
1000
0000
0001
1000
0000
0010
0000
0100
0000
,
0001
0010
0000
0001
0100
0000
0001
0010
0000
0001
0100
0000
0010
0000
1000
0000
,
0001
0010
0001
0100
0001
0000
0000
0000
1000
0010
1000
0100
1000
0000
0000
0000
,
0001
0100
0010
0100
0001
0000
0000
0000
1001
0000
0000
1100
0000
0000
0011
0000
,
1001
0000
0000
0010
0010
0000
0000
0001
0001
0000
0000
0100
0100
0000
0000
1000
,
1000
0000
0000
0010
0010
0000
0000
1000
0100
0010
0001
0010
0100
0010
0001
0010
,
1000
0000
0000
0000
0001
0100
0010
0100
0001
0000
0000
0000
1000
0000
0001
0000
0100
0000
0010
0000
0100
0000
0010
0000
1000
0000
0100
0000
0010
0000
0001
0000
,
1000
0000
0000
0000
0001
0010
0100
0010
0001
0000
0000
0000
1000
0000
0010
0000
0100
0000
0000
0000
0001
1000
0010
1000
0001
0000
0010
0000
0100
0000
1000
0000
,
0001
0010
0001
0010
0001
0100
0001
0100
,
0001
1000
0010
1000
0001
1000
0010
1000
,
0001
0010
0001
0010
0100
1000
0100
1000
,
0001
0100
0010
0100
0001
1000
0010
0100
,
0001
1000
0001
1000
0010
0100
0010
0100
,
0001
0010
0001
1000
0100
1000
0001
0010
,
0001
0100
0001
0100
0010
1000
0010
1000
,
0001
0000
0000
0100
0000
0000
0010
0000
0000
1000
0000
0000
0001
0000
1000
0000
0001
0000
1000
0000
0001
0000
1000
0000
,
0020
0000
0000
0000
,
0000
0000
0100
0000
,
0100
0000
0100
0000
,
0100
0100
0100
0130
,
1000
0010
0100
0010
1000
0010
1000
0000
0001
0100
0010
0100
0001
0100
0001
0000
,
1000
0001
0100
0010
0100
0010
0100
0000
0001
1000
0010
0100
0010
0100
0010
0000
,
1000
0010
0100
0001
0100
0010
1000
0000
0001
0100
0010
1000
0010
0100
0001
0000
,
1000
0010
0100
0010
1000
0001
0100
0000
0001
0100
0010
0100
0001
1000
0010
0000
,
1000
0010
0100
0010
1000
0010
0100
0000
,
0001
0100
0010
0100
0001
0100
0010
0000
,
1000
0001
1000
0001
0100
0010
0100
0010
,
1000
0001
0100
0010
1000
0100
0010
0001
,
1000
0000
2002
0000
,
0000
0000
0000
0000
,
0000
0000
0000
0000
,
0000
0000
0000
0000
,
0000
0000
3003
0000
;
