#TITLE:Catch Our Fire!;
#SUBTITLE:(STARDOM Remix);
#ARTIST:kors k;
#TITLETRANSLIT:;
#SUBTITLETRANSLIT:;
#ARTISTTRANSLIT:;
#GENRE:;
#CREDIT:;
#BANNER:Catch Our Fire! (STARDOM Remix).png;
#BACKGROUND:Catch Our Fire! (STARDOM Remix)-bg.png;
#LYRICSPATH:;
#CDTITLE:;
#MUSIC:Catch Our Fire! (STARDOM Remix).ogg;
#OFFSET:1.670000;
#SAMPLESTART:27.472858;
#SAMPLELENGTH:15.428574;
#LASTBEATHINT:1.539470;
#SELECTABLE:YES;
#BPMS:0.000000=140.000000
;
#STOPS:
;
#BGCHANGES:0.000=Catch Our Fire! (STARDOM Remix).avi=1.000=0=0=0=StretchNoLoop====,
99999=-nosongbg-=1.000=0=0=0 // don't automatically add -songbackground-
;
#KEYSOUNDS:;
#ATTACKS:;

//---------------dance-single - ----------------
#NOTES:
     dance-single:
     :
     Challenge:
     16:
     0.807420,0.936894,0.646435,0.026207,0.759998,647.000000,573.000000,74.000000,3.000000,0.000000,0.000000,0.807420,0.936894,0.646435,0.026207,0.759998,647.000000,573.000000,74.000000,3.000000,0.000000,0.000000:
// measure 0
0000
0000
0000
0000
,  // measure 1
0000
0000
0000
0000
,  // measure 2
0000
0000
0000
0000
,  // measure 3
0000
0000
0000
0000
,  // measure 4
0000
0000
0000
0000
0000
0001
1000
0010
,  // measure 5
0100
0000
0010
0000
1000
0010
1000
0001
0100
0000
0010
0000
1000
0010
0100
0010
,  // measure 6
1000
0000
0001
0100
0000
0010
1000
0000
0001
1000
0000
0010
1000
0100
1000
0010
,  // measure 7
1000
0100
0010
0100
1000
0000
0010
0000
0100
0010
0001
0010
0100
0000
0010
0000
,  // measure 8
0001
0010
0100
1000
0100
0010
0100
1000
0100
0010
0001
0010
0100
0000
0000
0000
,  // measure 9
1001
0000
0000
1000
0000
0000
0010
0000
0000
0000
1000
0000
0100
0000
0011
0000
,  // measure 10
0000
0100
0010
1001
0000
1000
0100
0010
,  // measure 11
0001
0000
0000
0100
0000
0000
1001
0000
0000
0000
0010
0000
1000
0000
0001
0000
,  // measure 12
0100
0000
0000
0100
0000
0000
1001
0000
0000
0000
0010
0000
1000
0100
1000
0100
,  // measure 13
1000
0010
1000
0010
1000
0001
1000
0001
0100
0010
0100
0010
1000
0001
1000
0001
,  // measure 14
0010
0001
0010
0001
0100
0010
0100
0010
1000
0100
1000
0100
0010
0001
0010
0001
,  // measure 15
1000
0100
0010
0001
1000
0010
1000
0010
1000
0100
0010
0001
0100
0001
0100
0001
,  // measure 16
1000
0001
0100
0010
0110
0000
1001
0000
,  // measure 17
0101
0000
0001
0100
0000
0100
0001
0000
1000
0000
0001
0100
0010
0000
1000
0000
,  // measure 18
1001
0000
1000
0010
0000
0100
0001
0000
1000
0000
0100
0000
1001
0000
1000
0000
,  // measure 19
0001
0000
1000
0010
0000
0100
0001
0000
1000
0000
0100
0010
0001
0000
1000
0000
,  // measure 20
1010
0000
0001
0100
0001
0000
1000
0000
0100
0000
0010
0000
1001
0000
0000
0000
,  // measure 21
0001
0000
0100
0001
0000
1000
0010
0000
0001
0000
1010
0000
0101
0000
1000
0000
,  // measure 22
0010
0000
1000
0010
0000
1000
0100
0000
0010
0001
0010
0001
0100
0000
0010
0000
,  // measure 23
1000
0100
0010
0100
0010
0001
1000
0100
0010
0001
0010
0100
0010
0000
0000
0000
,  // measure 24
0001
0100
0010
1000
0001
0100
0010
1000
0100
0010
0001
0010
0100
0000
0000
0000
,  // measure 25
1001
0000
0100
0010
0000
0010
0100
0000
0001
0000
0010
0100
1000
0000
0100
0000
,  // measure 26
0001
0000
1000
0100
0000
0100
1000
0000
0010
0000
0100
0000
1001
0000
0100
0000
,  // measure 27
0001
0000
0100
0010
0000
0010
0100
0000
0001
0000
1000
0010
0100
0000
0001
0000
,  // measure 28
1000
0000
0001
0100
0000
0100
0001
0000
1000
0000
0010
0000
1001
0000
0000
0000
,  // measure 29
1000
0000
0100
0010
0000
0010
0100
0000
0001
0000
1010
0000
0101
0000
1000
0000
,  // measure 30
0010
0000
0100
0010
0000
0010
0100
0000
0001
0100
0010
0100
0001
0000
1000
0000
,  // measure 31
0001
0010
0001
0010
0100
1000
0100
1000
0001
0010
0100
0010
0001
0000
0000
0000
,  // measure 32
0001
1000
0001
1000
0001
0010
0100
1000
0001
0000
0000
0000
1001
0000
0000
0000
,  // measure 33
0101
0000
0010
1010
1010
0000
0001
0101
,  // measure 34
0011
0000
0000
0000
1000
0000
1100
0000
1001
0000
0000
0110
0000
0000
0101
0000
,  // measure 35
0101
0000
0100
0110
1010
0000
0001
0011
,  // measure 36
0101
0000
0000
0000
0001
0000
0100
0000
0110
0000
0000
0101
0000
0000
0001
0000
,  // measure 37
1001
0000
0010
0110
1001
0000
0001
0101
,  // measure 38
1001
0000
0000
0000
0001
0000
0101
0000
0110
0000
0000
1010
0000
0000
0110
0000
,  // measure 39
1001
1000
0100
0000
1001
1000
0010
0000
,  // measure 40
1001
1100
0011
1001
,  // measure 41
0001
0000
0010
0001
0000
0100
0010
0000
1000
0000
0010
0100
0001
0000
1000
0000
,  // measure 42
0101
0000
1000
0000
0010
0100
0001
0000
1000
0000
0001
0000
0100
0000
0001
0000
,  // measure 43
0100
0000
0001
0000
1000
0100
1000
0000
0001
0000
0100
0010
0100
0000
0101
0000
,  // measure 44
1001
0000
0010
0000
0001
0000
0100
0000
0010
0000
1000
0000
0010
1000
0010
0000
,  // measure 45
1000
0000
0001
0000
1000
0100
0000
0010
0001
0000
0010
0100
0000
1000
0001
0000
,  // measure 46
0000
0000
0001
0000
1000
0010
1000
0010
1000
0000
0001
0100
0000
0010
1000
0000
,  // measure 47
0101
0000
1000
0000
0010
0100
0001
0000
1000
0000
0001
0100
0010
0000
1000
0000
,  // measure 48
1001
0000
1100
0000
0011
0000
0110
0010
,  // measure 49
1000
0000
0000
1000
0000
0000
0002
0000
0000
0000
0103
0000
0010
0000
1001
0000
,  // measure 50
0000
1000
0100
0010
0001
1000
1001
0000
,  // measure 51
0010
0000
0100
0001
0000
0001
0100
0000
0001
0000
1000
0100
0010
0000
0001
0000
,  // measure 52
0100
0000
0010
0100
0000
0100
0020
0000
0000
0000
1030
0000
1001
0000
0000
0000
,  // measure 53
1010
0000
0010
0100
0000
0100
0010
0000
1000
0000
1100
0000
1010
0000
1000
0000
,  // measure 54
0001
0000
0100
0010
0000
0010
0100
0000
0001
0010
0100
0010
0001
0000
1000
0000
,  // measure 55
0001
0010
0001
1000
0100
1000
0010
0100
0010
1000
0100
0010
0001
1000
0010
0100
,  // measure 56
0001
1000
0001
1000
0010
1000
0100
0010
0001
0010
0001
0100
0010
0000
0000
0000
,  // measure 57
1010
0010
0101
0001
0011
0010
0000
1001
,  // measure 58
0100
0110
0001
0120
0000
1030
1001
0000
,  // measure 59
0001
0000
0100
0010
0000
0010
0100
0000
0000
0000
0001
1000
0010
0000
1000
0000
,  // measure 60
0001
0000
1000
0010
0000
0010
0100
0000
0001
0000
1000
0000
1001
0000
0000
0000
,  // measure 61
0001
0000
0100
0001
0000
1000
0001
0000
1000
0100
0010
0000
0001
0000
0100
0000
,  // measure 62
0010
0000
1000
0010
0000
1000
0001
0000
1000
0100
0010
0100
1000
0000
0001
0000
,  // measure 63
0100
0010
0100
0010
1000
0100
0010
0001
0100
0010
0100
0010
1000
0100
0010
0001
,  // measure 64
1000
0010
1000
0010
0100
0001
0100
0001
1000
0100
0010
0001
1000
0000
0000
0000
,  // measure 65
1001
0000
0000
0000
;

//---------------dance-single - ----------------
#NOTES:
     dance-single:
     :
     Hard:
     14:
     0.652675,0.766550,0.393102,0.034942,0.489194,523.000000,478.000000,45.000000,4.000000,0.000000,0.000000,0.652675,0.766550,0.393102,0.034942,0.489194,523.000000,478.000000,45.000000,4.000000,0.000000,0.000000:
0000
0000
0000
0000
,
0000
0000
0000
0000
,
0000
0000
0000
0000
,
0000
0000
0000
0000
,
0000
0000
0000
0000
,
1000
0100
0010
0000
0100
0010
0001
0000
,
1000
0010
0001
0000
1000
0100
0001
0000
,
1000
0100
0010
0001
1000
0010
0100
0001
,
0010
0100
1000
0001
0100
1000
0010
0000
,
0001
0000
0000
0001
0000
0000
2000
0000
0000
0000
3010
0000
0100
0000
1001
0000
,
0000
1000
0100
0020
0000
0031
0101
0000
,
0001
0000
0000
0001
0000
0000
2000
0000
0000
0000
3001
0000
0010
0000
0100
0000
,
0010
0000
0000
0010
0000
0000
0002
0000
0000
0000
1003
0000
0010
0000
0100
0000
,
0001
0010
0001
0010
0100
1000
0100
1000
,
0001
0000
0010
0001
0000
0010
0001
0000
1000
0100
0000
1000
0100
0000
0010
0000
,
0001
0000
0100
0000
0010
0000
1000
0000
0001
1000
0001
1000
0010
0100
0010
0100
,
0010
0000
0000
0100
0010
0000
1000
0001
1000
0000
0000
0000
1001
0000
0000
0000
,
1000
0000
1000
0010
0000
0000
0100
0000
0000
0000
0001
0100
0010
0000
0100
0000
,
0001
0000
0001
1000
0000
0000
1010
0000
0000
0000
0100
0000
1001
0000
0000
0000
,
1000
0000
1000
0010
0000
0010
0100
0000
0000
0000
0001
0100
0001
0000
0100
0000
,
0010
0000
0010
1000
0000
0000
1001
0000
0000
0000
0100
0000
1001
0000
0000
0000
,
0001
0000
1000
0001
0000
0000
0100
0000
0001
0000
1000
0000
0010
0000
1000
0000
,
0001
0000
0100
0001
0000
0000
0100
0000
0010
1000
0000
1000
0010
0000
0100
0000
,
0001
0000
0010
0001
0000
0001
0010
0000
0001
0000
1000
0100
0000
0100
1000
0000
,
0010
0000
0100
0010
0000
0010
0100
0000
0001
0000
1000
0001
1000
0000
0000
0000
,
1000
0000
0001
1000
0000
1000
0001
0000
1000
0000
0100
0010
0100
0000
0010
0000
,
0001
0000
0100
0010
0000
0010
0100
0000
0000
0000
0010
0000
1001
0000
0000
0000
,
0001
0000
1000
0010
0000
0010
1000
0000
0001
0000
0100
0010
0100
0000
0001
0000
,
1000
0000
0100
1000
0000
0100
1000
0000
0000
0000
0010
0000
1001
0000
0000
0000
,
0001
0000
0100
0010
0000
0010
0100
0000
0001
0000
1000
0000
1001
0000
0000
0000
,
1000
0000
0010
0100
0000
0100
0010
0000
1000
0001
0000
0001
1000
0000
0010
0000
,
1000
0000
0100
1000
0000
1000
0010
0000
0100
0000
0001
0010
0000
0010
0001
0000
,
1000
0100
1000
0100
0010
0001
0010
0001
0100
0000
0000
0000
1001
0000
0000
0000
,
0010
0000
0100
0000
0001
0000
0100
0000
1000
0000
0000
1000
0010
0000
0100
0000
,
0001
0000
0000
0001
0010
0000
0001
0000
0100
0000
0000
1010
0000
0000
0100
0000
,
0001
0000
0000
0100
0001
0000
1000
0000
0010
0000
0000
0010
1000
0000
0001
0000
,
0100
0000
0000
0100
0010
0000
1000
0000
0100
0000
0010
0000
0011
0000
0001
0000
,
0100
0000
0000
0000
0010
0000
1000
0000
1100
0000
0000
1000
0010
0000
0100
0000
,
0001
0000
0000
0001
0100
0000
0010
0000
1000
0000
0000
0110
0000
0000
0001
0000
,
0100
0000
0000
0100
0010
0000
1000
0000
0001
0000
0000
0001
0010
0000
0100
0000
,
1100
1001
1010
1001
,
0100
0000
0001
0100
0000
0001
0100
0000
0010
0000
0000
0010
1000
0000
0001
0000
,
0010
0000
0000
0001
1000
0000
0100
0000
0010
0000
0000
0101
0000
0000
0010
0000
,
1000
0000
0000
1000
0100
0000
0010
0000
0001
0000
0000
0001
0010
0000
0100
0000
,
1000
0000
0000
1000
0001
0000
0100
0000
0010
0000
1000
0000
0101
0000
0000
0000
,
1010
0000
0000
0010
0100
0000
0001
0000
1001
0000
0000
1001
0000
0000
0110
0000
,
0010
0000
1010
0000
0000
1010
0000
0000
0101
0000
0000
0101
0000
0000
0100
0000
,
0110
0010
1000
0100
0110
0010
0001
0100
,
1001
1000
1001
0001
1001
1001
1001
0000
,
0010
0000
0000
0010
0000
0000
0100
0000
0000
0000
0001
0000
0100
0000
0010
0000
,
0000
1000
0100
0010
0000
0001
1001
1000
,
0010
0000
1000
0010
0000
0000
0100
0000
0001
0000
1000
0001
1000
0000
0010
0000
,
0100
0000
0001
0100
0000
0000
0010
0000
0000
0000
1000
0000
1001
0000
0000
0000
,
0100
0000
0010
0100
0000
0100
0010
0000
1000
0000
0100
0000
1001
0000
0000
0000
,
0100
0000
0001
0010
0000
0010
0001
0000
1000
0010
0000
0010
1000
0000
0001
0000
,
1000
0000
1000
0100
1000
0000
0010
0000
0100
0000
0100
0001
0100
0000
0010
0000
,
1000
0000
1000
0001
1000
0000
0010
0000
0100
0000
0010
0000
1001
0000
0000
0000
,
0001
0000
0001
0100
0000
0000
1000
0000
0100
0000
0010
0001
0010
0000
0001
0000
,
1000
0000
1000
0100
0000
0000
1000
0000
0010
0000
0100
0000
0110
0000
0000
0000
,
0001
0000
0001
0010
0000
0000
0001
0000
0010
0000
0100
0010
0100
0000
0010
0000
,
0001
0000
1000
0001
0000
0000
1001
0000
0000
0000
0010
0000
0110
0000
0000
0000
,
0001
0000
1000
0001
0000
1000
0001
0000
1000
0000
0100
0000
0010
0000
0001
0000
,
1000
0000
0010
1000
0000
0010
1000
0000
1000
0100
0000
0100
0010
0000
0001
0000
,
0100
0010
0100
0010
0100
0010
0100
0000
0001
1000
0001
1000
0001
1000
0001
0000
,
0100
0010
0100
0000
0001
0010
0001
0000
1000
0100
1000
0000
0110
0000
0000
0000
,
1001
0000
0000
0000
;

//---------------dance-single - ----------------
#NOTES:
     dance-single:
     :
     Medium:
     11:
     0.510409,0.511033,0.428045,0.087356,0.196551,409.000000,360.000000,49.000000,10.000000,0.000000,0.000000,0.510409,0.511033,0.428045,0.087356,0.196551,409.000000,360.000000,49.000000,10.000000,0.000000,0.000000:
0000
0000
0000
0000
,
0000
0000
0000
0000
,
0000
0000
0000
0000
,
0000
0000
0000
0000
,
0000
0000
0000
0000
,
2000
3001
2000
3100
,
0002
1003
0002
0103
,
0010
0100
0010
0000
0100
0010
0100
0000
,
0001
0010
0100
0000
0010
0000
1001
0000
,
0001
0000
0010
0000
0100
1000
0100
0000
,
1000
0010
0001
0100
,
0001
0000
1000
0000
0010
0100
0010
0000
,
2000
3100
0002
0103
,
1000
0100
0010
0001
0100
0010
1000
0100
,
0001
0000
0000
0100
0000
0000
1000
0000
0000
0100
0000
0000
0001
0000
0100
0000
,
1000
0000
0001
0100
0010
1000
0010
0100
,
0001
1000
0100
0010
0001
0000
1001
0000
,
0001
0000
0000
0001
0000
0000
0001
0000
0000
0000
1000
0000
0001
0000
0100
0000
,
0010
0000
0000
0010
0000
0000
0010
0000
1000
0000
0001
0000
1001
0000
0000
0000
,
0100
0000
0000
0100
0000
0000
0100
0000
0010
0000
0100
0000
0001
0000
0010
0000
,
1000
0000
0000
1000
0000
0000
1000
0000
0000
0000
0001
0000
0101
0000
0000
0000
,
1000
0000
0100
1000
0000
0000
0010
0000
0010
0000
0100
0000
0001
0000
0000
0000
,
0010
0000
0001
0010
0000
0000
0001
0000
0000
0100
0000
0100
0010
0000
0000
0000
,
1000
0000
0100
1000
0000
0000
0100
0000
0010
0000
0001
0010
0000
0000
0001
0000
,
0100
0000
0000
0010
0000
0000
0100
0000
0001
0000
1000
0000
1001
0000
0000
0000
,
0001
0000
0000
0100
0000
0000
0101
0000
0000
0000
0010
0000
1000
0000
0100
0000
,
0010
0000
0000
0010
0000
0000
0110
0000
0000
0000
0100
0000
0001
0000
0000
0000
,
1000
0000
0000
1000
0000
0000
1010
0000
0000
0000
1000
0000
0100
0000
0010
0000
,
0001
0000
0000
0001
0000
0000
0101
0000
0000
0000
0100
0000
0010
0000
0100
0000
,
0001
0000
0100
0001
0000
0000
0100
0000
0010
0000
1000
0000
0001
0000
0000
0000
,
1000
0000
0010
1000
0000
0000
0010
0000
0000
0100
0000
0100
0010
0000
0000
0000
,
1000
0000
0000
1000
0000
0000
0100
0000
0010
0000
0000
0010
0000
0000
0001
0000
,
0100
0000
0000
0100
0000
0000
0010
0000
1000
0000
0001
0000
1001
0000
0000
0000
,
0110
0000
0000
0101
0101
0000
0000
1010
,
1010
0000
0000
0000
0000
0000
0101
0000
0101
0000
0000
0010
0000
0000
0100
0000
,
0110
0000
0000
1100
1100
0000
0000
0011
,
0011
0000
0000
0000
0000
0000
1100
0000
1100
0000
0000
0010
0000
0000
0100
0000
,
0010
0000
1000
0100
0010
0000
0100
0010
,
0001
0000
0000
0000
1000
0000
0010
0000
0100
0000
0000
0100
0000
0000
1000
0000
,
0001
0000
0010
0001
0100
0000
0010
1000
,
0100
0000
0010
0001
0101
0000
1001
0000
,
1000
0000
0000
0010
0000
0000
1000
0000
0001
0000
0010
0000
0100
0000
1000
0000
,
1000
0000
0010
0000
1000
0000
0010
0000
1000
0000
0000
1001
0000
0000
0001
0000
,
0100
0010
0100
0010
0100
0001
0100
0001
,
1000
0100
1000
0001
0010
0000
0011
0000
,
1001
0000
0000
0000
1010
0000
0000
0000
0101
0000
0000
0101
0000
0000
0001
0000
,
1000
0000
0010
0000
0000
0100
0000
0000
0110
0000
0000
0110
0000
0000
1000
0000
,
0001
0000
0000
0000
1001
0000
0000
0000
1100
0000
0000
1100
0000
0000
1000
0000
,
0002
0203
1300
1001
,
0020
0100
0100
0130
,
0002
1000
1003
1001
,
1000
0010
0100
0010
1000
0100
0010
0100
,
1000
0010
0100
0010
0110
0000
1010
0000
,
1000
0000
0001
1000
0000
0000
0001
0000
1000
0000
0100
0000
0010
0000
0001
0000
,
0100
0000
0010
0100
0000
0000
0100
0000
0000
0010
0000
0010
0100
0000
0001
0000
,
1000
0000
0000
1000
0000
0000
0100
0000
0010
0000
0000
0010
0000
0000
0001
0000
,
1000
0100
0010
0001
0100
0000
1001
0000
,
0001
0010
0100
0010
0001
0100
0010
0100
,
0001
0010
0100
0010
0110
0000
0011
0000
,
1001
0000
1000
0100
0001
0100
1000
0001
,
1001
0000
0001
0100
1000
0100
0001
1000
,
1001
0000
0000
0001
0000
0000
0001
0000
0010
0000
0001
0000
0100
0000
0010
0000
,
1000
0000
0000
1000
0000
0000
0100
0000
0000
0010
0000
0010
0001
0000
1000
0000
,
0001
0000
0000
0001
0000
0000
0100
0000
1000
0000
0000
1000
0000
0000
0100
0000
,
0001
0010
0100
1000
0010
0100
0110
0000
,
1001
0000
0000
0000
;

//---------------dance-single - ----------------
#NOTES:
     dance-single:
     :
     Beginner:
     5:
     0.180952,0.255517,0.017471,0.026207,0.000000,145.000000,143.000000,2.000000,3.000000,0.000000,0.000000,0.180952,0.255517,0.017471,0.026207,0.000000,145.000000,143.000000,2.000000,3.000000,0.000000,0.000000:
0000
0000
0000
0000
,
0000
0000
0000
0000
,
0000
0000
0000
0000
,
0000
0000
0000
0000
,
0000
0000
0000
0000
,
0010
0000
0000
0000
,
0001
0000
0000
0000
,
0100
0000
0000
0000
,
1000
0000
0000
0000
,
0000
0001
0000
0001
,
0000
1000
0000
1000
,
0000
0010
0000
0010
,
0000
0100
0000
0100
,
0100
0000
0001
0000
,
0010
0000
1000
0000
,
0001
0001
1000
1000
,
0002
0000
0003
0000
,
1000
1000
1000
0000
,
0001
0001
0001
0000
,
0100
0100
0100
0000
,
0010
0010
0010
0000
,
1000
0000
0001
0000
,
1000
0000
0001
0000
,
0100
0000
0010
0000
,
0100
0100
0100
0000
,
0001
0001
0001
0000
,
1000
1000
1000
0000
,
0010
0010
0010
0000
,
0100
0100
0100
0000
,
0001
0000
1000
0000
,
0010
0000
0100
0000
,
0001
0000
0010
0000
,
0100
0000
1000
0000
,
1001
0000
0010
0000
,
0100
0000
0010
0010
,
0010
0000
0100
0000
,
0010
0000
1000
1000
,
1000
0000
0001
0000
,
1000
0000
0001
0001
,
0001
0000
0100
0000
,
0010
0000
1000
1000
,
1000
0000
0001
0000
,
1000
0000
0001
0001
,
1000
0000
0010
0000
,
0100
0000
1000
1000
,
0001
0000
0100
0000
,
0010
0000
1000
1000
,
0001
0000
0100
0000
,
0010
0000
1000
0000
,
0002
0000
0003
0000
,
2000
0000
3000
0000
,
0001
0000
0100
0000
,
1000
0000
0100
0000
,
0001
0001
0001
0000
,
1000
1000
1000
0000
,
0010
0010
0010
0000
,
0100
0100
0100
0000
,
0001
0000
0010
0000
,
0100
0000
1000
0000
,
0010
0010
0010
0000
,
0100
0100
0100
0000
,
0001
1000
0001
0000
,
1000
0001
1000
0000
,
0010
0100
0010
0100
,
0010
0100
0010
0000
,
1001
0000
0000
0000
;

//---------------dance-single - ----------------
#NOTES:
     dance-single:
     :
     Easy:
     7:
     0.324465,0.425861,0.410574,0.139770,0.000000,260.000000,213.000000,47.000000,16.000000,0.000000,0.000000,0.324465,0.425861,0.410574,0.139770,0.000000,260.000000,213.000000,47.000000,16.000000,0.000000,0.000000:
0000
0000
0000
0000
,
0000
0000
0000
0000
,
0000
0000
0000
0000
,
0000
0000
0000
0000
,
0000
0000
0000
0000
,
0020
0030
0002
0003
,
0200
0300
2000
3000
,
0020
0030
2000
3000
,
0200
0300
0002
0003
,
2000
0001
0000
3001
,
0200
0001
0000
0301
,
0020
1000
0000
1030
,
0002
1000
0000
1003
,
0100
0010
0100
0010
,
1000
0100
0010
0001
,
0010
0100
0010
0100
,
0001
0100
1000
1001
,
0010
0000
0010
0000
1000
0010
1000
0000
,
0010
0010
0100
1001
,
0010
0000
0010
0000
0001
0010
0001
0000
,
0100
0100
0010
1001
,
0010
0010
1000
1001
,
0010
0010
0001
1001
,
0100
1001
0100
1001
,
0010
1000
0100
1001
,
0100
0000
0100
0000
0001
0100
0001
0000
,
0001
0010
0100
1001
,
0100
0000
0100
0000
1000
0100
1000
0000
,
1000
0100
0010
1001
,
0010
0100
1000
1001
,
0100
0010
0001
1001
,
0010
1001
0010
1001
,
0010
0001
0100
1001
,
0010
0000
1001
0000
,
0110
0000
1000
0100
,
1001
0000
0110
0000
,
1001
0000
0001
0010
,
1001
0000
1100
0000
,
0011
0000
0100
0010
,
1001
0000
0101
0000
,
1010
0000
0001
0100
,
1001
0100
0010
0100
,
0010
1000
0100
0010
,
1001
0010
0100
0010
,
0001
0010
0100
1000
,
0110
0000
1001
0000
,
1100
0000
0011
0000
,
1000
0100
0010
0001
,
2002
0000
3003
0000
,
0020
0000
0130
0000
,
0200
0000
0310
0000
,
1000
0000
0001
0000
0100
0010
0100
0000
,
0001
0000
1000
0000
0100
0010
0100
0000
,
0010
1000
0100
1001
,
0010
0001
0100
1001
,
0010
1001
0100
1001
,
0010
0011
0110
1100
,
0001
0100
1000
0010
,
1000
0100
0001
1001
,
0010
1000
0100
0010
,
0001
0100
0010
1001
,
0001
0101
1000
1100
,
0001
0011
1000
1010
,
0001
0010
0100
1000
,
0010
0100
0010
0000
1000
0000
0001
0000
,
1001
0000
0000
0000
;
