#TITLE:CHAOS;
#SUBTITLE:(HIP&SLOW MIX);
#ARTIST:Remixed by Bit Upper;
#TITLETRANSLIT:;
#SUBTITLETRANSLIT:;
#ARTISTTRANSLIT:;
#GENRE:;
#CREDIT:;
#BANNER:CHAOS(HIP&SLOW MIX).png;
#BACKGROUND:CHAOS(HIP&SLOW MIX)-bg.png;
#LYRICSPATH:;
#CDTITLE:;
#MUSIC:CHAOS(HIP&SLOW MIX).mp3;
#OFFSET:-1.662000;
#SAMPLESTART:14.580000;
#SAMPLELENGTH:12.000000;
#SELECTABLE:YES;
#DISPLAYBPM:148.000000;
#BPMS:0.000000=148.000000
;
#STOPS:31.000000=0.203000,
38.500000=0.203000,
46.000000=0.203000,
53.500000=0.203000,
61.000000=0.203000,
68.500000=0.203000,
76.000000=0.203000,
83.500000=0.203000,
94.500000=0.203000,
99.000000=0.203000,
101.500000=0.203000,
106.000000=0.203000,
108.500000=0.203000,
113.000000=0.203000,
115.500000=0.203000,
159.500000=0.203000,
167.000000=0.203000,
174.500000=0.203000,
181.500000=0.304000,
186.000000=0.203000,
186.250000=0.304000,
186.500000=0.304000,
186.750000=0.304000,
191.000000=1.824000,
194.750000=0.203000,
195.000000=0.304000,
195.250000=0.304000,
195.500000=0.304000,
200.750000=0.304000,
201.000000=0.304000,
201.250000=0.304000,
217.500000=0.203000
;
#BGCHANGES:;
#KEYSOUNDS:;
#ATTACKS:;

//---------------dance-single - ----------------
#NOTES:
     dance-single:
     :
     Hard:
     15:
     0.671363,0.744143,0.246507,0.151085,0.636147,591.000000,560.000000,31.000000,19.000000,0.000000,0.000000,0.671363,0.744143,0.246507,0.151085,0.636147,591.000000,560.000000,31.000000,19.000000,0.000000,0.000000:
0000
0000
0000
0000
,
0000
0000
0000
0000
,
0000
0000
0000
0000
,
0000
0000
0000
0000
0000
0000
0000
0000
0000
0000
0000
0000
1001
0000
0000
0001
,
1000
0000
1100
0000
0001
1000
0101
0000
,
1000
0001
1010
0000
0001
1000
0110
0000
,
1000
0001
1010
0000
0001
1000
0110
0000
,
1000
0001
0110
0000
1000
1000
1001
0001
,
0010
0100
0001
0100
0010
1000
0001
0100
,
0010
1000
0010
0100
0001
1000
1000
0010
,
0100
0001
0001
0100
0010
1000
0010
0100
,
0001
1000
0010
0100
0010
0010
1000
0100
,
1000
0001
1000
0100
0010
0001
1000
0100
,
0001
0100
1000
0010
1000
0100
0010
0001
,
0001
1000
0100
1000
0001
0100
1000
0100
,
0001
0000
1000
0000
1001
0000
0100
0000
0001
0010
0001
0000
1000
0100
1000
0000
,
0001
0100
0010
0000
1000
0010
1000
0000
0001
0100
0010
0000
1000
0100
0010
0000
,
0001
0000
1001
0000
0010
0000
1000
0100
1000
0000
0001
0100
0010
0000
1000
0100
,
0010
0000
0001
0100
0010
0000
1000
0001
0100
0000
0001
1000
0010
1000
0100
1000
,
0010
0000
1000
0000
0100
0000
0010
0000
0001
0100
0010
0000
0100
0000
0001
0000
,
1000
0001
0010
0000
0010
0001
1000
0000
1000
0100
0010
0000
0010
0001
0100
0000
,
0010
1000
0001
0000
1000
0001
0010
0000
0001
0100
0010
0000
0100
0010
1000
0000
,
1000
0010
0100
0010
1000
0001
1000
0100
1000
0010
0100
0001
1000
0000
0000
0000
,
0001
0000
1000
0100
0010
0100
1000
0000
0001
0000
0100
0000
0001
1000
0010
0000
,
1000
0001
1000
0100
1000
0000
0001
0000
0100
0000
0010
0000
1000
0000
0001
0010
,
0100
0000
1000
0010
0100
0000
0001
0000
0001
1000
0100
0000
1000
0001
0100
0001
,
1000
0000
0010
1000
0100
0000
1000
0010
0100
0000
0001
1000
0010
1000
0001
0000
,
1000
0000
1100
0000
0001
1000
0010
0000
1000
0100
0010
0001
1000
0000
0001
0100
,
0010
0000
1000
0010
0100
0000
1000
0001
1000
0001
0100
0000
0001
1000
0100
0000
,
0010
1000
0100
1000
0010
1000
0100
1000
0010
0100
0001
0100
0010
0100
0001
0000
,
1000
0000
0001
0000
0100
0010
1000
0000
0010
0100
0001
0000
1000
0000
1001
0000
,
0001
0100
0010
0000
1000
0010
0100
0000
0001
1000
0010
1000
0001
0000
1000
0100
,
0010
0000
0001
0000
0100
0010
0100
0001
0100
0010
0100
0000
0001
0000
1000
0000
,
0010
0100
0001
0000
0100
0010
1000
0000
0001
1000
0100
1000
0001
0000
1000
0001
,
0100
0010
0100
0000
0001
1000
0010
0000
1000
0001
0100
0000
0001
1000
0010
0000
,
1000
0100
0010
0000
0010
0001
0100
0000
0100
0010
1000
0010
0100
0010
1000
0000
,
0001
0100
0010
0000
1001
0000
0101
0000
1000
0010
0100
0000
1001
0000
1010
0000
,
0001
0100
0001
0100
0010
0100
0001
1000
0010
0100
0001
1000
0001
1000
0010
1000
,
0100
0010
0002
0000
0203
0000
0310
0000
1000
0001
0200
0000
0320
0000
1030
0000
,
0001
0010
0200
0000
2300
0000
3002
0000
0103
0010
0000
0010
0000
1000
0001
0000
,
2000
0000
3020
0000
0130
0000
0001
0100
0020
0000
2030
0000
3001
0000
0100
0010
,
2000
0000
3002
0000
1003
0000
0100
1000
0000
1000
0000
1000
0001
0000
2000
0000
,
3020
0000
1030
0000
0010
1000
0200
0000
2300
0000
3010
0000
0100
0001
0020
0000
,
0032
0000
1003
0000
0001
1000
0000
1000
0000
1000
0010
0000
1000
0100
1000
0000
,
0001
0000
0100
0010
1000
0000
0010
0000
0100
0000
0001
1000
0100
0000
1000
0000
,
0001
0000
0010
0001
1000
0000
0101
1010
0000
0001
0000
0100
0000
0010
0000
1000
,
0010
0100
0000
0010
0000
1000
0000
0001
1000
0101
1010
0101
1000
0000
0001
0000
,
1000
0000
0100
0000
0001
1000
0100
1000
0001
0000
0100
0000
0010
0000
1000
0000
,
0001
0000
1000
0010
1000
0000
0001
0000
0100
0000
0010
1000
0101
1010
0101
1000
,
0000
0001
0000
1000
0000
0010
0000
1000
0100
0010
0000
0001
0000
0100
0000
0010
,
1000
0001
0000
1010
0101
1100
0011
0000
0000
0000
0000
0000
0000
0000
0000
0000
,
0000
0000
0000
0000
,
0000
0000
0000
0000
0000
0000
0000
0000
1000
0000
0001
1000
0100
0000
1000
0001
,
0100
0000
0001
0000
1000
0000
0010
1000
0100
0000
0100
1000
0010
0000
0010
0100
,
0001
0000
1000
0000
0001
0000
1100
0000
0001
0010
0001
0000
1000
0100
1000
0000
,
0010
0000
1000
0000
0001
0100
0001
0000
1000
0010
1000
0000
0001
0000
0100
0000
,
0010
1000
1001
0001
0100
0000
0100
0000
,
0100
0000
0000
0000
0100
0000
0000
0001
0100
0000
0000
0000
0100
0000
0000
1000
,
0100
0000
0100
0001
1000
0010
1000
0001
,
1000
0000
0100
0000
1000
0000
0001
0010
0100
1000
0001
0010
0100
1000
0001
0010
,
0100
1000
0001
0010
0100
1000
0001
0000
0000
0000
0000
0000
0000
0000
0000
0000
;

//---------------dance-single - ----------------
#NOTES:
     dance-single:
     :
     Medium:
     9:
     0.355561,0.432083,0.151085,0.000000,0.079518,313.000000,294.000000,19.000000,0.000000,0.000000,0.000000,0.355561,0.432083,0.151085,0.000000,0.079518,313.000000,294.000000,19.000000,0.000000,0.000000,0.000000:
0000
0000
0000
0000
,
0000
0000
0000
0000
,
0000
0000
0000
0000
,
0000
0000
0000
0000
,
0001
0000
1000
0000
0001
0100
1000
0000
,
1000
0000
0001
0000
1000
0100
0001
0000
,
1000
0010
1000
0001
,
1000
0000
0100
0000
1000
0001
0100
0000
,
0000
0001
0000
1000
0100
1000
0000
0001
,
0000
1000
0010
1000
0000
0001
0000
0000
,
1000
0000
0001
0100
0001
0000
1000
0000
,
0010
0100
0010
0000
1001
0000
0000
0010
,
0000
1000
0100
1000
0000
0001
0100
0001
,
0000
1000
0010
1000
0000
0000
0011
0000
,
1000
0010
0100
0000
0001
0100
0001
1000
,
0001
0010
0001
0000
0000
1100
0000
0001
,
0100
0001
0000
1000
0000
0011
0000
1000
,
0010
1000
0000
0000
0110
0000
0001
1000
,
0100
0000
0010
0000
1001
0000
0010
0100
,
0010
0000
0000
1100
0000
0001
0100
0010
,
0000
1000
0010
1000
0001
1000
0100
1000
,
0000
0000
0101
0000
0001
1000
0100
0000
,
1000
0001
1000
0001
1000
0100
1000
0000
,
0001
0000
1000
0000
0010
0100
0000
0001
,
0000
1000
0000
0001
1000
0100
0000
0000
,
1000
0000
0010
0100
0000
0000
0000
0001
,
0000
1000
0001
1000
0000
0000
0010
0000
,
1000
0100
0000
0000
0000
0001
0000
0001
,
1000
0100
0000
0000
1001
0000
0010
1000
,
0000
0000
0000
0101
0000
1000
0010
0100
,
0000
0001
1000
0001
1000
0100
1000
0000
,
1000
0001
1000
0001
0000
0100
0010
0100
,
0000
0001
1000
0001
0000
1000
0100
0000
,
1000
0001
1000
0001
0000
0100
0000
1010
,
0000
0001
0100
0010
0000
1000
0001
0000
,
1000
0100
0010
0001
0000
1000
0000
0101
,
0000
1000
0010
0100
0000
0001
1000
0100
,
0000
0010
0100
0010
0000
1001
0000
1100
,
0000
0001
0000
0100
0000
1000
0000
0100
,
0000
0001
0100
1000
0100
0000
0000
0000
,
0000
0000
0001
0000
0100
0000
1000
0001
,
0000
1100
0000
0101
,
0000
1100
0000
0001
0100
0001
0000
1000
,
0100
1000
0000
0001
1000
0001
0000
0000
,
1010
0000
0001
0100
0001
0000
1000
0100
,
0010
0000
0001
0000
0000
0000
1010
0000
0000
0001
0000
0100
0000
0001
0000
1000
,
0000
0001
0000
0010
0000
0001
0000
1000
0000
0010
0010
0010
0000
0000
1000
0000
,
0001
1000
0010
1000
0100
1000
0001
0000
,
0010
0000
0000
0000
1000
0000
0001
0000
0100
0000
0001
0000
1000
1000
1000
0000
,
0000
0001
0000
0100
0000
0001
0000
0000
0000
1000
0000
0010
0000
1000
0000
0001
,
0000
0000
0000
1000
1000
1000
0000
0000
0000
0000
0000
0000
0000
0000
0000
0000
,
0000
0000
0000
0000
,
0000
0000
0000
0000
0001
1000
0100
1000
,
0001
1000
0000
1000
0001
1000
0100
0000
,
1000
0010
0100
0000
0001
1000
0010
1000
,
0001
0000
1000
0001
0100
0001
0000
1000
,
0010
1000
0000
0000
0001
0000
0001
0000
,
0001
0001
1000
1000
,
1000
0000
1000
0010
0100
0010
0100
0010
,
0100
0010
0100
0001
1000
0001
1000
0001
,
1000
0001
1000
0001
0000
0000
0000
0000
;

//---------------dance-single - ----------------
#NOTES:
     dance-single:
     :
     Easy:
     7:
     0.296490,0.336065,0.524822,0.023856,0.051687,261.000000,195.000000,66.000000,3.000000,0.000000,0.000000,0.296490,0.336065,0.524822,0.023856,0.051687,261.000000,195.000000,66.000000,3.000000,0.000000,0.000000:
0000
0000
0000
0000
,
0000
0000
0000
0000
,
0000
0000
0000
0000
,
0000
0000
0000
0000
,
0001
1000
0001
0110
,
1000
0001
1000
0110
,
1000
0010
1000
1001
,
1000
0010
1000
0101
,
0000
0001
0000
1000
0000
1001
0000
0000
,
0000
1000
0000
0001
0000
1001
0000
0000
,
1000
0001
0101
0000
,
0001
0000
1000
0000
1100
0000
0000
0010
,
0000
1000
0000
1100
0000
0000
0000
0010
,
0000
0001
0000
0101
0000
0000
0011
0000
,
1010
0110
0000
0101
,
1001
0000
0011
0000
0000
1100
0000
0001
,
0000
0101
0000
1000
0000
0011
0000
1000
,
0000
1010
0000
0000
0110
0000
0001
0000
,
1100
0010
1001
0010
,
0110
0000
0000
1001
0000
0001
0000
0110
,
0000
1000
0000
1001
0000
1100
0000
1001
,
0000
0101
0001
1100
,
0001
1001
0010
0110
,
0000
0000
1000
0000
0110
0000
0000
0001
,
0000
1000
0000
0001
0000
1100
0000
0000
,
1000
0000
0110
0000
0000
0010
0000
0001
,
0000
0100
0000
1001
0000
0000
0010
0000
,
1001
0000
0000
0001
0000
0100
0000
1000
,
0000
1001
0000
0000
0010
0000
1100
0000
,
0000
0010
0000
1000
0000
0001
0000
0100
,
0000
0000
0000
0010
0000
0000
0000
1100
,
0000
0000
0000
0010
0000
0101
0000
1001
,
0000
0000
0000
1000
0000
0101
0000
1100
,
0000
0001
0000
1000
0000
0110
0000
1001
,
0000
0010
0000
0010
0000
0001
0000
1100
,
0000
0010
0000
0010
0000
1000
0000
0101
,
0000
1000
0000
0101
0000
1000
0000
0011
,
0000
0100
0000
1001
0000
0010
0000
1001
,
0000
0001
0000
0001
0000
1000
0000
1000
,
0000
0010
0000
0100
0010
0000
0000
0000
,
0000
0000
1000
0000
0100
0000
0001
1000
,
0000
0011
0000
1010
,
0000
0001
0000
0100
0000
1000
0000
0100
,
0000
0001
1000
0000
0000
0000
0000
0000
,
0010
0000
1000
0000
0011
0000
0000
1000
,
0000
0000
0001
0000
0000
0000
1000
0000
0000
0010
0000
0000
0000
0001
0000
0000
,
0000
1000
0000
0000
0000
0001
0000
0000
0000
0010
0010
0010
0000
0000
1000
0000
,
0000
0001
0000
0100
0000
0110
0000
0000
,
0101
0000
0000
0000
1000
0000
0000
0000
0101
0000
0000
0000
1000
1000
1000
0000
,
0000
0001
0000
0000
0000
0001
0000
0000
0000
1000
0000
0000
0000
1000
0000
0000
,
0000
0000
0000
0010
0010
0010
0000
0000
0000
0000
0000
0000
0000
0000
0000
0000
,
0000
0000
0000
0000
,
0000
0000
0010
0001
,
1000
0001
1000
0011
,
1000
0000
0101
0000
0000
1000
0000
0001
,
0000
1000
0000
0101
0000
1010
0000
0011
,
0000
0110
0000
0002
0000
0000
0000
0000
,
0000
0003
0000
2000
0000
0000
0000
0000
,
0000
3000
0000
0020
0000
0000
0000
0000
,
0000
0030
0000
0100
0010
0100
0010
0100
,
0010
0100
0000
1001
0000
0000
0000
0000
;

//---------------dance-single - ----------------
#NOTES:
     dance-single:
     :
     Beginner:
     5:
     0.156765,0.216042,0.047711,0.023856,0.035783,138.000000,132.000000,6.000000,3.000000,0.000000,0.000000,0.156765,0.216042,0.047711,0.023856,0.035783,138.000000,132.000000,6.000000,3.000000,0.000000,0.000000:
// measure 0
0000
0000
0000
0000
,  // measure 1
0000
0000
0000
0000
,  // measure 2
0000
0000
0000
0000
,  // measure 3
0000
0000
0000
0000
,  // measure 4
0000
1000
0000
0100
,  // measure 5
0000
0001
0000
0010
,  // measure 6
0000
0100
0000
1000
,  // measure 7
0000
0010
0000
1001
,  // measure 8
0000
0001
0000
0001
0000
0001
0000
0000
,  // measure 9
0000
1000
0000
1000
0000
1000
0000
0000
,  // measure 10
0001
0001
0001
0000
,  // measure 11
1000
0000
1000
0000
1000
0000
0000
0010
,  // measure 12
0000
0010
0000
0010
0000
0000
0000
0100
,  // measure 13
0000
0100
0000
0100
0000
0000
0010
0000
,  // measure 14
0010
0010
0000
0100
,  // measure 15
0100
0000
0100
0000
0000
1000
0000
0000
,  // measure 16
0000
0001
0000
0000
0000
1000
0000
0000
,  // measure 17
0000
0001
0000
0000
0010
0000
0000
0000
,  // measure 18
0100
0000
0010
0000
,  // measure 19
0100
0000
0000
1000
0000
0000
0000
0010
,  // measure 20
0000
0000
0000
0001
0000
0000
0000
0100
,  // measure 21
0000
0001
0000
0010
,  // measure 22
0000
1000
0000
0100
,  // measure 23
0000
0000
0100
0000
0100
0000
0000
0001
,  // measure 24
0000
0000
0000
0001
0000
0000
0000
0000
,  // measure 25
0100
0000
0100
0000
0000
1000
0000
0000
,  // measure 26
0000
1000
0000
0000
0000
0000
0010
0000
,  // measure 27
0010
0000
0000
0001
0000
0000
0000
1000
,  // measure 28
0000
0000
0010
0010
,  // measure 29
0000
1000
0000
0000
0000
0001
0000
0000
,  // measure 30
0000
0000
0000
0010
0000
0000
0000
0100
,  // measure 31
0000
0000
0000
0010
0000
0000
0000
1000
,  // measure 32
0000
0000
0000
1000
0000
0000
0000
1000
,  // measure 33
0000
0000
0000
0001
0000
0000
0000
0001
,  // measure 34
0000
0000
0000
0010
0000
0000
0000
0100
,  // measure 35
0000
0000
0000
0010
0000
0000
0000
0100
,  // measure 36
0000
0000
0000
0001
0000
0000
0000
1000
,  // measure 37
0000
0000
0000
1001
0000
0000
0000
1001
,  // measure 38
0000
0000
0000
0001
0000
0001
0000
0001
,  // measure 39
0000
0001
0000
0000
0000
0000
0000
0000
,  // measure 40
0000
1000
1000
1000
,  // measure 41
1000
0000
0000
0000
,  // measure 42
0000
0100
0000
0100
0000
0100
0000
0100
,  // measure 43
0000
0000
0000
0000
,  // measure 44
0010
0010
0010
0010
,  // measure 45
0000
0000
0000
0000
0000
0000
0000
0000
0000
0010
0000
0000
0000
0000
0000
0000
,  // measure 46
0000
1000
0000
0000
0000
0000
0000
0000
0000
0010
0010
0010
0000
0000
0000
0000
,  // measure 47
0000
0001
0000
0000
0000
0001
0000
0000
,  // measure 48
0010
0000
0000
0000
0000
0000
0000
0000
0010
0000
0000
0000
1000
1000
1000
0000
,  // measure 49
0000
0000
0000
0000
0000
0001
0000
0000
0000
0000
0000
0000
0000
0001
0000
0000
,  // measure 50
0000
0000
0000
0010
0010
0010
0000
0000
0000
0000
0000
0000
0000
0000
0000
0000
,  // measure 51
0000
0000
0000
0000
,  // measure 52
0000
0000
0010
0010
,  // measure 53
0010
0000
0100
0100
,  // measure 54
0100
0000
0000
0000
0000
1000
0000
1000
,  // measure 55
0000
1000
0000
0000
0000
1001
0000
0000
,  // measure 56
0000
1001
0000
0002
0000
0000
0000
0000
,  // measure 57
0000
0000
0000
2003
0000
0000
0000
0000
,  // measure 58
0000
3000
0000
0020
0000
0000
0000
0000
,  // measure 59
0000
0030
0000
0100
0000
0100
0000
0100
,  // measure 60
0000
0100
0000
1001
0000
0000
0000
0000
;
