#TITLE:CARNIVOROUS;
#SUBTITLE:;
#ARTIST:SOUND HOLIC feat. Nana Takahashi;
#TITLETRANSLIT:;
#SUBTITLETRANSLIT:;
#ARTISTTRANSLIT:;
#GENRE:;
#CREDIT:;
#BANNER:CARNIVOROUS.png;
#BACKGROUND:CARNIVOROUS-bg.png;
#LYRICSPATH:;
#CDTITLE:;
#MUSIC:CARNIVOROUS.ogg;
#OFFSET:0.020000;
#SAMPLESTART:48.862354;
#SAMPLELENGTH:12.705883;
#SELECTABLE:YES;
#BPMS:0.000000=170.000000
;
#STOPS:
;
#BGCHANGES:0.000=CARNIVOROUS.avi=1.000=0=0=0=StretchNoLoop====,
99999=-nosongbg-=1.000=0=0=0 // don't automatically add -songbackground-
;
#KEYSOUNDS:;
#ATTACKS:;

//---------------dance-single - ----------------
#NOTES:
     dance-single:
     :
     Hard:
     12:
     0.561317,0.606679,0.239478,0.124174,0.155218,443.000000,416.000000,27.000000,14.000000,0.000000,0.000000,0.561317,0.606679,0.239478,0.124174,0.155218,443.000000,416.000000,27.000000,14.000000,0.000000,0.000000:
0000
0000
0000
0000
,
0000
0000
0000
0000
,
0000
0000
0000
0000
,
0000
0000
0000
0000
,
0000
0000
0000
0000
,
0000
0000
0000
0000
,
2000
0001
0001
3001
,
0200
0010
0010
0310
,
2000
3100
0020
0031
,
0200
0010
0010
0310
,
2002
0000
0000
3003
,
1000
0000
0010
0000
1000
0000
0000
0000
0001
0000
0000
0001
0000
0000
0001
0000
,
0000
0000
1000
0000
0100
0000
0010
0000
0001
0000
0000
0001
0000
0000
0001
0000
,
1000
0000
0001
0000
1000
0000
0000
0000
0010
0000
0000
0010
0000
0000
0010
0000
,
1000
0100
0010
0001
0100
0010
0100
0010
,
1000
0000
0010
0000
1000
0000
0000
0000
0001
0000
0000
0001
0000
0000
0001
0000
,
0000
0000
1000
0000
1000
0000
0010
0000
0100
0000
0000
0100
0000
0000
0100
0000
,
0001
0000
1000
0000
0001
0000
0000
0000
1000
0000
0000
1000
0000
0000
1000
0000
,
0000
0001
1000
0001
0010
0100
1000
0010
,
0100
0010
0100
0000
0001
1000
0000
1001
,
0000
1000
0100
0010
0001
0100
0010
0100
,
0000
0001
1000
0000
0010
0100
0000
0110
,
0000
1000
0010
0100
0001
0100
0010
1000
,
0001
1000
0001
0000
1000
0100
0010
0001
,
0000
1000
0001
0000
1000
0001
0000
1001
,
0000
1000
0100
0010
0001
0100
0010
0100
,
0001
0010
0100
2000
0000
3001
1000
0010
,
0100
0000
0110
0000
1001
0000
0001
1000
,
0000
1000
0100
0010
0001
0000
0100
0010
,
1000
0000
1010
0000
0101
0000
0100
0110
,
0000
1000
1000
0000
0001
1000
0100
0010
,
0001
0000
0101
0000
1010
0000
0001
0010
,
0000
0001
0010
0100
1000
0010
0100
0010
,
0000
1001
0000
1000
0100
0010
0001
0100
,
0010
0000
1000
1001
0000
0001
0100
0010
,
0000
1000
0100
0010
0001
0000
0001
1000
,
0000
0001
0010
0100
1000
0000
0010
0100
,
0000
0000
0100
0000
0010
0000
0000
0000
1000
0000
0000
1000
0000
0000
1000
0000
,
0001
0000
0100
0010
0000
1000
0100
0010
,
0001
0000
1001
0000
1000
0010
0100
0001
,
0000
0001
0100
0010
0000
1000
0001
0000
,
1000
0100
1000
0010
0100
0000
0001
0100
,
0001
1000
0001
1000
0000
0010
0100
0010
,
0000
1000
0100
0010
0001
0000
0100
0010
,
0000
0001
0100
0010
1000
0000
0101
0000
,
1010
0000
0000
0000
1001
0000
0000
0000
0001
0000
0000
0001
0000
0000
0001
0000
,
0100
0000
0100
0110
0000
0010
1000
0100
,
0010
0001
0100
0000
0001
1000
0010
1000
,
0100
0010
0001
1000
0000
0001
0010
0001
,
0200
0000
0320
0000
1030
0100
0010
0001
,
2000
0000
3002
0000
0103
0010
0000
1010
,
0000
0000
0001
0000
0100
0000
0010
0000
0100
0000
0000
0001
0000
0000
1000
0000
,
0000
0000
1000
0000
0100
0000
0010
0000
0001
0000
0000
0001
0000
0000
0001
0000
,
0000
0000
0100
0000
0010
0000
0100
0000
0001
0000
0000
1001
0000
0000
0001
0000
,
1000
0000
0100
0000
0010
0000
0001
0000
0010
0000
0000
1001
0000
0000
0100
0000
,
0001
0000
0100
0000
0010
0000
1000
0000
0001
0000
0000
0001
0000
0000
0001
0000
,
1000
0000
0100
0000
0010
0000
0001
0000
0100
0000
0000
0100
0000
0000
0100
0000
,
0001
0000
1000
0000
0010
0000
0100
0000
0001
0000
0000
0001
0000
0000
0001
0000
,
0000
1000
0010
0100
0110
0000
1001
0000
,
1000
0000
0100
0000
0010
0000
0000
0000
1000
0000
0000
1000
0000
0000
1000
0000
,
0000
0000
1000
0000
0100
0000
0010
0000
0001
0000
0000
0001
0000
0000
0001
0000
,
1000
0000
0001
0000
0100
0000
0000
0000
0010
0000
0000
0010
0000
0000
0010
0000
,
1000
0001
1000
0001
0100
0010
0100
0010
,
1000
0000
0100
0000
0010
0000
0000
0000
0001
0000
0000
0001
0000
0000
0001
0000
,
0100
0000
0010
0000
1000
0000
0010
0000
0100
0000
0000
0100
0000
0000
0100
0000
,
0001
0000
0010
0000
0100
0000
0000
0000
1000
0000
0000
1000
0000
0000
1000
0000
,
0001
0100
0001
0100
0001
0000
1001
0000
,
1000
0100
0001
0000
0100
0000
0110
0000
,
0001
0100
1000
0000
0010
0000
0110
0000
,
1000
0010
0001
0000
1000
0000
0001
0010
,
0100
1000
0100
0000
0010
0000
0001
0100
,
0001
1000
0001
1000
0000
0000
1000
0001
1000
0001
0000
0000
,
0010
0100
0010
0100
0000
0000
0100
0010
0100
0010
0000
0000
,
1000
0100
1000
0100
0000
0000
0100
0010
0100
0010
0000
0000
,
0010
0000
0001
0000
0010
0000
0001
0000
0000
0000
0000
0000
1000
0000
0000
0001
0000
0000
1000
0000
0000
2002
0000
0000
,
0000
0000
0000
0000
,
3003
0000
0000
0000
;

//---------------dance-threepanel - ----------------
#NOTES:
     dance-threepanel:
     :
     Challenge:
     1:
     0.003801,0.103441,0.008870,0.000000,0.000000,3.000000,1.000000,1.000000,0.000000,0.000000,1.000000,0.003801,0.103441,0.008870,0.000000,0.000000,3.000000,1.000000,1.000000,0.000000,0.000000,1.000000:
000
000
000
000
,
000
000
000
000
,
000
000
000
000
,
000
000
000
000
,
000
000
000
000
,
000
000
000
000
,
000
000
000
000
,
000
000
000
000
,
000
000
000
000
,
000
000
000
000
,
000
000
000
000
,
000
000
000
000
,
000
000
000
000
,
000
000
000
000
,
000
000
000
000
,
000
000
000
000
,
000
000
000
000
,
000
000
000
000
,
000
000
000
000
,
000
000
000
000
,
000
000
000
000
,
000
000
000
000
,
000
000
000
000
,
000
000
000
000
,
000
000
000
000
,
000
000
000
000
,
000
000
000
000
,
000
000
000
000
,
000
000
000
000
,
000
000
000
000
,
000
000
000
000
,
000
000
000
000
,
000
000
000
000
,
000
000
000
000
,
000
000
000
000
,
000
000
000
000
,
000
000
000
000
,
000
000
000
000
,
000
000
000
000
,
000
000
000
000
,
000
000
000
000
,
000
000
000
000
,
000
000
000
000
,
000
000
000
000
,
000
000
000
000
,
000
000
000
000
,
000
000
000
000
,
000
000
000
000
,
000
000
000
000
,
000
000
000
000
,
000
000
000
000
,
000
000
000
000
,
000
000
000
000
,
000
000
000
000
,
000
000
000
000
,
000
000
000
000
,
000
000
000
000
,
000
000
000
000
,
000
000
000
000
,
000
000
000
000
,
000
000
000
000
,
000
000
000
000
,
000
000
000
000
,
000
000
000
000
,
000
000
000
000
,
000
000
000
000
,
000
000
000
000
,
000
000
000
000
,
000
000
000
000
,
000
000
000
000
,
000
000
000
000
,
000
000
000
000
,
000
000
000
000
,
000
000
000
000
,
000
000
000
000
,
000
000
000
000
,
000
000
000
000
,
000
000
000
111
;

//---------------dance-single - ----------------
#NOTES:
     dance-single:
     :
     Medium:
     9:
     0.382659,0.438157,0.106435,0.115304,0.000000,302.000000,290.000000,12.000000,13.000000,0.000000,0.000000,0.382659,0.438157,0.106435,0.115304,0.000000,302.000000,290.000000,12.000000,13.000000,0.000000,0.000000:
0000
0000
0000
0000
,
0000
0000
0000
0000
,
0000
0000
0000
0000
,
0000
0000
0000
0000
,
0000
0000
0000
0000
,
0000
0000
0000
0000
,
0002
0100
0103
0000
,
0020
1000
1030
0000
,
0002
1000
1003
0000
,
2000
0001
3001
0000
,
2002
0000
3003
0000
,
1000
0010
0100
0001
,
1000
0001
1000
0000
0001
1000
0001
0000
,
1000
0010
0100
0001
,
0100
0010
0100
0000
0010
0100
0010
0000
,
0001
0100
0010
1000
,
0100
1000
0100
0000
1000
0001
1000
0000
,
0010
0100
0001
1000
,
2002
0000
0000
3003
,
0010
0000
0100
0000
0001
1000
0000
1000
,
0000
0001
1000
0100
,
0010
0000
0001
0000
0100
0010
0000
0010
,
0000
1000
0100
0010
,
0001
0000
1000
0000
0100
1000
0000
1000
,
0000
0001
0010
0001
,
0100
0010
0100
0001
,
1000
0000
0001
0002
0000
0000
0003
0000
,
1000
0001
1000
0000
,
0010
0100
0010
0000
,
1010
0000
1010
0000
1010
0000
0000
0101
,
0000
0101
0000
0000
0101
0000
0000
0000
,
1000
0100
0010
0000
,
0100
0010
0001
0000
,
1000
0100
0010
0001
,
1000
0000
0001
1000
0000
0000
0000
0000
,
0001
0010
0001
0010
0001
0000
0000
0000
,
1000
0100
1000
0100
1000
0000
0001
0000
,
1000
0100
0010
0001
,
0200
0000
0310
0000
,
0001
0100
1000
0000
,
0001
0010
1000
0000
,
0001
0010
0100
1000
,
0010
0010
1001
0000
,
1000
0100
1000
0100
1000
0000
0000
0000
,
0001
0010
0001
0010
0001
0000
0000
0000
,
1000
0010
0100
0001
,
0200
0000
0310
0000
,
1000
0100
0001
0000
,
1000
0010
0001
0000
,
1000
0100
0010
0001
,
0001
0010
0100
1000
,
0001
1000
0001
0000
0100
0000
0100
0000
,
1000
0001
1000
0000
0100
0000
0100
0000
,
1000
0010
1000
0000
0001
0100
0001
0000
,
0010
0100
1000
1001
,
0010
0100
0010
0000
1000
0000
0001
0000
,
0100
0010
0100
0000
0001
0000
1000
0000
,
0001
0010
0001
0000
1000
0100
1000
0000
,
0001
0010
0100
1001
,
1000
0010
0100
0001
,
1000
0001
1000
0000
0001
0100
0001
0000
,
0010
0010
0100
0100
,
0001
1000
0001
0000
1000
0001
0001
0000
,
1000
1000
0001
0001
,
0100
0010
0100
0000
0010
0100
0010
0000
,
1000
0100
0010
0001
,
1000
0001
1000
0000
0001
1000
0001
0000
,
1000
0010
1000
0000
0001
0000
0100
0010
,
0100
0010
0100
0000
0001
0000
1000
0001
,
1000
0001
1000
0000
0010
0000
1000
0100
,
1000
0100
1000
0000
0001
0000
0100
0010
,
0100
0010
0100
0000
0001
0000
1000
0010
,
1000
0010
1000
0000
0001
0000
1000
0100
,
1000
0100
1000
0000
0100
0000
0010
0000
,
0001
0100
0001
0000
0100
0000
2002
0000
,
0000
0000
0000
0000
,
3003
0000
0000
0000
;

//---------------dance-single - ----------------
#NOTES:
     dance-single:
     :
     Easy:
     6:
     0.307901,0.337044,0.141913,0.310435,0.000000,243.000000,227.000000,16.000000,35.000000,0.000000,0.000000,0.307901,0.337044,0.141913,0.310435,0.000000,243.000000,227.000000,16.000000,35.000000,0.000000,0.000000:
0000
0000
0000
0000
,
0000
0000
0000
0000
,
0000
0000
0000
0000
,
0000
0000
0000
0000
,
0000
0000
0000
0000
,
0000
0000
0000
0000
,
0002
0000
0000
0000
,
2003
0000
0000
0000
,
3020
0000
0000
0000
,
0230
0000
0000
0300
,
2002
0000
0000
3003
,
0001
0001
1000
1000
,
0001
0010
0100
1000
,
1000
1000
0001
0001
,
1000
0100
0010
0001
,
0100
0100
0010
0010
,
1000
0001
0100
0010
,
0010
0010
0100
0100
,
0000
0001
0010
0100
,
2000
0001
0001
3001
,
0000
1000
0100
0010
,
0002
1000
1000
1003
,
0000
0010
0100
0001
,
2000
0100
3100
0000
,
0020
0001
0031
0000
,
0200
0010
0010
0310
,
1000
0100
0010
0001
,
1000
1000
1000
0000
,
0001
0001
0001
0000
,
0010
0100
1001
0000
,
0100
0000
1001
0000
,
1000
0100
0010
0000
,
0100
0010
0001
0000
,
0100
0100
0010
0010
,
2002
0000
3003
0000
,
0001
0001
1001
0000
,
1000
1000
1001
0000
,
0001
0001
0100
1000
,
0010
0001
1001
0000
,
1000
1000
0100
0000
,
0010
0010
0001
0000
,
0100
0100
0010
0010
,
1000
0100
0010
0001
,
1000
0001
0001
0000
,
0001
1000
1000
0000
,
0001
0010
0100
1000
,
0010
0100
1001
0000
,
0001
0001
1001
0000
,
1000
1000
1001
0000
,
0020
0000
0130
0001
,
2000
0000
3001
1000
,
0100
0100
0010
0010
,
1000
0100
0010
0001
,
0010
0010
0100
0100
,
0001
0010
0100
1000
,
0001
0010
1000
1000
,
1000
0100
0001
0001
,
0010
0010
0100
0100
,
0001
0010
0100
0000
,
1000
1000
0001
0001
,
1000
0010
1000
0010
,
0100
0100
0010
0010
,
0100
0001
0100
0001
,
1000
1000
0001
0001
,
1000
0100
0010
0001
,
0010
0010
0100
0100
,
0001
0010
0100
1000
,
0010
0010
2002
3003
,
0100
0100
2002
3003
,
1000
1000
0220
0330
,
0001
0001
0220
0330
,
1000
0100
2002
3003
,
0001
0010
2002
3003
,
0200
0320
2030
3002
,
0203
0320
2030
0002
,
0000
0000
0000
0000
,
3003
0000
0000
0000
;

//---------------dance-single - ----------------
#NOTES:
     dance-single:
     :
     Beginner:
     2:
     0.122907,0.165196,0.000000,0.008870,0.000000,97.000000,97.000000,0.000000,1.000000,0.000000,0.000000,0.122907,0.165196,0.000000,0.008870,0.000000,97.000000,97.000000,0.000000,1.000000,0.000000,0.000000:
// measure 0
0000
0000
0000
0000
,  // measure 1
0000
0000
0000
0000
,  // measure 2
0000
0000
0000
0000
,  // measure 3
0000
0000
0000
0000
,  // measure 4
0000
0000
0000
0000
,  // measure 5
0000
0000
0000
0000
,  // measure 6
1000
0000
0000
0000
,  // measure 7
0001
0000
0000
0000
,  // measure 8
0100
0000
0000
0000
,  // measure 9
0010
0000
0000
0000
,  // measure 10
0000
0000
0000
0000
,  // measure 11
1000
0000
1000
0000
,  // measure 12
1000
0000
0000
0000
,  // measure 13
0001
0000
0001
0000
,  // measure 14
0001
0000
0000
0000
,  // measure 15
0100
0000
0100
0000
,  // measure 16
0100
0000
0000
0000
,  // measure 17
0010
0000
0010
0000
,  // measure 18
0010
0000
0000
0000
,  // measure 19
1000
0000
0000
0000
,  // measure 20
0001
0000
0000
0000
,  // measure 21
1000
0000
0000
0000
,  // measure 22
0001
0000
0000
0000
,  // measure 23
0100
0000
0000
0000
,  // measure 24
0010
0000
0000
0000
,  // measure 25
0100
0000
0000
0000
,  // measure 26
0010
0000
0000
0000
,  // measure 27
1000
0000
0000
0000
,  // measure 28
1000
0000
0000
0000
,  // measure 29
0001
0000
0000
0000
,  // measure 30
0001
0000
0000
0000
,  // measure 31
1000
0000
0000
0000
,  // measure 32
0100
0000
0000
0000
,  // measure 33
0010
0000
0000
0000
,  // measure 34
0001
0000
0000
0000
,  // measure 35
1000
0000
0001
0000
,  // measure 36
1000
0000
0001
0000
,  // measure 37
1000
0000
0000
0000
,  // measure 38
0001
0000
0000
0000
,  // measure 39
0100
0000
0000
0000
,  // measure 40
0010
0000
0000
0000
,  // measure 41
0100
0000
0100
0000
,  // measure 42
0100
0000
0000
0000
,  // measure 43
0001
0000
1000
0000
,  // measure 44
0001
0000
1000
0000
,  // measure 45
0001
0000
0000
0000
,  // measure 46
1000
0000
0000
0000
,  // measure 47
0010
0000
0000
0000
,  // measure 48
0100
0000
0000
0000
,  // measure 49
0010
0000
0010
0000
,  // measure 50
0010
0000
0000
0000
,  // measure 51
1000
0000
1000
0000
,  // measure 52
0001
0000
0001
0000
,  // measure 53
1000
0000
0001
0000
,  // measure 54
0100
0000
0010
0000
,  // measure 55
0001
0000
0001
0000
,  // measure 56
1000
0000
1000
0000
,  // measure 57
0001
0000
1000
0000
,  // measure 58
0200
0000
0300
0000
,  // measure 59
0001
0000
0001
0000
,  // measure 60
1000
0000
1000
0000
,  // measure 61
0001
0000
1000
0000
,  // measure 62
0001
0000
1000
0000
,  // measure 63
0010
0000
0010
0000
,  // measure 64
0100
0000
0100
0000
,  // measure 65
0010
0000
0100
0000
,  // measure 66
0010
0000
0100
0000
,  // measure 67
0001
0000
0000
0000
,  // measure 68
1000
0000
0000
0000
,  // measure 69
0010
0000
0000
0000
,  // measure 70
0100
0000
0000
0000
,  // measure 71
0001
0000
0001
0000
,  // measure 72
1000
0000
1000
0000
,  // measure 73
0010
0000
0010
0000
,  // measure 74
0100
0000
0100
0000
;
