#TITLE:僕らの旅はどこまでも;
#SUBTITLE:;
#ARTIST:ああああ と かげろー▼;
#TITLETRANSLIT:Bokura no tabi wa doko made mo;
#SUBTITLETRANSLIT:;
#ARTISTTRANSLIT:aaaa & kagerow;
#GENRE:;
#CREDIT:;
#BANNER:Bokura no tabi wa doko made mo.png;
#BACKGROUND:Bokura no tabi wa doko made mo-bg.png;
#LYRICSPATH:;
#CDTITLE:;
#MUSIC:Bokura no tabi wa doko made mo.ogg;
#OFFSET:2.020000;
#SAMPLESTART:3.980000;
#SAMPLELENGTH:12.999997;
#LASTBEATHINT:2.040000;
#SELECTABLE:YES;
#DISPLAYBPM:110.000000:220.000000;
#BPMS:0.000000=120.000000
,48.000000=180.000000
,87.000000=170.000000
,125.000000=160.000000
,140.000000=155.000000
,144.000000=150.000000
,146.000000=145.000000
,148.000000=140.000000
,150.000000=110.000000
,152.000000=220.000000
,220.000000=110.000000
,230.000000=135.000000
;
#STOPS:220.000000=2.181816,
230.000000=1.979797
;
#BGCHANGES:;
#KEYSOUNDS:;
#ATTACKS:;

//---------------dance-single - ----------------
#NOTES:
     dance-single:
     :
     Hard:
     15:
     0.657000,0.916111,0.139364,0.368904,0.610741,561.000000,544.000000,17.000000,45.000000,0.000000,0.000000,0.657000,0.916111,0.139364,0.368904,0.610741,561.000000,544.000000,17.000000,45.000000,0.000000,0.000000:
// measure 0
0000
0000
0000
0000
,  // measure 1
0000
0000
0000
0000
,  // measure 2
0000
0000
0000
0000
,  // measure 3
0020
0000
0000
0000
0030
0001
1000
0010
,  // measure 4
0200
0000
0000
0300
0000
0000
0002
0000
0000
0003
0000
0000
0010
0000
0000
0000
0100
0000
0000
0000
1000
0000
0000
0000
,  // measure 5
1001
0000
0000
0000
0000
0000
0010
0000
1000
0000
0100
0000
1000
0000
0000
0010
0000
0000
0100
0000
0000
0001
0000
0000
,  // measure 6
0100
0001
1000
0010
1000
0000
1001
0000
,  // measure 7
0002
0000
0000
0000
0000
0000
1003
0000
0100
0000
0010
0000
0001
0000
0000
0100
0000
0000
0010
0000
0000
1000
0000
0000
,  // measure 8
0002
0000
0103
0020
0000
1030
0001
0000
0010
0000
0100
0000
,  // measure 9
0001
0010
0100
0010
0001
1000
0002
0000
0000
0103
0010
1000
,  // measure 10
0020
0230
0302
2003
,  // measure 11
3001
0010
0100
1000
0100
0010
0001
0010
0100
1000
0100
0010
,  // measure 12
0001
0100
0001
0100
0010
1000
0010
1000
,  // measure 13
0001
0010
0001
0010
0100
1000
0100
1000
0001
0100
0001
0100
0010
1000
0010
0100
,  // measure 14
0002
0000
0000
0000
0103
0000
0010
1000
0020
0000
0000
0000
0130
0000
0001
1000
,  // measure 15
0010
1000
0001
0100
0020
0000
1030
0100
,  // measure 16
2000
0010
0000
0000
3020
0100
0000
0000
0130
0000
0001
0000
1000
0000
0010
0000
,  // measure 17
0200
0000
0000
0000
0301
0000
1000
0001
1000
0001
1000
0001
1000
0000
0010
0000
,  // measure 18
0100
0000
0001
0000
1000
0000
0010
0000
2000
0010
0000
0000
3020
0100
0000
0000
,  // measure 19
0230
0001
0000
0000
0301
0000
1000
0010
2000
0000
0000
0000
3001
0000
0010
0001
,  // measure 20
0200
0000
0000
0000
0310
0000
1000
0010
1000
0000
0001
0000
0100
0000
0010
0000
,  // measure 21
1000
0001
1001
1001
0000
0000
0020
0000
,  // measure 22
1030
0000
1010
0000
1010
0000
0001
0000
0100
0010
0100
0001
,  // measure 23
0100
0000
0110
0000
0010
1000
0100
0000
1100
0000
0101
0000
,  // measure 24
0010
0000
1000
0001
0100
0000
0101
0000
0001
0100
0010
0100
,  // measure 25
0001
0000
1000
0010
1000
0000
0101
0000
1010
0000
0101
0000
,  // measure 26
1001
0000
1000
0010
1000
0000
0001
0000
0100
0010
0100
0001
,  // measure 27
1000
0000
0001
0100
0010
0100
0001
0000
1000
0000
0001
0000
,  // measure 28
1000
0100
0010
0000
0001
0000
1000
0010
0100
0000
0001
0100
,  // measure 29
1000
0000
0010
0000
0010
0000
1000
0001
0100
0000
0010
0000
,  // measure 30
1000
0100
0010
0000
0010
0000
0100
0001
1000
0000
0001
0000
,  // measure 31
1000
0001
0100
0010
,  // measure 32
1000
0001
0010
0100
,  // measure 33
0001
0000
0000
0000
1000
0000
0001
1000
0001
0000
0000
0000
0100
0000
0000
0000
,  // measure 34
0010
1000
0010
0100
0020
0000
2030
0000
,  // measure 35
3001
0100
0001
0100
0010
1000
0010
1000
,  // measure 36
0001
0010
0001
0010
0100
1000
0100
1000
,  // measure 37
0001
0000
0000
0010
0000
0000
0100
0000
0000
1000
0000
0000
0001
0000
0000
0000
0100
0000
0000
0000
1000
0000
0000
0000
,  // measure 38
0010
1000
0010
1000
0001
0100
0001
0100
,  // measure 39
0000
0010
1000
0100
1000
0010
0100
0000
,  // measure 40
0001
0010
0100
0010
1000
0010
1000
0010
,  // measure 41
0001
0010
1000
0010
0100
0010
0001
0000
,  // measure 42
1000
0001
0100
0001
0100
0001
0010
0001
,  // measure 43
0000
1000
0010
0100
0010
1000
0001
0000
,  // measure 44
1000
0010
0100
0010
1000
0010
1000
0010
,  // measure 45
0001
0010
1000
0010
1000
0010
0100
0000
,  // measure 46
0001
0010
0001
0100
0001
1000
0001
1000
,  // measure 47
0010
1000
0100
0010
0001
0100
0010
0000
,  // measure 48
0001
1000
0010
1000
0100
1000
0010
0001
,  // measure 49
0010
1000
0100
1000
0010
0100
0001
0000
,  // measure 50
1000
0001
0010
0001
1000
0010
1000
0001
,  // measure 51
0010
0001
1000
0100
0010
0001
1000
0000
,  // measure 52
0001
0100
0001
0100
0001
0100
0010
2000
,  // measure 53
0000
3001
0010
0200
0000
0301
1000
0020
,  // measure 54
0000
0000
1000
0000
0000
0001
0000
0000
,  // measure 55
1030
0000
0000
0002
0000
0000
1003
0000
0010
0100
0001
0100
,  // measure 56
0010
0000
1000
0100
0010
0100
1000
0000
0001
0000
1000
0100
,  // measure 57
0020
0000
0030
0000
,  // measure 58
1002
0000
0000
0000
0000
0000
0103
0010
0200
0000
0000
0000
0300
0000
0000
0000
,  // measure 59
0002
0000
0100
0000
0103
0000
0010
1000
0020
0000
0100
0000
0130
0000
0010
1000
,  // measure 60
0100
1000
0001
0100
0020
0100
0130
0001
,  // measure 61
2000
3100
0200
0310
0010
0001
0100
0010
,  // measure 62
1000
0000
0001
0100
0001
1000
0001
0010
0001
1000
0100
0010
0001
0000
1000
0000
,  // measure 63
0001
0010
0001
0000
1000
0000
0100
0000
1000
0010
1000
0000
0001
0000
0100
0000
,  // measure 64
0020
0000
1000
0000
1030
0000
0001
0100
0020
0000
1000
0000
1030
0000
0001
0100
,  // measure 65
0010
0000
1000
0000
0001
0000
1000
0100
0010
0000
0001
0000
0100
0000
0010
0000
,  // measure 66
2000
0000
0000
0000
3000
0000
0001
0100
0020
0000
0000
0000
1030
0000
0000
0000
,  // measure 67
0001
0010
0100
1000
0002
0000
0203
0000
,  // measure 68
0310
1000
0100
0010
0002
0000
0000
0000
,  // measure 69
0000
0000
0000
0000
0000
0000
0000
0000
0003
0000
0000
0000
0000
0000
0001
1000
,  // measure 70
0200
0000
0300
1000
0010
0100
0001
1000
,  // measure 71
0001
0000
0010
0000
0001
0000
1000
0000
0100
0000
1000
0000
0010
0000
0100
0000
0010
0000
1000
0000
0001
0000
1000
0001
,  // measure 72
1000
0000
0010
0000
1000
0000
0001
0000
0100
0000
0001
0000
1000
0000
0010
0000
0100
0000
0001
0000
0010
0000
0001
0010
,  // measure 73
0001
0000
0100
0000
0001
0100
0001
0000
0100
0000
0010
0100
0010
0000
1000
0000
0010
1000
0010
0000
0100
0000
0001
0000
,  // measure 74
1001
0000
0000
0000
0010
0000
1000
0001
1001
0000
0000
0000
0000
0000
0000
0000
;

//---------------dance-double - ----------------
#NOTES:
     dance-double:
     :
     Hard:
     15:
     0.634749,0.885574,0.131166,0.360706,0.545158,542.000000,526.000000,16.000000,44.000000,0.000000,0.000000,0.634749,0.885574,0.131166,0.360706,0.545158,542.000000,526.000000,16.000000,44.000000,0.000000,0.000000:
00000000
00000000
00000000
00000000
,
00000000
00000000
00000000
00000000
,
00000000
00000000
00000000
00000000
,
20000000
00000000
00000000
00000000
00000000
30010000
00100000
00001000
,
00020000
00000000
00000000
00030000
00000000
00000000
00000200
00000000
00000000
00000300
00000000
00000000
00001000
00000000
00000000
00000000
00000010
00000000
00000000
00000000
00000001
00000000
00000000
00000000
,
00000200
00000000
00000000
00000000
00000000
00000000
00000310
00000000
00001000
00000000
00000010
00000000
00000100
00000000
00000000
00000010
00000000
00000000
00010000
00000000
00000000
00001000
00000000
00000000
,
00010000
00001000
00100000
00010000
02000000
00000000
03200000
00000000
,
10300000
00000000
00000000
00000000
00100000
00000000
10000000
00000000
00100000
00000000
01000000
00000000
00100000
00000000
00000000
01000000
00000000
00000000
00010000
00000000
00000000
00100000
00000000
00000000
,
00002000
00000000
00000000
00003000
00000000
00000000
00020000
00000000
00000000
00030000
00000000
00000000
00000100
00000000
00000000
00000000
00001100
00000000
00000000
00000000
00001010
00000000
00000000
00000000
,
00001001
00000000
00001000
00000010
00001000
00000100
00001000
00000000
00000100
00010000
00000100
00001000
,
00000200
00020300
00032000
02003000
,
03010000
00100000
01000000
10000000
01000000
00100000
00010000
00100000
01000000
10000000
01000000
00100000
,
00010000
01000000
00010000
00100000
00001000
00010000
00000100
00010000
,
00000100
00000000
00001000
00000000
00000010
00000000
00000100
00000000
00000001
00000010
00000001
00000010
00000100
00001000
00000100
00001000
,
00000020
00000000
00000100
00000000
00000130
00000000
00000001
00000100
00000020
00000000
00001000
00000000
00001030
00000000
00000100
00010000
,
00001000
00100000
00001000
00010000
00002000
00000000
00103000
00010000
,
02000000
03100000
00200000
10300000
10000000
00100000
01000000
00010000
,
00100000
00000000
00010000
00000000
01000000
00000000
00100000
01000000
00100000
01000000
00100000
01000000
00100000
00000000
10000000
00000000
,
00010000
00100000
00010000
10000000
00200000
00000000
02300000
00000000
,
03001000
00000000
00010000
00000000
00001000
00000000
00010000
00000100
00002000
00000000
00000000
00000000
00003010
00000000
00000100
00000001
,
00002000
00000000
00003100
00010000
00001000
00010000
00000100
00010000
,
00001000
00000000
00101000
00101000
00000000
00000000
00020000
00000000
,
10030000
00000000
00100000
10000000
01000000
00000000
10000000
00000000
00010000
00100000
00010000
00000000
,
01000000
00000000
00001000
00010000
00001000
00000000
00010000
00000000
00000100
00000000
00001000
00000000
,
00000010
00000000
00000100
00000001
00001000
00000000
00000001
00000000
00001000
00000100
00000010
00000001
,
00000100
00000000
00000010
00001000
00000100
00000000
00010000
00000000
00001000
00000000
00100000
00000000
,
00010000
00000000
01010000
00000000
01010000
00000000
00100000
00000000
10100000
00000000
00100000
01000000
,
00010000
00000000
00110000
00000000
00100000
00001000
00010000
00000000
00001000
00000000
00011000
00000000
,
00010000
00000000
00000100
00000000
00001000
00000000
00000001
00000000
00001000
00000000
00000100
00010000
,
00001000
00000000
00001000
00000000
00101000
00000000
00100000
00000000
00010000
00000000
01010000
00000000
,
00100000
00000000
10000000
00000000
11000000
00000000
00100000
00000000
00001000
00000000
00011000
00000000
,
00010000
00000100
00001000
00000001
,
00000100
00001000
00010000
01000000
,
00100000
10000000
00100000
00010000
,
01000000
00001000
00020000
00032000
,
00103000
00010000
00100000
00010000
10000000
01000000
00100000
00010000
,
01000000
00010000
01000000
00010000
00100000
00001000
00010000
00000100
,
00001000
00000000
00000000
00000010
00000000
00000000
00000100
00000000
00000000
00000001
00000000
00000000
00001000
00000000
00000000
00000000
00000100
00000000
00000000
00000000
00010000
00000000
00000000
00000000
,
00001000
00100000
00001000
00010000
00001000
00100000
00001000
00100000
,
00000000
00010000
01000000
10000000
01000000
00010000
01000000
00000000
,
00010000
00100000
00001000
00100000
00010000
00100000
00001000
00010000
,
00000000
00000100
00001000
00000100
00010000
00000100
00001000
00000010
,
00000100
00000001
00000100
00000010
00001000
00000100
00010000
00000100
,
00000000
00010000
00001000
00100000
00010000
01000000
00010000
00000000
,
00100000
00010000
10000000
00010000
00100000
00010000
10000000
01000000
,
00000000
10000000
00100000
00010000
00100000
10000000
00100000
00000000
,
01000000
00010000
00100000
00010000
01000000
00010000
00100000
00001000
,
00000000
00001000
00010000
00000100
00010000
00001000
00010000
00000000
,
00000010
00001000
00000100
00001000
00000100
00000001
00000100
00001000
,
00000000
00000100
00010000
00001000
00100000
00010000
00100000
00000000
,
00001000
01000000
00010000
01000000
00100000
01000000
00010000
00000000
,
10000000
00100000
01000000
00010000
00100000
00001000
00010000
00000000
,
00000100
00000100
00000100
00000100
00001000
00000010
00000100
00000002
,
00000000
00001003
00000100
00020000
00000000
00031000
00100000
00020000
,
00000000
00000000
01000000
00000000
00000000
00100000
00000000
00000000
,
01030000
00000000
00000000
20000000
00000000
00000000
30010000
00100000
01000000
00100000
00010000
01000000
,
00010000
00100000
00001000
00100000
00010000
00100000
00002000
00000000
00023000
00000000
00030100
00001000
,
00000200
00000000
00000300
00000000
,
01020000
00000000
00000000
00000000
00000000
00000000
10030000
00100000
20000000
00000000
00000000
00000000
30010000
00000000
00000000
00000000
,
00100000
00000000
00001000
00000000
00010000
00000000
00001000
00010000
00001000
00000000
00010000
00000000
00000100
00000000
00001000
00000100
,
00000010
00000001
00000100
00000010
00002000
00000100
00003100
00000100
,
00020000
00000000
00031000
00000000
00002000
00000000
00103000
00000000
00010000
00100000
00010000
00000000
01000000
00000000
00100000
00000000
,
10000000
00000000
00100000
10000000
00100000
01000000
00100000
10000000
01000000
00100000
00010000
00100000
00010000
00000000
00100000
00000000
,
00001000
00010000
00001000
00000000
00010000
00000000
00000100
00000000
00002000
00000000
00003100
00000000
00000200
00000000
00000310
00000000
,
00000010
00000001
00000100
00000000
00000010
00000000
00001000
00000100
00001000
00000000
00000100
00000000
00010000
00000000
00001000
00100000
,
00010000
00000000
01000000
00000000
00100000
00000000
10000000
00100000
01000000
00000000
00010000
00000000
00100000
00000000
00001000
00000000
,
00020000
00000000
00000000
00000000
00030000
00000000
00000100
00001000
00000020
00000000
00000000
00000000
00000130
00000000
00000000
00000000
,
00000001
00000100
00000010
00001000
00000200
00000000
00020300
00000000
,
00031000
00100000
00010000
01000000
00200000
00000000
00000000
00000000
,
00000000
00000000
00000000
00000000
00000000
00000000
00000000
00000000
00300000
00000000
00000000
00000000
00000000
00000000
10000000
01000000
,
00200000
00000000
00000000
01300000
00010000
00100000
00001000
00010000
,
00000100
00000000
00001000
00000000
00000010
00000000
00001000
00000000
00000001
00000000
00001000
00000010
00001000
00000000
00000100
00000000
00010000
00000000
00001000
00000000
00100000
00000000
00010000
00000000
,
01000000
00000000
00100000
00000000
10000000
00000000
00100000
00000000
01000000
00000000
00100000
10000000
00100000
00000000
01000000
00000000
00010000
00000000
01000000
00000000
00100000
00000000
10000000
00000000
,
00100000
00000000
01000000
00000000
00010000
00000000
00100000
00000000
00001000
00000000
00010000
00001000
00010000
00000000
00000100
00000000
00001000
00000100
00001000
00000000
00000100
00000000
00010000
00001000
,
00010000
00000000
00000000
00000000
00100000
00000000
00001000
00010000
00011000
00000000
00000000
00000000
00000000
00000000
00000000
00000000
;

//---------------dance-double - ----------------
#NOTES:
     dance-double:
     :
     Medium:
     11:
     0.400524,0.641278,0.016396,0.475476,0.233639,342.000000,340.000000,2.000000,58.000000,0.000000,0.000000,0.400524,0.641278,0.016396,0.475476,0.233639,342.000000,340.000000,2.000000,58.000000,0.000000,0.000000:
00000000
00000000
00000000
00000000
,
00000000
00000000
00000000
00000000
,
00000000
00000000
00000000
00000000
,
00200000
00000000
00000000
00000000
00300000
00001000
00100000
00001000
,
00020000
00030100
00001000
00000010
,
00000200
00000000
00000300
00000000
00000001
00000010
00000100
00001000
,
00000020
00000030
00001000
00000100
,
00020000
00000000
00000000
00000000
00030000
00001000
00010000
00001000
,
00100000
00000000
00000000
00010000
00000000
00000000
01000000
00000000
01000000
00000000
01000000
00000000
,
00200000
00300000
20000000
30000000
,
00020000
00230000
00302000
00023000
,
00002000
00000000
00000000
00033000
,
00000000
00000000
00000000
00000000
,
00010000
00000100
00001000
00000001
,
00000200
00000000
00001300
00000010
00002000
00000000
00003100
00010000
,
00000100
00010000
00000100
00010000
00002000
00000000
00103000
00010000
,
02000000
00000000
03200000
00000000
10300000
00100000
01000000
00100000
,
20000000
00000000
30020000
00000000
20030000
00000000
30010000
00100000
,
00010000
01000000
00010000
10000000
00010000
00000000
00100000
00000000
,
00002000
00000000
00013000
00001000
00020000
00000000
00030100
00001000
,
00000200
00000000
00001300
00000010
00000100
00000000
00000001
00000000
,
00001000
00000000
00000001
00001001
00000000
00000000
00000000
00000000
,
00000010
00000000
00000001
00000000
00000100
00000000
00000010
00000000
00001000
00000000
00000100
00000000
,
00010000
00000000
00001000
00000000
00010000
00000000
00001000
00000000
00100000
00000000
00010000
00000000
,
10000000
00000000
01000000
00000000
00010000
00000000
10000000
00000000
00100000
00000000
00010000
00000000
,
01000000
00000000
00001000
00000000
00010000
00000000
00000100
00000000
00010000
00000000
00001000
00000000
,
01000000
00000000
00010000
00000000
00100000
00000000
00001000
00000000
00010000
00000000
00000010
00000000
,
00001000
00000000
00000001
00000000
00000100
00000000
00001000
00000000
00000100
00000000
00000001
00000000
,
00001000
00000000
00000100
00000000
00010000
00000000
00001000
00000000
01000000
00000000
00100000
00000000
,
00010000
00000000
10000000
00000000
01000000
00000000
00100000
00000000
00001000
00000000
00010000
00000000
,
00000100
00000000
00000100
00000000
00000100
00000000
00010000
00000000
00001000
00000000
00010000
00000000
,
00001000
00000000
00100000
00010000
,
10000000
01000000
00100000
00001000
,
00010000
00000000
00010000
00000100
,
00001000
00000001
00000100
00000110
,
00000001
00000100
00000001
00000000
00001000
00000000
00000100
00000000
,
00010000
00001000
00010000
00000000
00001000
00000000
01000000
00000000
,
00100000
10000000
02000000
00000000
,
03100000
00000000
10000000
00000000
00010000
00100000
00010000
00100000
,
00000000
00010000
00100000
00000000
00001000
00000000
00010000
00000000
,
00000200
00000000
00000000
00002300
00000000
00000000
00003020
00000000
,
00000000
00000230
00000000
00000000
00000301
00001000
00000001
00001000
,
00000010
00000000
00001000
00000000
00000100
00000000
00010000
00000100
,
00000000
00000100
00010000
00000000
00001000
00010000
00001000
00000000
,
00020000
00000000
00000000
00032000
00000000
00000000
02003000
00000000
,
00000000
03200000
00000000
00000000
10300000
01000000
00100000
00000000
,
00010000
00000000
01000000
00000000
00100000
00000000
10000000
00100000
,
00000000
00100000
01000000
00000000
00010000
00100000
00001000
00000000
,
00020000
00000000
00000000
00030200
00000000
00000000
00002300
00000000
,
00000000
00003020
00000000
00000000
00001030
00000100
00000010
00000000
,
00001000
00000000
00000001
00001000
00000100
00001000
00000001
00001000
,
00000000
00000010
00001000
00000000
00000100
00000000
00010000
00000000
,
00001000
00010000
00001000
00010000
00001000
00100000
00010000
02000000
,
00000000
03010000
00100000
00002000
00000000
00013000
00000100
00002000
,
00000000
00000000
00000001
00000000
00000000
00000010
00000000
00000000
,
00003100
00000000
00020000
00000000
,
00032000
00000000
00000000
00000000
00000000
00000000
01003000
00000000
00010000
00000000
10000000
00000000
,
00200000
00000000
00300000
00000000
,
00200000
00000000
02000000
03300000
,
10000000
01000000
00100000
00000000
01000000
00100000
00010000
00000000
,
00100000
00001000
00010000
00001000
00020000
00000000
00030100
00001000
,
00000002
00000000
00002003
00000000
00003100
00001000
00000010
00001000
,
00000200
00000000
00020300
00000000
00032000
00000000
00103000
00010000
,
01000000
00010000
00100000
00010000
01000000
00000000
00100000
10000000
,
02000000
03010000
00200000
00301000
,
00020000
00000000
00030100
00001000
00000010
00001000
00000001
00000100
,
00000020
00010030
00002000
00013000
,
00100000
00010000
10000000
01000000
,
00100000
00002000
00020000
00000000
,
00000000
00000000
00000000
00000000
00033000
00000000
00000000
00010000
,
00000200
00000000
00000000
00001300
00000010
00000000
00000100
00000000
,
00000001
00000000
00000100
00000010
00000100
00000010
00000100
00000000
00000010
00001000
00000010
00001000
,
00000010
00000000
00001000
00000100
00001000
00000100
00001000
00000000
00000100
00010000
00001000
00010000
,
00000100
00000000
00010000
00001000
00100000
00001000
00010000
00000000
00001000
00100000
00000000
00100000
,
00010000
00000000
00100000
00001000
00010000
00000000
00000000
00000000
;

//---------------dance-single - ----------------
#NOTES:
     dance-single:
     :
     Medium:
     11:
     0.414578,0.641278,0.049187,0.475476,0.245936,354.000000,348.000000,6.000000,58.000000,0.000000,0.000000,0.414578,0.641278,0.049187,0.475476,0.245936,354.000000,348.000000,6.000000,58.000000,0.000000,0.000000:
0000
0000
0000
0000
,
0000
0000
0000
0000
,
0000
0000
0000
0000
,
0020
0000
0000
0000
0030
1000
0010
1000
,
0002
0000
0000
0103
0000
0000
0001
0000
0010
0000
0100
0000
,
2000
0000
3000
0000
0001
0100
0010
1000
,
0020
0030
0100
0010
,
2002
0000
0000
0000
3003
0100
0010
0100
,
0010
0000
0000
0001
0000
0000
0100
0000
0100
0000
0100
0000
,
0020
0030
2000
3100
,
0002
0023
0032
1003
,
2002
0000
0000
3003
,
0000
0000
0000
0000
,
0001
0010
0100
1000
,
0020
0000
1030
0001
2000
0000
3001
0100
,
0001
0100
0010
1000
0002
0000
0013
0001
,
0200
0000
0320
0000
1030
0010
0100
0010
,
2000
0000
3002
0000
2003
0000
3001
0010
,
0001
0100
0001
1000
0001
0000
0010
0000
,
0002
0000
1003
0010
2000
0000
3001
0010
,
0002
0000
0103
0010
1000
0000
0001
0000
,
1000
0000
0001
1001
0000
0000
0000
0000
,
0010
0000
0001
0000
0100
0000
0010
0000
1000
0000
0100
0000
,
0010
0000
0001
0000
0100
0000
0010
0000
0100
0000
0001
0000
,
1000
0000
0100
0000
0001
0000
1000
0000
0010
0000
0001
0000
,
0100
0000
0010
0000
0001
0000
1000
0000
0100
0000
0010
0000
,
0001
0000
0100
0000
0010
0000
1000
0000
0010
0000
1000
0000
,
0001
0000
1000
0000
0100
0000
0001
0000
0100
0000
1000
0000
,
0010
0000
0100
0000
0001
0000
0100
0000
0010
0000
1000
0001
,
1000
0000
0010
0000
0100
0000
0010
0000
1000
0000
0001
0000
,
1000
0000
1000
0000
1000
0000
0001
0000
0001
0000
0001
0000
,
1001
0000
0010
0001
,
1000
0100
0010
0001
,
0001
0000
0100
0010
1000
0000
0001
0000
,
0100
0010
0100
0010
0100
0000
0110
0000
,
0001
0010
0100
0000
1000
0000
0001
0000
,
1000
0100
0010
0000
0001
0000
0100
0000
,
0010
1000
0200
0000
,
0310
0000
1000
0000
0001
0010
0001
0010
,
0000
0001
0010
0000
0001
0000
0100
0000
,
0020
0000
0000
2030
0000
0000
3200
0000
,
0000
0320
0000
0000
0031
0100
0001
0100
,
0010
0000
1000
0000
0001
0100
0001
0100
,
0000
0010
0100
0000
0001
0100
0001
0000
,
0002
0000
0000
0023
0000
0000
0230
0000
,
0000
2300
0000
0000
3010
0100
0010
0000
,
1000
0000
0010
0000
0100
0001
0100
0010
,
0000
0010
0100
0000
0001
0010
0100
0000
,
0002
0000
0000
2003
0000
0000
3020
0000
,
0000
0230
0000
0000
0301
1000
0010
0000
,
1000
0000
0001
0000
1000
0010
1000
0001
,
0000
0001
1000
0000
0010
0000
1000
0000
,
0001
0100
0001
0100
0010
1000
0010
2000
,
0000
3001
0010
0002
0000
1003
0010
2000
,
0000
0000
0001
0000
0000
0010
0000
0000
,
3100
0000
0002
0000
,
2003
0000
0000
0000
0000
0000
3100
0000
0001
0000
1000
0000
,
0020
0000
0030
0000
,
0020
0000
0200
0330
,
1000
0100
0010
0000
0100
0010
0001
0000
,
1000
0010
0100
0010
2000
0000
3001
0100
,
0020
0000
2030
0000
3001
0100
0010
0100
,
0002
0000
2003
0000
3020
0000
0130
0001
,
0010
0001
0100
0001
1000
0000
0010
0000
,
2000
0000
3001
0010
0002
0000
0103
0010
,
2000
0000
3010
0100
0001
0100
0010
1000
,
0002
0000
0003
0100
0020
0000
0130
0000
,
0010
0001
1000
0100
,
0010
0000
0002
0000
,
0000
0000
0000
0000
0003
0000
0000
0001
,
2000
0000
0000
3010
0100
0000
0001
0000
,
1000
0000
0001
0100
0001
0100
0001
0000
1000
0010
1000
0010
,
1000
0000
0010
0100
0010
0100
0010
0000
1000
0001
1000
0001
,
1000
0000
1000
0001
0000
0001
0010
0000
0010
0001
1000
0001
,
0010
0000
0010
0100
1001
0000
0000
0000
;

//---------------dance-double - ----------------
#NOTES:
     dance-double:
     :
     Easy:
     7:
     0.268187,0.458056,0.131166,0.459080,0.008198,229.000000,213.000000,16.000000,56.000000,0.000000,0.000000,0.268187,0.458056,0.131166,0.459080,0.008198,229.000000,213.000000,16.000000,56.000000,0.000000,0.000000:
00000000
00000000
00000000
00000000
,
00000000
00000000
00000000
00000000
,
00000000
00000000
00000000
00000000
,
00020000
00000000
00030000
00000100
,
00001000
00000001
00001000
00000010
,
00002000
00003000
00000100
00010000
,
00001000
00100000
00010000
01000000
,
20000000
00000000
30000000
00010000
,
00100000
00001000
00010000
00001000
,
00020000
00030000
00000020
00000030
,
00001000
00000100
00000010
00000001
,
00002002
00000000
00000000
00003003
,
00000000
00000000
00000000
00000000
,
00001000
00001000
00000010
00000010
,
00002000
00003000
00000200
00000300
,
00001000
00000010
00001001
00000000
,
00000010
00000000
00001000
00000000
00010000
00001000
00100000
00000000
,
00020000
02030000
03200000
10300000
,
00010000
00100000
00010000
00100000
00010000
00000000
01000000
00000000
,
00200000
00300000
02000000
03000000
,
00200000
00300000
10000000
00010000
,
00100000
00000000
00100000
00100000
00000000
00000000
00000000
00000000
,
00002000
00000000
00023000
00000000
,
00030010
00001000
00000200
00000300
,
00000002
00000000
00002003
00000000
,
00003010
00001000
00000200
00000300
,
00020000
00000000
00032000
00000000
,
00103000
00010000
02000000
03000000
,
00100000
10000000
00010000
00100000
,
00002000
00000000
00000000
00000000
,
00020000
00000000
00033000
00000000
,
00010000
00000000
00000100
00000000
,
00000010
00000000
00001000
00000000
,
00000001
00000000
00000100
00001000
,
00000010
00000000
00002000
00003200
,
00020300
00001000
00001000
00032000
,
00203000
00010000
00010000
00320000
,
02030000
00000000
00200000
03300000
,
00100000
00000000
00000000
10000000
00000000
00000000
00100000
00000000
,
00000000
10000000
00000000
00000000
00010000
00000000
00100000
00000000
,
00001000
00000000
00000000
00001000
00000000
00000000
00010000
00000000
,
00000000
00010000
00000000
00000000
00000100
00000000
00001000
00000000
,
00000010
00000000
00000000
00000010
00000000
00000000
00000100
00000000
,
00000000
00000100
00000000
00000000
00000001
00000000
00001000
00000000
,
00000100
00000000
00000000
00000100
00000000
00000000
00010000
00000000
,
00000000
00010000
00000000
00000000
00001000
00000000
00100000
00000000
,
00010000
00000000
00000000
01000000
00000000
00000000
10000000
00000000
,
00000000
01000000
00000000
00000000
00010000
00000000
00100000
00000000
,
00001000
00000000
00000000
00010000
00000000
00000000
00000100
00000000
,
00000000
00001000
00000000
00000000
00000010
00000000
00000100
00000000
,
00000001
00000000
00000000
00000001
00000000
00000000
00001000
00000000
,
00000000
00001000
00000000
00000000
00000100
00000000
00010000
00000000
,
00001000
00000000
00000000
00001000
00000000
00010000
00000000
00010000
,
00000000
00001000
00000000
00001000
00000000
00010000
00000000
00010000
,
00000000
00000000
00001000
00000000
00000000
00100000
00000000
00000000
,
10010000
00000000
00000000
00000000
00200000
00000000
00000000
00300000
,
00002000
00000000
00000000
00000000
00000000
00000000
00000000
00000000
00000000
00003000
00000000
00000000
00010000
00000000
00000000
00000000
00000100
00000000
00000000
00000000
00001000
00000000
00000000
00000000
,
00000002
00000000
00000003
00000000
,
00022000
00000000
00033000
00000000
,
00200000
00000000
00300000
00010000
02000000
00000000
03000000
00000000
,
10100000
01010000
00220000
00330000
,
00002000
00000000
00023000
00000000
00030100
00001000
00000100
00001000
,
00000200
00010000
00010000
00010300
,
00001000
00100000
00001000
00100000
00002000
00000000
00203000
00000000
,
00320000
00000000
00000000
01000000
02030000
00000000
03000000
00000000
,
00200000
00000000
00300000
10000000
00010000
00000000
00100000
00000000
,
00002000
00000000
00020000
00033000
,
00010000
00000100
00001000
00000001
,
00001000
00000100
00020000
00000000
,
00000000
00000000
00030000
00000000
,
00002000
00000000
02003000
00000000
,
03100000
10000000
01010000
00101000
,
00001000
00010000
00001100
00001010
,
00000001
00001100
00011000
00110000
,
00101000
00000000
00011000
00000000
;

//---------------dance-single - ----------------
#NOTES:
     dance-single:
     :
     Easy:
     7:
     0.269358,0.458056,0.155759,0.508268,0.008198,230.000000,211.000000,19.000000,62.000000,0.000000,0.000000,0.269358,0.458056,0.155759,0.508268,0.008198,230.000000,211.000000,19.000000,62.000000,0.000000,0.000000:
0000
0000
0000
0000
,
0000
0000
0000
0000
,
0000
0000
0000
0000
,
2002
0000
3003
0010
,
1000
0100
0010
0001
,
0200
0300
0020
0030
,
0001
0100
0010
1000
,
0002
0000
0003
1000
,
0100
0010
0001
0100
,
0020
0030
0020
0030
,
1000
0010
0100
0001
,
2002
0000
0000
0000
,
3003
0000
0000
0000
,
0010
0010
0010
0010
,
2000
3000
0002
0003
,
1000
0001
2002
3003
,
0010
1000
0100
0010
,
0002
0100
0100
0103
,
0010
1000
0100
0010
,
2002
3003
0220
0330
,
0010
1000
0100
0001
,
1000
0000
0001
1000
0000
0000
0000
0000
,
0002
0000
0203
0000
,
0310
1000
0002
0000
,
2003
0000
3200
0000
,
0310
0001
2000
0000
,
3002
0000
0203
0000
,
0310
1000
2002
3003
,
0010
1000
0100
0010
,
2002
0000
0000
3003
,
0220
0000
0000
0330
,
0001
0000
0100
0000
,
1000
0010
0001
0000
,
1000
0000
0100
0000
,
0001
0010
2000
3002
,
0203
0010
0010
0320
,
2030
0100
0100
0100
,
3020
0000
0230
0000
,
0301
0000
0000
0100
0000
0000
0001
0000
,
0000
0100
0000
0000
0001
0000
0010
0000
,
1000
0000
0000
0010
0000
0000
1000
0000
,
0000
0010
0000
0000
0001
0000
0100
0000
,
0010
0000
0000
0100
0000
0000
0010
0000
,
0000
0100
0000
0000
0010
0000
1000
0000
,
0100
0000
0000
0001
0000
0000
0100
0000
,
0000
0001
0000
0000
1000
0000
0100
0000
,
0010
0000
0000
0010
0000
0000
0001
0000
,
0000
0100
0000
0000
0010
0000
1000
0000
,
0010
0000
0000
0010
0000
0000
1000
0000
,
0000
0100
0000
0000
1000
0000
0001
0000
,
0100
0000
0000
0100
0000
0000
0010
0000
,
0000
0010
0000
0000
1000
0000
0001
0000
,
1000
0000
0000
0001
0000
0001
0000
1000
,
0000
1000
0000
0001
0000
0001
0000
1000
,
0000
0000
0010
0000
0000
0100
0000
0000
,
1001
0000
0000
0000
0002
0000
0000
0003
,
2000
0000
0000
0000
0000
0000
0000
0000
0000
3000
0000
0000
0010
0000
0000
0000
0100
0000
0000
0000
0010
0000
0000
0000
,
0200
0000
0300
0000
,
2002
3003
0220
0330
,
0001
1000
0001
0000
1000
0001
1000
0000
,
0002
0203
2300
3000
,
0020
0000
0230
0000
0310
0100
0010
0000
,
2000
0000
3002
0003
,
0100
0010
1000
0001
,
0020
0030
0200
0300
,
0002
0000
0003
0000
1000
0001
1000
0000
,
0020
0030
0200
0300
,
0001
0010
0100
1000
,
0010
0100
0010
0000
2002
0000
0000
0000
,
0000
0000
3003
0000
,
0020
0000
0200
0330
,
0001
0010
0100
1001
,
1000
0100
0010
1001
,
0110
1001
0110
1001
,
0010
0100
1001
0000
;

//---------------dance-single - ----------------
#NOTES:
     dance-single:
     :
     Beginner:
     3:
     0.135850,0.244296,0.032791,0.270530,0.000000,116.000000,112.000000,4.000000,33.000000,0.000000,0.000000,0.135850,0.244296,0.032791,0.270530,0.000000,116.000000,112.000000,4.000000,33.000000,0.000000,0.000000:
0000
0000
0000
0000
,
0000
0000
0000
0000
,
0000
0000
0000
0000
,
0002
0000
0003
0000
,
2000
0000
3000
0000
,
0020
0000
0030
0000
,
0200
0000
0300
0000
,
0001
0000
0001
0000
,
1000
0000
1000
0000
,
0020
0000
0030
0000
,
0200
0000
0300
0000
,
2002
0000
0000
0000
,
3003
0000
0000
0000
,
0000
0000
0000
0000
,
1000
0000
1000
0000
,
1000
0001
1000
0000
,
0001
0000
0001
0000
,
0002
0000
0003
0000
,
0100
0000
0010
0000
,
0100
0000
0010
0000
,
0100
0000
0010
0000
,
0001
0001
0000
0000
,
0002
0000
0003
0000
,
2000
0000
3000
0000
,
0020
0000
0030
0000
,
0200
0000
0300
0000
,
0001
0000
1000
0000
,
0001
0000
1000
0000
,
0010
0000
0010
0000
,
0020
0000
0030
0000
,
0200
0000
0300
0000
,
1000
0000
0100
0000
,
1000
0000
0100
0000
,
0001
0000
0100
0000
,
0001
0000
0100
0100
,
0100
0000
0001
0000
,
0001
0000
1000
0000
,
1000
0000
0020
0000
,
0030
0000
0000
0000
,
0000
0000
0000
0000
,
0001
0000
0001
0000
,
1000
0000
1000
0000
,
0020
0000
0000
0000
,
0030
0000
0000
0000
,
1000
0000
1000
0000
,
0001
0000
0001
0000
,
0200
0000
0000
0000
,
0300
0000
0000
0000
,
0010
0000
0010
0000
,
0100
0000
0100
0000
,
0002
0000
0003
0000
,
2000
0000
3000
0000
,
0020
0000
0000
0000
0030
0000
0000
1000
,
0000
0000
0000
0100
0000
0000
0000
0001
,
0000
0000
0000
0000
,
1001
0000
0010
0000
,
0001
0000
0100
0000
,
1000
0000
0000
0000
,
0000
0000
0000
0000
,
0002
0003
2000
3000
,
0001
0001
0001
0000
,
2000
3000
0002
0003
,
1000
1000
1000
0000
,
0020
0030
0020
0030
,
0200
0300
0200
0300
,
0010
0000
0100
0000
,
2002
0000
3003
0000
,
0001
0000
1000
0000
,
0010
0000
0100
0000
,
0000
0000
0000
0000
,
0010
0000
0100
0000
,
0002
0003
0001
0000
,
2000
3000
1000
0000
,
0010
0010
0010
0010
,
0010
0000
1001
0000
;
