#TITLE:僕の気持ちを描く;
#SUBTITLE:;
#ARTIST:Mr.T feat.NU-KO;
#TITLETRANSLIT:Boku no kimochi wo egaku;
#SUBTITLETRANSLIT:;
#ARTISTTRANSLIT:;
#GENRE:;
#CREDIT:;
#BANNER:Boku no kimochi wo egaku.png;
#BACKGROUND:Boku no kimochi wo egaku-bg.png;
#LYRICSPATH:;
#CDTITLE:;
#MUSIC:Boku no kimochi wo egaku.ogg;
#OFFSET:1.440001;
#SAMPLESTART:48.520004;
#SAMPLELENGTH:12.999997;
#LASTBEATHINT:1.246670;
#SELECTABLE:YES;
#DISPLAYBPM:170.000000;
#BPMS:0.000000=170.000000
;
#STOPS:
;
#BGCHANGES:;
#KEYSOUNDS:;
#ATTACKS:;

//---------------dance-single - ----------------
#NOTES:
     dance-single:
     :
     Hard:
     11:
     0.503246,0.513027,0.241282,0.135118,0.000000,365.000000,340.000000,25.000000,14.000000,0.000000,0.000000,0.503246,0.513027,0.241282,0.135118,0.000000,365.000000,340.000000,25.000000,14.000000,0.000000,0.000000:
// measure 0
0000
0000
0000
0000
,  // measure 1
0000
0000
0000
0000
,  // measure 2
0000
0000
0000
0000
,  // measure 3
0000
0000
0000
0000
,  // measure 4
0000
0000
0000
0000
,  // measure 5
0000
0000
0000
0000
,  // measure 6
1000
0100
1000
0000
0001
0010
0001
0000
,  // measure 7
0100
0010
0100
0000
0001
1000
0001
0000
,  // measure 8
1000
0100
1000
0000
0001
0100
0001
0100
,  // measure 9
0000
0000
0000
0110
0000
0000
1001
0000
,  // measure 10
0001
0000
0100
0000
0010
0000
1000
0010
,  // measure 11
1000
0000
0010
0000
0100
0000
0001
1000
,  // measure 12
0000
1000
0000
1000
0001
0000
0100
0010
,  // measure 13
0000
0010
0000
0010
0000
1000
0001
1000
,  // measure 14
0000
0010
0000
1000
0001
1000
0000
0100
,  // measure 15
0000
0100
0000
0001
0000
1000
0001
0000
,  // measure 16
0100
0100
0010
0010
,  // measure 17
1000
0001
0100
0001
1000
0001
0100
0000
,  // measure 18
1001
0000
0010
0000
1000
0000
0001
0100
,  // measure 19
0001
0000
1000
0000
0010
0000
1000
0100
,  // measure 20
0000
0100
0000
0100
1000
0000
0001
0010
,  // measure 21
0000
0010
0000
0001
0000
1000
0010
1000
,  // measure 22
0000
0001
0100
0001
0000
1000
0010
1000
,  // measure 23
0000
0001
0000
0100
0000
0010
0100
0000
,  // measure 24
0001
0100
1000
0010
,  // measure 25
0001
0000
1000
0000
0100
0001
1000
0010
,  // measure 26
0000
0000
1000
0100
0000
0001
0010
0100
,  // measure 27
0000
0000
0001
0000
1000
0010
1000
0001
,  // measure 28
0000
0010
1000
0100
0000
0010
0001
0100
,  // measure 29
0000
0000
0010
0000
1000
0100
1000
0001
,  // measure 30
1000
1010
0001
0101
,  // measure 31
1010
1000
0011
0010
,  // measure 32
0002
0000
0000
1003
2000
0000
0000
3010
,  // measure 33
0000
0100
0000
0001
1000
0010
0100
0010
,  // measure 34
0000
0001
0002
0000
1000
0000
1003
0000
,  // measure 35
1001
0000
0000
0001
1000
0000
1001
0000
,  // measure 36
0010
1000
0010
1000
0010
1000
0010
0100
,  // measure 37
0000
0100
0001
1000
0000
0000
0001
0000
,  // measure 38
0010
0001
0010
0001
0010
0001
0100
0010
,  // measure 39
0000
0010
1000
0100
0000
0000
1000
0000
,  // measure 40
0001
0100
0001
0100
0001
0100
0010
1000
,  // measure 41
0000
0010
1000
0100
0000
1000
0001
0000
,  // measure 42
1000
0000
0100
1000
0001
1000
0100
0000
,  // measure 43
0001
0100
0010
0000
0100
0010
1000
0000
,  // measure 44
1000
0001
1000
0001
1000
0001
1000
0010
,  // measure 45
0000
0010
1000
0100
0000
0000
1001
0000
,  // measure 46
0010
0001
0010
0001
0010
0001
0100
0010
,  // measure 47
0000
0010
1000
0100
0000
1000
0001
2000
,  // measure 48
0000
0000
3001
0000
0100
0010
0100
0020
,  // measure 49
0000
0000
1030
0100
0000
1000
0000
0002
,  // measure 50
0000
0100
0000
1003
,  // measure 51
0010
0000
1000
0000
0100
1000
0001
1000
,  // measure 52
0000
1000
0001
0100
0000
0100
0010
1000
,  // measure 53
0000
1010
0000
0101
0000
0001
0010
0001
,  // measure 54
0000
1000
0100
0010
0000
0010
0001
0100
,  // measure 55
0000
0101
0000
1010
0000
0010
0100
0000
,  // measure 56
0001
1000
0001
1000
0010
0100
0010
0200
,  // measure 57
0000
0301
1000
0010
0000
0010
0200
0000
,  // measure 58
0301
1001
1000
1001
,  // measure 59
0010
0101
0010
1100
,  // measure 60
0001
0100
0001
0100
0010
1000
0010
0100
,  // measure 61
0000
0001
1000
0100
0000
1000
2000
0000
,  // measure 62
3001
1010
0001
1100
,  // measure 63
0010
0101
0010
1100
,  // measure 64
0001
0100
0010
0000
0100
0010
1000
0000
,  // measure 65
1000
0010
0100
0000
0100
0001
1000
0002
,  // measure 66
0000
0103
0010
0200
0000
0301
1000
0020
,  // measure 67
0000
0230
0000
0302
0000
0000
1003
0000
,  // measure 68
0001
0010
0100
0000
0010
0100
1000
0000
,  // measure 69
0001
0100
0010
0000
1000
0010
0100
0000
,  // measure 70
0000
1001
0000
0000
0110
0000
0000
1001
;

//---------------dance-double - ----------------
#NOTES:
     dance-double:
     :
     Hard:
     11:
     0.475671,0.513027,0.231631,0.260585,0.000000,345.000000,321.000000,24.000000,27.000000,0.000000,0.000000,0.475671,0.513027,0.231631,0.260585,0.000000,345.000000,321.000000,24.000000,27.000000,0.000000,0.000000:
00000000
00000000
00000000
00000000
,
00000000
00000000
00000000
00000000
,
00000000
00000000
00000000
00000000
,
00000000
00000000
00000000
00000000
,
00000000
00000000
00000000
00000000
,
00000000
00000000
00000000
00000000
,
00100000
00000000
00001000
00000000
00010000
00000000
00001000
00010000
,
00000000
00010000
00000100
00001000
00000000
00001000
00000000
00000010
,
00000100
00000000
00000001
00000000
00001000
00000000
00000100
00010000
,
00000000
00000000
00000000
00011000
00000000
00000000
00101000
00000000
,
00100000
00010000
01000000
00100000
,
10000000
00000000
01000000
00000000
00100000
00000000
00001000
00010000
,
00000000
00010000
00000000
00020000
00000000
00000000
00000000
00000100
,
00000000
00000100
00000000
00030100
00000000
00001000
00000010
00000100
,
00000000
00000100
00000000
00000100
00000000
00000100
00000001
00001000
,
00000000
00001000
00000000
00000010
00000000
00001000
00000200
00000000
,
00010000
00010000
00010000
00010300
,
00001000
00100000
00001000
00100000
00010000
00100000
00001000
00000000
,
00100000
00000000
00010000
01000000
00100000
00000000
10000000
00100000
,
01000000
00000000
00010000
00000000
00100000
00000000
00001000
00010000
,
00000000
00010000
00000000
00010000
00000100
00000000
00000100
00001000
,
00000000
00001000
00000000
00000001
00000000
00001000
00000100
00001000
,
00000000
00000010
00000000
00001010
00000000
00000001
00000100
00000010
,
00000000
00000010
00000000
00001010
00000000
00001000
00000200
00000000
,
00010300
00000000
00001000
00010000
00000000
00010000
00001000
00000000
,
00001000
00100000
00001000
00000000
00100000
00010000
01000000
00200000
,
00000000
00000000
10300000
00010000
00000000
10000000
00010000
00200000
,
00000000
00000000
00301000
00000000
00001000
00010000
00000100
00020000
,
00000000
00000000
00031000
00010000
00000000
00010000
00000100
00002000
,
00000000
00000000
00003010
00000000
00000010
00000100
00000001
00000100
,
00000010
00001010
00001000
00000100
,
00010000
00011000
00001000
00101000
,
00200000
00000000
00000000
00010000
00320000
00000000
00000000
01000000
,
00000000
01000000
00000000
00030000
01000000
00100000
10000000
00200000
,
00000000
01300000
02000000
00000000
00000000
00000000
00000000
00000000
,
03100000
00000000
00110000
00110000
,
00100000
00001000
00010000
00001000
00100000
00001000
00010000
00002000
,
00000000
00000000
00013000
00010000
00000000
00000100
00001000
00000000
,
00000010
00001000
00000100
00001000
00000010
00001000
00000001
00002000
,
00000000
00000000
00000100
00003100
00000000
00000100
00010000
00000000
,
00001000
00100000
00001000
01000000
00001000
00010000
00001000
02000000
,
00000000
00000000
03010000
10000000
00000000
10000000
00200000
00000000
,
01000000
00000000
01300000
00000000
00010000
10000000
00100000
10000000
,
00010000
00100000
00101000
00011000
,
00010000
00000100
00010000
00000100
00001000
00000100
00000010
00000002
,
00000000
00000103
00000010
00002000
00000000
00000000
00003100
00000000
,
00000100
00010000
00000100
00010000
00001000
00010000
00001000
00200000
,
00000000
00310000
01000000
00100000
00000000
10000000
00000000
10010000
,
00000000
00000000
00100000
02000000
00000000
03010000
01000000
00200000
,
00000000
00000000
10300000
00100000
00000000
01000000
00000000
00002000
,
00000000
00010000
00100000
00010000
,
01003000
00000000
00010000
01000000
00100000
00000000
10000000
00010000
,
00000000
00010000
00100000
00001000
00000000
00001000
00010000
00000100
,
00000000
00001100
00000000
00000101
00000000
00000010
00001000
00000100
,
00000000
00000100
00010000
00001000
00000000
00001000
00100000
00010000
,
00000000
01010000
00000000
10100000
00000000
00100000
01000000
00000000
,
10000000
00100000
10000000
00100000
01000000
00010000
10000000
00100000
,
00000000
01000000
00000000
00010000
00000000
00100000
00001000
00010000
,
00000000
00011000
00010000
00010100
,
00000100
00001100
00001000
00001001
,
00000001
00000010
00000001
00000100
00000001
00001000
00000010
00002000
,
00000000
00000000
00003100
00010000
00000000
00010000
00002000
00000000
,
00100000
00000000
00010000
00000000
,
01003000
00000000
00010000
00000000
10000000
00100000
10000000
00000000
,
00010000
00100000
00010000
00000000
01000000
00010000
01000000
00000000
,
00001000
00010000
00001000
00000000
00010000
00000100
00001000
00000200
,
00000000
00000000
00001300
00002000
00000000
00003010
00000000
00000100
,
00000000
00000001
00000000
00002002
00000000
00000000
00003003
00000000
,
00000010
00001000
00000100
00000000
00000100
00010000
00001000
00000000
,
00001000
00100000
00010000
00000000
01000000
00100000
10000000
00000000
,
00000000
00110000
00000000
00000000
00010100
00000000
00000000
00011000
;

//---------------dance-single - ----------------
#NOTES:
     dance-single:
     :
     Beginner:
     4:
     0.181996,0.273614,0.086862,0.057908,0.000000,132.000000,123.000000,9.000000,6.000000,0.000000,0.000000,0.181996,0.273614,0.086862,0.057908,0.000000,132.000000,123.000000,9.000000,6.000000,0.000000,0.000000:
0000
0000
0000
0000
,
0000
0000
0000
0000
,
0000
0000
0000
0000
,
0000
0000
0000
0000
,
0000
0000
0000
0000
,
0000
0000
0000
0000
,
0000
0001
0000
0001
,
0000
0100
0000
0100
,
0000
1000
0000
1000
,
0000
0000
0010
0010
,
0000
0001
0000
0001
,
0000
1000
0000
1000
,
0000
0001
0000
1000
,
0000
0001
0000
1000
,
0000
0010
0000
0010
,
0000
0100
0000
0100
,
0000
0010
0000
0100
,
0000
0010
0010
0010
,
0000
1000
0000
0100
,
0000
1000
0000
0001
,
0000
1000
0000
0010
,
0000
1000
0000
0001
,
0000
0100
0000
0100
,
0000
0010
0000
0010
,
0000
0100
0000
0100
,
0000
0001
0000
0001
,
0000
1000
0000
1001
,
0000
0001
0000
0001
,
0000
1000
0000
1001
,
0000
0001
0000
0001
,
0000
0100
0100
0100
,
0000
0010
0000
0010
,
0010
0000
0100
0000
,
0000
0000
0001
0000
,
1000
0000
2002
0000
,
3003
0000
0010
0010
,
0000
1000
0000
0001
,
0000
0100
0000
0100
,
0000
0001
0000
1000
,
0000
0100
0000
0100
,
0000
1000
0000
0010
,
0000
0001
0000
0200
,
0000
0000
0000
0000
,
0300
0000
0001
0001
,
0000
1000
0000
0010
,
0000
0001
0000
0010
,
0000
1000
0000
0100
,
0000
0001
0000
0100
,
0000
0010
0000
0001
,
0000
0100
0000
2002
,
0000
0000
0000
0000
,
3003
0000
0001
0000
,
1000
0000
0001
0000
,
0100
0100
0100
0000
,
1000
0000
0001
0000
,
0100
0100
0100
0000
,
0010
0010
0010
0000
,
1000
0000
0001
0000
,
0020
0000
0000
0000
,
0000
0000
0030
0000
,
0100
0100
0100
0000
,
0001
0000
1000
0000
,
0010
0000
0000
0000
,
0000
0000
0000
0000
,
0000
0100
0000
0100
,
0000
0010
0000
0001
,
0000
1000
0000
1001
,
0000
0001
0000
1001
,
0000
0100
0000
0110
,
0000
0010
0000
0110
,
0000
0000
0000
0000
0000
0000
0000
1001
;

//---------------dance-single - ----------------
#NOTES:
     dance-single:
     :
     Easy:
     6:
     0.308842,0.376220,0.202677,0.443960,0.000000,224.000000,203.000000,21.000000,46.000000,0.000000,0.000000,0.308842,0.376220,0.202677,0.443960,0.000000,224.000000,203.000000,21.000000,46.000000,0.000000,0.000000:
0000
0000
0000
0000
,
0000
0000
0000
0000
,
0000
0000
0000
0000
,
0000
0000
0000
0000
,
0000
0000
0000
0000
,
0000
0000
0000
0000
,
1000
0001
0100
0001
,
1000
0010
1000
0100
,
1000
0100
0010
0001
,
1001
0000
0000
0010
0000
0000
0010
0000
,
0000
0001
1000
0001
,
0000
1000
0001
1000
,
0010
0100
0020
0030
,
0100
0010
0200
0300
,
0001
0010
0100
1000
,
0100
0010
0001
2002
,
0000
3003
1000
0100
,
0010
0001
0100
0010
,
1000
1000
0001
0100
,
0001
0001
1000
0100
,
0100
1000
0020
0030
,
0100
0001
0010
0010
,
1000
0001
0100
0000
,
0001
1000
0010
0020
,
0000
1000
0000
0130
,
0000
1000
0001
0010
,
0020
0030
0200
0300
,
2002
3003
1000
0001
,
0200
0300
0020
0030
,
2002
3003
0010
0100
,
0001
0010
0100
1000
,
0100
0010
0001
0100
,
2002
3003
0220
0330
,
2002
3003
0001
0100
,
1000
0010
0001
0100
,
2002
3003
0010
0010
,
0001
1000
0100
0001
,
0200
0300
0020
0030
,
0001
1000
0010
0001
,
2000
3000
0200
0300
,
0001
1000
0001
0100
,
0010
0001
1000
0200
,
0000
0010
0000
0010
,
0000
0310
1001
1001
,
0001
1000
0001
1000
,
0020
0100
0200
0330
,
0001
0100
1000
0100
,
0002
0010
0013
0001
,
2002
3003
0001
1000
,
0020
0030
1000
0002
,
2000
0000
0000
3003
,
0001
1000
0001
1000
,
0020
0030
0200
0300
,
0001
0100
1001
0000
,
1000
0000
0100
0000
,
1000
0100
1001
0000
,
0010
0100
0010
0100
,
1001
0000
1001
0000
,
0020
0100
0000
0100
,
0000
0100
0030
1001
,
0100
0100
0100
1001
,
0000
0001
0000
1000
,
0020
0030
2000
3000
,
0200
0300
0002
0003
,
0010
0001
0100
1000
,
0010
1000
0100
0001
,
0020
0030
0200
0300
,
0002
0003
2000
3000
,
0010
1000
0001
1000
,
0001
0100
0010
1001
,
0000
1001
0000
0000
0110
0000
0000
1001
;

//---------------dance-double - ----------------
#NOTES:
     dance-double:
     :
     Easy:
     6:
     0.303327,0.376220,0.125467,0.376401,0.000000,220.000000,207.000000,13.000000,39.000000,0.000000,0.000000,0.303327,0.376220,0.125467,0.376401,0.000000,220.000000,207.000000,13.000000,39.000000,0.000000,0.000000:
00000000
00000000
00000000
00000000
,
00000000
00000000
00000000
00000000
,
00000000
00000000
00000000
00000000
,
00000000
00000000
00000000
00000000
,
00000000
00000000
00000000
00000000
,
00000000
00000000
00000000
00000000
,
00100000
00010000
01000000
00010000
,
00100000
00001000
00010000
00000010
,
00001000
00000100
00000010
00000001
,
00001001
00000000
00000220
00000330
,
00000010
00001000
00000100
00010000
,
00001000
01000000
00010000
10000000
,
00100000
01000000
02000000
03000000
,
00010000
10000000
20000000
30000000
,
00010000
00100000
00001000
00010000
,
00000100
00010000
00001000
00200000
,
00000000
00000000
00300000
00000000
,
10000000
00100000
01000000
00010000
,
01000000
00001000
00010000
00000010
,
00001000
00000010
00001000
00000100
,
00001000
00000001
00002000
00000000
,
00003100
00010000
00002000
00000000
,
00103000
00010000
10000000
01000000
,
00010000
00100000
00001000
00020000
,
00000000
00001000
00000000
00031000
,
00010000
00000100
00001000
00000001
,
00002000
00003000
00000020
00000030
,
00000002
00000003
00000100
00010000
,
00002000
00003000
00200000
00300000
,
00020000
00030000
10000000
01000000
,
00010000
00010000
01000000
10000000
,
00100000
01000000
00010000
00001000
,
00020000
00030000
00002000
00003000
,
00020000
00030000
00000010
00000100
,
00000001
00000010
00000100
00001000
,
00011000
00000000
00011000
00011000
,
00100000
00010000
01000000
10000000
,
00200000
00300000
02000000
03000000
,
00010000
00100000
00001000
00010000
,
00000020
00000030
00000200
00000300
,
00000001
00000100
00001000
00010000
,
00100000
00010000
00001000
00022000
,
00000000
00000000
00000000
00033000
,
00010000
00000100
00000010
00000001
,
00000100
00000010
00001000
00000100
,
00020000
00030000
00002000
00003000
,
01000000
00010000
10000000
00100000
,
02000000
03000000
00020000
00030000
,
00200000
00300000
00001000
00010000
,
00000020
00000030
00001000
00000100
,
00002002
00000000
00000000
00000000
,
00003003
00000010
00001000
00000100
,
00010000
00010000
00001000
00001000
,
01000000
00010000
10010000
00000000
,
10000000
00100000
01000000
00001000
,
00010000
00010000
00011000
00000000
,
00010000
00000100
00001000
00000010
,
00000001
00000100
00001000
00022000
,
00000000
00000000
00000000
00033000
,
00100000
00010000
01000000
00100000
,
10000000
01000000
00100000
00001000
,
00020000
00030000
00002000
00003000
,
00010000
00000100
00001000
00000001
,
00001000
00000010
00001000
00000100
,
00010000
00001000
01000000
00001000
,
00100000
00010000
01000000
00100000
,
20000000
30000000
00020000
00030000
,
00200000
00300000
00002000
00003000
,
00010000
00000100
00001000
00000010
,
00000100
00000001
00001000
00000100
,
00000000
00011000
00000000
00000000
00011000
00000000
00000000
00011000
;

//---------------dance-double - ----------------
#NOTES:
     dance-double:
     :
     Medium:
     8:
     0.424657,0.478825,0.193026,0.164072,0.000000,308.000000,288.000000,20.000000,17.000000,0.000000,0.000000,0.424657,0.478825,0.193026,0.164072,0.000000,308.000000,288.000000,20.000000,17.000000,0.000000,0.000000:
00000000
00000000
00000000
00000000
,
00000000
00000000
00000000
00000000
,
00000000
00000000
00000000
00000000
,
00000000
00000000
00000000
00000000
,
00000000
00000000
00000000
00000000
,
00000000
00000000
00000000
00000000
,
01000000
10000000
00010000
00100000
,
00001000
00010000
00000010
00001000
,
00000001
00000100
00000001
00000000
00001000
00000100
00001000
00000100
,
00000000
00000000
00000000
00001100
00000000
00000000
00000011
00000000
,
00000000
00000100
00000010
00001000
,
00000100
00010000
00001000
01000000
,
00010000
10000000
00020000
00030000
,
00100000
01000000
00200000
00300000
,
10000000
00100000
01000000
00001000
,
00010000
00000010
00001000
00000001
,
00000100
00001000
00010000
00100000
,
00010000
10000000
00010000
10000000
00010000
00000000
01000000
00000000
,
10000000
00010000
00100000
10010000
,
00100000
00010000
00001000
00011000
,
00010000
00000010
00001000
00000100
,
00000010
00000000
00000001
00000000
00000100
00000010
00001000
00000000
,
00000100
00000000
00001000
00000000
00000010
00001000
00000010
00000000
,
00001000
00000000
00000100
00000000
00010000
00001000
00010000
00000000
,
00001000
00100000
00010000
01000000
,
00100000
10000000
00100000
00000000
01000000
00000000
10010000
00000000
,
00100000
00000000
00001000
00010000
00001000
00000000
00010000
00000000
,
00000100
00000000
00001000
00000000
00000001
00001000
00000001
00000000
,
00001000
00000000
00000100
00010000
00000100
00000000
00010000
00000000
,
00001000
00000000
00100000
00000000
00010000
01000000
00100000
01000000
,
00010000
10000000
01000000
00100000
,
00001000
00010000
00000010
00000100
,
00000002
00000000
00000000
00001003
00002000
00000000
00000000
00000000
,
00003010
00001000
00000100
00010000
,
00001000
00010000
00001000
00000000
00010000
00001000
00010000
00001000
,
00010000
00000000
00101000
00010100
,
00010000
00001000
00010000
00000000
00001000
00000000
00100000
00000000
,
00010000
00000000
01000000
00100000
01000000
00000000
00010000
00000000
,
00100000
00001000
00100000
00000000
00001000
00000000
00010000
00000000
,
00000010
00000000
00001000
00000100
00000010
00000000
00000001
00000000
,
00000100
00000000
00000010
00000000
00001000
00000000
00000100
00010000
,
00000100
00010000
00001000
00200000
,
00010000
00010000
00010000
00320000
,
01000000
01030000
01100000
10010000
,
00100000
10000000
00200000
00000000
01300000
00010000
02000000
00000000
,
03100000
10000000
00010000
00100000
,
00001000
00010000
00002000
00000000
00013000
00001000
00020000
00000000
,
00030100
00000000
00001000
00000000
00000010
00000100
00000001
00000000
,
00002000
00003010
00000101
00001010
,
00000200
00010300
00011000
00101000
,
00100000
00110000
10000000
11000000
,
00010000
00000000
01010000
00000000
00100000
10000000
00100000
00000000
,
02000000
00010000
00010000
03001000
,
00020000
00001000
00001000
00030100
,
00002000
00000001
00000001
00003010
,
00020000
00000100
00001000
00031000
,
00001000
00000000
00100000
00000000
00010000
01000000
00010000
01000000
,
00000000
00100000
10000000
00100000
00000000
01000000
00010000
00000000
,
10000000
00100000
01000000
00001000
,
00010000
00000010
00001000
00000001
,
00001000
00000100
00001000
00000000
00000100
00000000
00010000
00001000
,
00000000
00010000
00000000
00011000
00000000
00000000
00001000
00000000
,
00100000
00000000
00010000
00000000
01000000
00000000
00100000
10000000
,
00100000
00000000
01000000
00000000
00010000
00000000
00100000
00001000
,
00100000
00001000
00010000
00000010
,
00001000
00000000
00000001
00000000
00000100
00000010
00000100
00000010
,
00000000
00001000
00000100
00001000
00000000
00000100
00010000
00000100
,
00000000
00010000
00000000
00002000
00000000
00000000
00000000
00000000
,
00103000
00010000
01000000
10000000
,
00100000
00001000
00010000
00000010
,
00000000
00001010
00000000
00000000
00101000
00000000
00000000
00011000
;

//---------------dance-single - ----------------
#NOTES:
     dance-single:
     :
     Medium:
     8:
     0.430172,0.478825,0.347447,0.357098,0.000000,312.000000,276.000000,36.000000,37.000000,0.000000,0.000000,0.430172,0.478825,0.347447,0.357098,0.000000,312.000000,276.000000,36.000000,37.000000,0.000000,0.000000:
// measure 0
0000
0000
0000
0000
,  // measure 1
0000
0000
0000
0000
,  // measure 2
0000
0000
0000
0000
,  // measure 3
0000
0000
0000
0000
,  // measure 4
0000
0000
0000
0000
,  // measure 5
0000
0000
0000
0000
,  // measure 6
0010
1010
0100
0101
,  // measure 7
0001
1001
1000
1010
,  // measure 8
0001
0100
0001
0000
1000
0010
1000
0010
,  // measure 9
0000
0000
0000
0110
0000
0000
1001
0000
,  // measure 10
0020
0100
0100
0130
,  // measure 11
0002
1000
1000
1003
,  // measure 12
2000
0010
0010
3010
,  // measure 13
0002
0100
0100
0103
,  // measure 14
0010
1000
0010
0000
0001
0000
1000
0000
,  // measure 15
0010
0001
0010
0000
0001
0000
0100
0000
,  // measure 16
0010
1000
0010
0000
0100
0001
0100
0000
,  // measure 17
0010
0000
0100
0010
0100
0000
0010
0000
,  // measure 18
2000
0100
0100
3100
,  // measure 19
0002
0010
0010
0013
,  // measure 20
0101
1010
0202
0303
,  // measure 21
1100
0011
2200
3300
,  // measure 22
0010
0100
0010
0000
1000
0000
0001
0000
,  // measure 23
0100
0010
0100
0000
0001
0000
1000
0000
,  // measure 24
0020
0100
0100
0230
,  // measure 25
0001
0000
0001
0000
0301
1000
0001
0000
,  // measure 26
1000
0010
0100
0001
,  // measure 27
2000
0100
0100
3100
,  // measure 28
0001
0010
0001
0000
0100
0000
0010
0000
,  // measure 29
0200
0001
0001
0301
,  // measure 30
1000
0010
1000
0000
0001
0000
0101
0000
,  // measure 31
0001
0010
0001
0000
1000
0000
1100
0000
,  // measure 32
0020
0000
0000
0100
0200
0000
0330
0000
,  // measure 33
0001
0000
0001
0000
1000
0010
1000
0000
,  // measure 34
0001
0100
0001
0000
1000
0010
1000
0010
,  // measure 35
1000
0000
0110
1001
,  // measure 36
0001
0100
0001
0000
1000
0000
0100
0000
,  // measure 37
0010
0001
0220
0330
,  // measure 38
0001
0100
0001
0000
0010
0000
0100
0000
,  // measure 39
1000
0010
2002
3003
,  // measure 40
0001
0100
0001
0000
1000
0100
1000
0000
,  // measure 41
0010
0001
0100
2002
,  // measure 42
0003
0010
0000
3010
,  // measure 43
0001
0100
1010
0101
,  // measure 44
1000
0010
1000
0000
0100
0000
0010
0000
,  // measure 45
0001
0100
2002
3003
,  // measure 46
0010
0100
0010
0000
0001
0000
1000
0000
,  // measure 47
0010
0100
0220
0330
,  // measure 48
0001
1001
0001
0110
,  // measure 49
1000
0011
1000
0101
,  // measure 50
0020
0100
0100
0100
,  // measure 51
0200
0000
0330
0000
0001
1000
0001
0000
,  // measure 52
1000
0010
0100
0002
,  // measure 53
0103
0010
2000
3100
,  // measure 54
0010
0101
0010
1100
,  // measure 55
0010
0110
2002
3003
,  // measure 56
0001
0100
0001
0000
1000
0100
1000
0100
,  // measure 57
0000
0010
0001
0010
0000
0001
0200
0000
,  // measure 58
0010
0010
0010
0320
,  // measure 59
1000
1000
1000
0030
,  // measure 60
0001
0100
0001
0000
1000
0010
1000
0010
,  // measure 61
0000
0100
0010
0100
0000
0000
2002
0000
,  // measure 62
0000
0000
0000
3003
,  // measure 63
0010
0100
0001
1000
,  // measure 64
0001
0100
0001
0000
1000
0100
1000
0000
,  // measure 65
0010
0100
1000
0101
,  // measure 66
1000
0000
0010
0100
0000
0010
0100
0010
,  // measure 67
0000
1000
0000
0002
0000
0000
0000
0000
,  // measure 68
1003
0100
0010
0001
,  // measure 69
0100
0010
0100
0000
0001
1000
0001
0000
,  // measure 70
0000
1100
0000
0000
0011
0000
0000
1001
;
