#TITLE:Bitch Lasagna;
#SUBTITLE:;
#ARTIST:Party In Backyard & PewDiePie;
#TITLETRANSLIT:;
#SUBTITLETRANSLIT:;
#ARTISTTRANSLIT:;
#GENRE:;
#CREDIT:;
#BANNER:Bitch Lasagna.png;
#BACKGROUND:Bitch Lasagna-bg.png;
#LYRICSPATH:;
#CDTITLE:;
#MUSIC:Bitch Lasagna.ogg;
#OFFSET:0.010000;
#SAMPLESTART:38.360058;
#SAMPLELENGTH:13.499996;
#SELECTABLE:YES;
#BPMS:0.000000=150.000000
;
#STOPS:
;
#BGCHANGES:0.000=Bitch Lasagna.avi=1.000=0=0=0=StretchNoLoop====,
99999=-nosongbg-=1.000=0=0=0 // don't automatically add -songbackground-
;
#KEYSOUNDS:;
#ATTACKS:;

//---------------dance-single - ----------------
#NOTES:
     dance-single:
     :
     Hard:
     11:
     0.612260,0.617708,0.678716,0.022878,0.122016,562.000000,473.000000,89.000000,3.000000,0.000000,0.000000,0.612260,0.617708,0.678716,0.022878,0.122016,562.000000,473.000000,89.000000,3.000000,0.000000,0.000000:
0000
0000
0000
0000
,
0000
0000
0000
0000
,
0000
0000
0000
0000
,
0000
0000
0000
0000
,
0000
0000
0000
0000
,
0000
0000
0000
0000
,
0000
0000
0000
0000
,
0000
0000
0000
0000
,
1010
0000
0100
0001
1000
0000
0010
1000
,
0100
0010
0001
0100
0010
0000
1000
0001
,
1001
0000
1100
0000
0001
0100
0001
1000
,
0010
0010
1000
0100
0001
0100
1000
0000
,
0001
0010
1000
0010
0001
0100
1000
0100
,
0001
1000
0100
0001
0100
0000
0010
1000
,
0010
0001
0010
0100
1000
0000
1000
0010
,
1000
0100
0010
0001
1000
0000
0100
0010
,
1000
0100
1000
0001
0100
0001
1000
0010
,
0001
0010
1000
0100
1001
0000
0001
0010
,
0001
1000
0100
0010
0011
0000
1000
0010
,
0100
0001
1001
1001
1000
0100
0010
0001
,
1001
0000
0001
0010
0011
0000
1100
0000
,
0001
0010
0100
1000
0010
0100
0010
1000
,
0101
0000
1001
0000
0010
1000
0100
0010
,
0001
0100
0010
1000
1010
0000
0101
0000
,
1001
0000
0001
1000
1100
0000
0011
0000
,
1001
0000
1000
0001
0011
0000
1001
0000
,
0001
0100
1000
0100
0010
1000
0100
0010
,
0001
0000
1000
0010
1001
0000
1100
0000
,
0011
0000
0100
0010
1010
0000
0101
0000
,
1001
0000
0010
0001
0101
0000
1010
0000
,
0001
0010
0200
0000
0301
0010
0100
1000
,
0100
0010
0001
1000
1010
0000
0101
0000
,
1001
0000
0010
0100
0011
0000
1010
0000
,
1001
0000
0100
0010
1100
0000
0011
0000
,
1000
0100
0001
0100
0010
0001
1000
0010
,
0001
0000
1000
0001
0110
0000
1001
0000
,
1100
0000
0001
0010
1100
0000
0101
0000
,
1010
0000
0100
0010
1001
0000
1100
0000
,
0001
0010
0001
0000
1001
0000
1000
0100
,
0010
0001
0010
0100
1000
0000
0011
0001
,
0100
0010
0100
0010
1001
0000
1000
0100
,
0010
0001
0100
0010
1010
0010
0100
0000
,
0001
0001
1000
0010
0100
0100
0010
1000
,
0100
0010
0001
0100
0010
1000
0001
0000
,
1000
0010
0001
0010
0100
1000
0100
0001
,
1000
0100
0001
0100
1000
0010
0001
0000
,
0010
0100
1000
0100
0010
1000
0100
0010
,
0001
0010
0100
1000
0001
1000
1001
0000
,
0001
1000
0100
0010
0001
0100
0110
0100
,
0001
0010
0100
1000
0001
0100
1100
0100
,
0001
1000
0100
0010
0001
1000
0100
1000
,
0001
0010
0100
1000
0010
0100
0101
0000
,
1000
0000
0010
1000
0000
0000
0000
0000
0001
0000
0100
0001
0000
0000
0000
0000
,
1000
0000
0001
1000
0000
0000
0000
0000
0110
0000
0110
0000
0000
0000
1000
0000
,
0100
0010
0001
0010
0100
0010
0001
1000
,
0100
0001
0100
1000
0010
0100
0001
1000
,
1100
0000
0010
0001
0101
0000
1010
0000
,
0011
0000
0100
0010
1010
0000
0101
0000
,
1000
0100
0010
0000
1000
0100
0010
0001
,
0010
0100
1000
0001
0100
0000
0110
0000
,
1001
0000
1000
0010
0101
0000
1100
0000
,
0011
0000
0100
0010
1001
0000
0101
0000
,
0010
0001
0010
0001
1000
0100
0010
0001
,
1001
0000
0001
0100
0110
0000
0101
0000
,
1010
0000
0001
0100
1100
0000
0011
0000
,
1010
0000
0001
0010
0101
0000
1010
0000
,
0001
0100
0010
0000
1000
0100
0010
0001
,
1000
0001
1000
0100
1001
0000
1100
0000
,
0011
0000
0100
0010
1001
0000
1100
0000
,
0011
0000
0010
0100
0011
0000
1010
0000
,
0001
0100
0010
0100
0001
1000
0100
0010
,
0001
0000
0000
1000
1001
0000
0110
0000
,
1000
0100
0000
0000
0100
0010
0000
0000
0010
0001
0000
0000
1000
0010
0000
0000
,
0010
0100
0000
0000
0100
0001
0000
0000
0001
1000
0000
0000
1000
0001
0000
0000
,
0010
0100
0000
0000
0100
0001
0000
0000
0001
1000
0000
0000
0010
1000
0000
0000
,
1000
0001
0000
0000
0001
0100
0000
0000
0110
0000
0000
0000
1001
0000
0000
0000
,
1000
0010
0000
0000
0010
1000
0000
0000
1000
0001
0000
0000
0100
0010
0000
0000
,
0010
0100
0000
0000
0100
0001
0000
0000
1000
0100
0000
0000
0010
0001
0000
0000
,
1000
0010
0000
0000
0010
1000
0000
0000
0001
0100
0000
0000
0100
0001
0000
0000
,
0010
0100
0000
0000
0001
0100
0000
0000
1010
0000
0000
0000
0010
0000
0000
0000
,
2000
0000
0000
0000
0000
0002
0000
0000
0000
0000
0000
0000
0000
0000
0000
0000
,
3003
0000
0000
0000
;

//---------------dance-double - ----------------
#NOTES:
     dance-double:
     :
     Hard:
     11:
     0.573041,0.555937,0.640586,0.015252,0.015252,526.000000,442.000000,84.000000,2.000000,0.000000,0.000000,0.573041,0.555937,0.640586,0.015252,0.015252,526.000000,442.000000,84.000000,2.000000,0.000000,0.000000:
00000000
00000000
00000000
00000000
,
00000000
00000000
00000000
00000000
,
00000000
00000000
00000000
00000000
,
00000000
00000000
00000000
00000000
,
00000000
00000000
00000000
00000000
,
00000000
00000000
00000000
00000000
,
00000000
00000000
00000000
00000000
,
00000000
00000000
00000000
00000000
,
10100000
00000000
01000000
00100000
00010000
00000000
00100000
00001000
,
00010000
00001000
00010000
00000010
00000100
00000000
00000001
00000010
,
00000100
00000000
00001001
00000000
00000010
00001000
00000100
00001000
,
00000100
00010000
00001000
01000000
00010000
01000000
00100000
00000000
,
00000000
10000000
01000000
00100000
00010000
00100000
01000000
10000000
,
00100000
00010000
00100000
10000000
00100000
00000000
00100000
01000000
,
00010000
00100000
00010000
00100000
00001000
00000000
00001000
00010000
,
00000100
00001000
00000010
00000100
00000001
00000000
00000001
00000010
,
00000001
00001000
00000100
00001000
00000001
00000100
00001000
00000100
,
00000001
00001000
00000100
00010000
00001000
00000000
00100000
00010000
,
01000000
00100000
10000000
01000000
00100000
00000000
01000000
00010000
,
00100000
00001000
00011000
00011000
00010000
00000010
00001000
00000001
,
00000100
00000000
00001000
00000010
00000100
00000000
00000110
00000000
,
00001000
00000001
00001000
00000100
00010000
00001000
01000000
00010000
,
10000000
00000000
10010000
00000000
01100000
00000000
10000000
01000000
,
00100000
00010000
00100000
00001000
00010000
00000000
00011000
00000000
,
00001010
00000000
00001000
00000100
00000001
00000000
00001100
00000000
,
00011000
00000000
00001000
00100000
00010000
00000000
10010000
00000000
,
10000000
01000000
00100000
00010000
01000000
00001000
00010000
00000100
,
00001000
00000000
00000001
00000010
00000100
00000000
00001010
00000000
,
00011000
00000000
00001000
01000000
00010000
00000000
00110000
00000000
,
00011000
00000000
00010000
00000100
00001000
00000000
00000010
00000000
,
00000100
00000001
00001000
00000000
00000100
00010000
00001000
00010000
,
00000100
00010000
00001000
01000000
00010000
00000000
10010000
00000000
,
11000000
00000000
00100000
00001000
00010000
00000000
00011000
00000000
,
00001010
00000000
00000010
00000100
00000001
00000000
00000101
00000000
,
00001000
00000100
00000010
00000001
00000010
00000100
00001000
00000100
,
00010000
00000000
00001000
00010000
00011000
00000000
00101000
00000000
,
01010000
00000000
00010000
00100000
01000000
00000000
10100000
00000000
,
01010000
00000000
00100000
00001000
00010000
00000000
00010100
00000000
,
00010000
00000100
00001000
00000000
00000010
00000000
00000100
00000001
,
00000010
00000100
00001000
00000010
00000100
00000000
00001001
00000000
,
00000001
00000010
00000100
00001000
00000100
00000000
00010000
00001000
,
00100000
00010000
10000000
01000000
00100000
00010000
01000000
00000000
,
00001000
00010000
00000100
00001000
00000001
00001000
00000100
00000010
,
00000001
00001000
00000100
00010000
00001000
01000000
00100000
00000000
,
10000000
00100000
00010000
00100000
01000000
00010000
00100000
01000000
,
00100000
10000000
00100000
01000000
00100000
00010000
01000000
00000000
,
00100000
10000000
01000000
00100000
00010000
00100000
00001000
00010000
,
00000010
00001000
00000100
00000001
00000100
00001000
00000010
00000000
,
00001000
00000001
00000100
00000010
00001000
00000100
00001100
00000100
,
00010000
00001000
00100000
00010000
01000000
00100000
10000000
00010000
,
10000000
00010000
00100000
00001000
00010000
00001000
00010000
00000010
,
00001000
00000010
00000100
00000010
00001000
00000001
00001001
00000000
,
00000001
00000000
00000001
00000010
00000000
00000000
00000000
00000000
00000100
00000000
00000100
00001000
00000000
00000000
00000000
00000000
,
00001000
00000000
00001000
00000100
00000000
00000000
00000000
00000000
00010000
00000000
00001000
00000000
00000000
00000000
00010000
00000000
,
00001000
01000000
00001000
00100000
00001000
00100000
00010000
10000000
,
01000000
00100000
00010000
01000000
00100000
01000000
00100000
10000000
,
00010000
00000000
00100000
00001000
00011000
00000000
00011000
00000000
,
00010100
00000000
00001000
00000100
00000110
00000000
00000110
00000000
,
00000001
00000100
00000010
00000100
00000001
00001000
00000100
00000010
,
00000001
00001000
00000001
00001000
00001010
00000000
00000101
00000000
,
00001100
00000000
00000100
00010000
00001000
00000000
00011000
00000000
,
01001000
00000000
00010000
01000000
00100000
00000000
10100000
00000000
,
10000000
01000000
00100000
00010000
00100000
01000000
10000000
00100000
,
01000000
00000000
00010000
00100000
00110000
00000000
00101000
00000000
,
00011000
00000000
00010000
00000100
00001000
00000000
00001001
00000000
,
00000101
00000000
00000001
00000010
00000100
00000000
00001100
00000000
,
00000100
00010000
00001000
00010000
00000100
00010000
00001000
01000000
,
00010000
00000000
10000000
01000000
00100000
00000000
01010000
00000000
,
10010000
00000000
00100000
00001000
00010000
00000000
00011000
00000000
,
00010010
00000000
00000010
00001000
00000100
00000000
00000011
00000000
,
00000001
00000100
00000010
00001000
00000100
00000000
00010000
00001000
,
01000000
00000000
00000000
00010000
10000000
00000000
10010000
00000000
,
11000000
00110000
00101000
00011000
,
00010010
00001010
00000101
00001100
,
00001010
00011000
00101000
01010000
,
10010000
11000000
00110000
00101000
,
00010100
00001001
00001010
00011000
,
01001000
01010000
01100000
00101000
,
00011000
00001010
00000110
00000101
,
00001100
00010100
00001010
00010000
,
00002000
00000000
00000000
00000000
00000000
00020000
00000000
00000000
00000000
00000000
00000000
00000000
00000000
00000000
00000000
00000000
,
00033000
00000000
00000000
00000000
;

//---------------dance-double - ----------------
#NOTES:
     dance-double:
     :
     Medium:
     8:
     0.410716,0.432395,0.640586,0.061008,0.000000,377.000000,293.000000,84.000000,8.000000,0.000000,0.000000,0.410716,0.432395,0.640586,0.061008,0.000000,377.000000,293.000000,84.000000,8.000000,0.000000,0.000000:
00000000
00000000
00000000
00000000
,
00000000
00000000
00000000
00000000
,
00000000
00000000
00000000
00000000
,
00000000
00000000
00000000
00000000
,
00000000
00000000
00000000
00000000
,
00000000
00000000
00000000
00000000
,
00000000
00000000
00000000
00000000
,
00000000
00000000
00000000
00000000
,
00100000
00000000
00010000
01000000
00010000
00000000
01000000
00000000
,
00001000
00000000
00010000
00000000
00000010
00000000
00001000
00000100
,
00001000
00000000
00000001
00000000
00000100
00000010
00000100
00000000
,
00000001
00001000
00000100
00010000
,
00001000
00000000
01000000
00010000
01000000
00000000
00100000
00000000
,
10000000
01000000
10000000
01000000
10000000
00000000
00100000
00000000
,
01000000
00001000
00010000
00000010
,
00001000
00000000
00000100
00000000
00000011
00000000
00000001
00000100
,
00000001
00001000
00000100
00010000
,
00001000
00100000
00001000
00100000
00010000
00000000
01000000
00000000
,
00100000
10000000
00100000
10000000
00100000
00000000
01000000
00000000
,
00010000
00000000
00100000
00100000
00100000
00000000
01000000
00000000
,
00010000
00000000
00100000
00001000
,
00010000
00001000
00010000
00000000
00000010
00000000
00001000
00000000
,
00000101
00000000
00001001
00000000
00000010
00000000
00001000
00000100
,
00001000
00000100
00010000
00011000
,
00101000
00000000
00110000
01010000
,
10010000
00000000
01010000
00110000
,
01000000
00001000
00010000
00000010
,
00001010
00000000
00001001
00001100
,
00001010
00000000
00000101
00001001
,
00001100
00000000
00010100
00011000
,
00001000
00000000
00100000
00000000
00010000
01000000
00010000
01000000
,
00010000
00100000
10010000
11000000
,
00110000
00000000
00110000
01010000
,
10010000
00000000
10100000
10010000
,
00100000
00001000
00010000
00000010
,
00001010
00000000
00001001
00000101
,
00001100
00000000
00001001
00001100
,
00000101
00000000
00001010
00001100
,
00000100
00010000
00000100
00000000
00010000
00000000
00001000
00000000
,
01000000
00010000
01000000
00000000
00100000
00000000
10000000
00000000
,
00010000
00100000
10010000
10000000
,
01000000
00100000
00010000
00000000
,
00010000
00000100
00001000
00000010
,
00000100
00000001
00000100
00000001
00000100
00000000
00000000
00000000
,
00000001
00000010
00001000
00000100
,
00001000
00000010
00001000
00000010
00001000
00000000
00000100
00000000
,
00010000
00001000
00010000
00001000
00010000
00000000
00001000
00000000
,
01000000
00100000
01000000
00100000
01000000
00000000
00010000
00000000
,
10000000
01100000
00010000
01100000
,
10000000
01000000
10000000
00000000
00010000
00000000
00100000
00000000
,
00001000
00010000
00001000
00000000
00010000
00000000
00000010
00000000
,
00001000
00000100
00001000
00000000
00000001
00000000
00000100
00000000
,
00002002
00003003
00022000
00033000
,
20020000
00000000
30030000
00000000
00100000
00100000
00000000
00000000
,
10000000
01000000
00100000
00010000
,
01000000
00100000
10010000
00000000
,
00110000
00000000
00011000
00010100
,
00010010
00000000
00001001
00001010
,
00001000
00000100
00001000
00000000
00000001
00000000
00001000
00000000
,
00000100
00010000
00011000
00101000
,
01001000
00000000
01010000
10010000
,
00110000
00000000
01010000
10010000
,
10000000
00010000
10000000
00000000
00100000
00000000
01000000
00000000
,
00001000
00000000
00011000
00010100
,
00010010
00000000
00001100
00001010
,
00001001
00000000
00010100
00011000
,
00000100
00000000
00010000
00000000
00001000
00100000
00001000
00000000
,
00100000
00010000
01010000
10010000
,
00110000
00000000
01100000
10010000
,
01100000
00000000
11000000
01100000
,
00110000
00100000
00001000
00010000
,
00000100
00000000
00001010
00001001
,
00000001
00000100
00001000
00010000
,
01000000
10000000
10010000
10000000
,
00100000
00010000
00001000
00000010
,
00000001
00000100
00001001
00000100
,
00010000
00011000
00101000
01001000
,
00010000
00100000
01000000
10000000
,
00100000
01100000
01010000
01000000
,
00001000
00010000
00000100
00000000
,
00022000
00000000
00000000
00000000
,
00033000
00000000
00000000
00000000
;

//---------------dance-double - ----------------
#NOTES:
     dance-double:
     :
     Easy:
     6:
     0.283252,0.339739,0.282163,0.015252,0.000000,260.000000,223.000000,37.000000,2.000000,0.000000,0.000000,0.283252,0.339739,0.282163,0.015252,0.000000,260.000000,223.000000,37.000000,2.000000,0.000000,0.000000:
00000000
00000000
00000000
00000000
,
00000000
00000000
00000000
00000000
,
00000000
00000000
00000000
00000000
,
00000000
00000000
00000000
00000000
,
00000000
00000000
00000000
00000000
,
00000000
00000000
00000000
00000000
,
00000000
00000000
00000000
00000000
,
00000000
00000000
00000000
00000000
,
10000000
00100000
01000000
00000000
,
00001000
00010000
00000010
00000000
,
00001000
00000100
00000001
00000100
,
00001000
00000010
00000010
00000000
,
00001000
00000100
00010000
00000000
,
00001000
01000000
00010000
00000000
,
10000000
01000000
00100000
00000000
,
00100000
00001000
00010000
00000000
,
00000010
00000010
00001000
00000100
,
00000001
00000100
00001000
00000000
,
00000010
00000010
00010000
00000000
,
00001000
01000000
01000000
00100000
,
10010000
00000000
10000000
01000000
,
00100000
00010000
00100000
00001000
,
00010000
00000000
00000010
00001000
,
00000100
00000010
00000001
00000000
,
00001001
00000000
00000110
00000000
,
00001001
00000000
00000110
00000000
,
00000001
00000010
00000100
00001000
,
00001001
00000000
00000100
00000000
,
00011000
00000000
00010000
00000000
,
00011000
00000000
00001000
00000000
,
00100000
00010000
01000000
00100000
,
10000000
01000000
00100000
00010000
,
10010000
00000000
01100000
00000000
,
10010000
00000000
01100000
00000000
,
10000000
00010000
00100000
00001000
,
00011000
00000000
00010000
00000000
,
00011000
00000000
00001000
00000000
,
00011000
00000000
01000000
00000000
,
00010000
00100000
01000000
10000000
,
00100000
01000000
00010000
00010000
,
00100000
00000000
00001000
00000000
,
00010000
00000010
00001000
00000000
,
00000001
00000100
00000010
00001000
,
00000100
00000100
00000100
00000000
,
00010000
00001000
01000000
01000000
,
00010000
00100000
01000000
10000000
,
01000000
00100000
00010000
00100000
,
00001000
00001000
00010000
00000000
,
00010000
00000010
00001000
00001000
,
00000001
00000100
00000010
00000010
,
00001000
00000100
00010000
00010000
,
00001000
01000000
00100000
00000000
,
10010000
00000000
00100000
00000000
,
01000000
00000000
10010000
00000000
,
10000000
00100000
00010000
00000000
,
01000000
00001000
00010000
00000000
,
00011000
00000000
00011000
00000000
,
00011000
00000000
00011000
00000000
,
00010000
00100000
01000000
10000000
,
00100000
00100000
01000000
00000000
,
10010000
00000000
01100000
00000000
,
10010000
00000000
01100000
00000000
,
10000000
01000000
00100000
00001000
,
00010000
00000000
00011000
00000000
,
00010010
00000000
00011000
00000000
,
00010010
00000000
00011000
00000000
,
00000010
00001000
00000100
00000010
,
00000001
00000100
00000010
00001001
,
00000110
00000000
00001001
00000000
,
00000110
00000000
00001001
00000000
,
00000001
00001000
00000100
00010000
,
00001000
00000000
00011000
00000000
,
00100000
00100000
00010000
01000000
,
01000000
01000000
00100000
10000000
,
01000000
01000000
01000000
00100000
,
00001000
00001000
00001000
00010000
,
00000010
00000010
00001000
00000100
,
00000010
00000010
00000001
00000100
,
00000010
00000010
00010000
00001000
,
00010000
00010000
00010000
00000000
,
00022000
00000000
00000000
00000000
,
00033000
00000000
00000000
00000000
;

//---------------dance-single - ----------------
#NOTES:
     dance-single:
     :
     Beginner:
     4:
     0.160146,0.247083,0.106764,0.015252,0.000000,147.000000,133.000000,14.000000,2.000000,0.000000,0.000000,0.160146,0.247083,0.106764,0.015252,0.000000,147.000000,133.000000,14.000000,2.000000,0.000000,0.000000:
0000
0000
0000
0000
,
0000
0000
0000
0000
,
0000
0000
0000
0000
,
0000
0000
0000
0000
,
0000
0000
0000
0000
,
0000
0000
0000
0000
,
0000
0000
0000
0000
,
0000
0000
0000
0000
,
0010
0000
0010
0000
,
0010
0100
0010
0000
,
0100
0000
0100
0000
,
0100
0010
0100
0000
,
0001
0000
1000
0000
,
0001
1000
0001
0000
,
1000
0000
0001
0000
,
1000
0001
1000
0000
,
0010
0000
0010
0000
,
1000
0000
1000
0000
,
0100
0000
0100
0000
,
0001
0000
0001
0000
,
0010
0000
0010
0000
,
0001
0000
0001
0000
,
0100
0000
0100
0000
,
0000
0000
0000
0000
,
1000
0000
1001
0000
,
0001
0000
1001
0000
,
0010
0000
0010
0000
,
0010
0000
1001
0000
,
0001
0000
1001
0000
,
1000
0000
1001
0000
,
0100
0000
0100
0000
,
0100
0000
1001
0000
,
0001
0000
1001
0000
,
1000
0000
1001
0000
,
0010
0000
0010
0000
,
0010
0000
1001
0000
,
1000
0000
1001
0000
,
0001
0000
1001
0000
,
0100
0000
0100
0000
,
0100
0000
0000
0000
,
0001
0000
0000
0000
,
1000
0000
1000
0000
,
1000
0000
0000
0000
,
0001
0000
0001
0000
,
0001
0000
0000
0000
,
0100
0000
0100
0000
,
0100
0000
0000
0000
,
0010
0000
0010
0000
,
1000
0000
1000
0000
,
0001
0000
0001
0000
,
1000
0000
0001
0000
,
1000
0000
0001
0000
,
0001
0000
1000
0000
,
0001
0000
1000
0000
,
0001
0000
0001
0000
,
0001
0000
0000
0000
,
0010
0000
0010
0000
,
0100
0000
0100
0000
,
0001
0000
1000
0000
,
0001
0000
1000
0000
,
0100
0000
0100
0000
,
0010
0000
0010
0000
,
1000
0000
0001
0000
,
1001
0000
1001
0000
,
0001
0000
1000
0000
,
0001
0000
1000
0000
,
0010
0000
0010
0000
,
0100
0000
0100
0000
,
1000
0000
0001
0000
,
1000
0000
0001
0000
,
1000
0000
1000
0000
,
0001
0000
0001
0000
,
1000
0000
0000
0000
,
0100
0000
0000
0000
,
0010
0000
0000
0000
,
0001
0000
0000
0000
,
1000
0000
0000
0000
,
0001
0000
0000
0000
,
0100
0000
0000
0000
,
0010
0000
0000
0000
,
2002
0000
0000
0000
,
3003
0000
0000
0000
;

//---------------dance-single - ----------------
#NOTES:
     dance-single:
     :
     Easy:
     6:
     0.272358,0.308854,0.190650,0.030504,0.000000,250.000000,225.000000,25.000000,4.000000,0.000000,0.000000,0.272358,0.308854,0.190650,0.030504,0.000000,250.000000,225.000000,25.000000,4.000000,0.000000,0.000000:
0000
0000
0000
0000
,
0000
0000
0000
0000
,
0000
0000
0000
0000
,
0000
0000
0000
0000
,
0000
0000
0000
0000
,
0000
0000
0000
0000
,
0000
0000
0000
0000
,
0000
0000
0000
0000
,
0001
0010
0100
1000
,
0010
0100
0010
0000
,
1000
0100
0010
0001
,
0100
0010
0100
0000
,
0001
0010
0100
1000
,
0001
1000
0001
0000
,
1000
0001
1000
0000
,
0001
1000
0001
0000
,
0010
0100
0010
1000
,
0100
0010
0001
0000
,
0100
0010
0100
0000
,
0001
1001
0001
0010
,
0100
0000
0010
0010
,
1000
0001
1000
0001
,
0100
0000
1000
0100
,
0010
0001
0100
0000
,
1001
0000
0110
0000
,
1001
0000
0110
0000
,
0010
1000
0100
0001
,
0010
0000
1001
0000
,
0100
0000
1001
0000
,
0010
0000
1001
0000
,
0100
0001
0100
1000
,
0100
0100
1001
0000
,
0001
0000
1001
0000
,
1000
0000
1001
0000
,
0010
0001
0010
1000
,
0010
0000
1001
0000
,
1000
0000
1001
0000
,
0001
0000
1001
0000
,
0100
0010
0100
0010
,
0100
0000
1001
0000
,
2002
0000
3003
0010
,
1000
0001
1000
0000
,
0010
1000
0100
0010
,
0001
0010
0100
0000
,
0001
1000
0001
0100
,
0100
0100
0100
0000
,
0010
0010
1000
0001
,
1000
0100
0010
0001
,
1000
1000
0001
0001
,
1000
0100
0010
0001
,
0001
0001
1000
1000
,
0001
0010
0100
1000
,
0001
0000
1000
0000
,
0001
0000
1000
0000
,
0001
0010
0100
1000
,
0001
0000
1001
0000
,
0010
0000
1000
0100
,
0001
0000
1000
0010
,
0001
1000
0001
1000
,
0001
0000
1000
0100
,
0001
0000
1000
0100
,
0010
0000
0100
0010
,
0001
0010
0001
0010
,
0100
0000
1001
0000
,
0001
0000
1001
0000
,
1000
0000
1001
0000
,
0010
0100
0010
0100
,
0010
0000
1001
0000
,
1000
0000
1001
0000
,
0001
0000
1001
0000
,
1000
0100
0010
0001
,
1000
0000
1001
0000
,
0010
0010
1000
1000
,
0001
0001
0001
1000
,
0010
0010
0010
1000
,
0100
0100
0100
1000
,
0100
0010
0001
0100
,
0100
0100
0001
0010
,
0100
0100
1000
0100
,
0010
0010
0001
0000
,
2002
0000
0000
0000
,
3003
0000
0000
0000
;

//---------------dance-single - ----------------
#NOTES:
     dance-single:
     :
     Medium:
     8:
     0.413984,0.463281,0.648212,0.061008,0.000000,380.000000,295.000000,85.000000,8.000000,0.000000,0.000000,0.413984,0.463281,0.648212,0.061008,0.000000,380.000000,295.000000,85.000000,8.000000,0.000000,0.000000:
0000
0000
0000
0000
,
0000
0000
0000
0000
,
0000
0000
0000
0000
,
0000
0000
0000
0000
,
0000
0000
0000
0000
,
0000
0000
0000
0000
,
0000
0000
0000
0000
,
0000
0000
0000
0000
,
0010
0000
0001
0100
0001
0000
0100
0000
,
0001
0000
1000
0000
0010
0000
1000
0100
,
1000
0000
0001
0000
0100
0010
0100
0000
,
0001
1000
0100
0001
,
1000
0000
0100
0001
0100
0000
0010
0000
,
1000
0100
1000
0100
1000
0000
0010
0000
,
0100
0001
1000
0010
,
0100
0000
0001
0000
1001
0000
1000
0010
,
1000
0001
0100
0010
,
1000
0010
1000
0010
0100
0000
0001
0000
,
1000
0010
1000
0010
0100
0000
0001
0000
,
1000
0000
0010
0010
0010
0000
0100
0000
,
0001
1000
0010
1000
,
0001
1000
0001
0000
1000
0000
0100
0000
,
0110
0000
1001
0000
0010
0000
1000
0100
,
1000
0010
1001
1001
,
0110
0000
0011
0101
,
1001
0000
0101
0011
,
0100
0010
0001
1000
,
1001
0000
0110
1001
,
1100
0000
0011
1001
,
1100
0000
0101
0101
,
1000
0000
0010
0000
0001
0100
0001
0100
,
0001
0010
1001
1100
,
0011
0000
0011
0101
,
1001
0000
1010
1001
,
0010
1000
0001
0100
,
0110
0000
1001
0101
,
0011
0000
1001
1010
,
1100
0000
0110
1001
,
1000
0001
1000
0000
0001
0000
0110
0000
,
0100
0001
0100
0000
0010
0000
1000
0000
,
0001
0010
1001
1000
,
0100
0010
0001
0000
,
0001
0010
0100
1000
,
0010
0100
0001
0100
0010
0000
0000
0000
,
0001
1000
0100
0010
,
0001
0100
0010
0100
0001
0000
1000
0000
,
0001
1000
0001
1000
0001
0000
1000
0000
,
0010
0100
0010
0100
0010
0000
1000
0000
,
0001
0110
1000
0110
,
0001
0100
0001
0000
1000
0000
0010
0000
,
1000
0001
1000
0000
0001
0000
1000
0000
,
0100
0010
0100
0000
0010
0000
0001
0000
,
2002
3003
0220
0330
,
2002
0000
3003
0000
0010
0010
0000
0000
,
1000
0100
0010
0001
,
0100
0010
1001
0000
,
0011
0000
1001
0101
,
0011
0000
1001
1010
,
1000
0100
1000
0000
0001
0000
1000
0000
,
0100
0010
0001
0010
,
0100
0000
0101
1001
,
0011
0000
0101
1001
,
1000
0001
1000
0000
0010
0000
0100
0000
,
0001
0000
1001
0101
,
0011
0000
1001
1010
,
1100
0000
0011
0101
,
0001
1000
0001
0000
1000
0001
1000
0000
,
0010
1001
1001
0100
,
0011
0000
0110
1001
,
0110
0000
1100
0110
,
0011
0010
0001
0100
,
1001
0000
0110
1001
,
1000
0100
0010
0001
,
1000
0001
1000
0001
,
0010
0001
0100
1000
,
0010
0010
1001
0100
,
0001
0011
0011
1001
,
1000
0100
0010
0001
,
0010
0110
1001
1001
,
0010
0100
1001
0000
,
2002
0000
0000
0000
,
3003
0000
0000
0000
;
