#TITLE:爆ゼニ☆がってんワーカー;
#SUBTITLE:;
#ARTIST:ARM×狐夢想 feat. ななひら;
#TITLETRANSLIT:Bakuzeni gatten worker;
#SUBTITLETRANSLIT:;
#ARTISTTRANSLIT:ARMxKomso feat. Nanahira;
#GENRE:;
#CREDIT:;
#BANNER:Bakuzeni gatten worker.png;
#BACKGROUND:Bakuzeni gatten worker-bg.png;
#LYRICSPATH:;
#CDTITLE:;
#MUSIC:Bakuzeni gatten worker.ogg;
#OFFSET:1.248000;
#SAMPLESTART:83.675079;
#SAMPLELENGTH:12.307693;
#LASTBEATHINT:0.805999;
#SELECTABLE:YES;
#BPMS:0.000000=195.000000
;
#STOPS:144.000000=2.461536
;
#BGCHANGES:;
#KEYSOUNDS:;
#ATTACKS:;

//---------------dance-single - ----------------
#NOTES:
     dance-single:
     :
     Hard:
     15:
     0.756120,1.067341,0.594516,0.346801,0.326158,641.000000,569.000000,72.000000,42.000000,0.000000,0.000000,0.756120,1.067341,0.594516,0.346801,0.326158,641.000000,569.000000,72.000000,42.000000,0.000000,0.000000:
// measure 0
0000
0000
0000
0000
,  // measure 1
0000
0000
0000
0000
,  // measure 2
0000
0000
0000
0000
,  // measure 3
0001
0000
0000
0001
1000
0000
0010
0000
1000
0000
0010
0000
,  // measure 4
0200
0000
0000
0000
,  // measure 5
0000
0310
0000
0000
,  // measure 6
0000
0000
0000
0000
,  // measure 7
2000
3002
2003
3002
,  // measure 8
2003
3002
2003
3002
,  // measure 9
2003
3200
0320
0032
,  // measure 10
2003
3200
0320
0032
,  // measure 11
0203
0000
0000
0000
,  // measure 12
0300
0000
0000
0000
,  // measure 13
1001
1000
1000
1000
0001
0001
0001
0000
,  // measure 14
0110
0010
0010
1000
0100
0010
0001
0000
,  // measure 15
1001
1000
1000
1000
0100
0010
0001
0000
,  // measure 16
0100
0000
0000
0100
0010
0000
0000
0010
1000
0000
0000
0000
1001
0000
0000
0000
,  // measure 17
0011
0010
0010
0100
1000
1000
1000
0000
,  // measure 18
1010
0010
0010
0100
0001
0001
0001
0000
,  // measure 19
2002
3003
0220
0330
,  // measure 20
1100
0110
0011
1001
,  // measure 21
1000
0100
0010
0001
0200
0000
0301
0010
,  // measure 22
0100
1000
0001
1000
0100
0010
0001
1000
,  // measure 23
0010
0010
1000
0100
0010
0010
0001
0100
,  // measure 24
0010
0010
0100
1000
0001
0000
1001
0000
,  // measure 25
0001
0100
1000
0100
0001
1000
0001
0010
,  // measure 26
1000
0010
0001
1000
0001
0100
0010
0000
,  // measure 27
2000
0001
0000
3001
0200
0000
0010
0010
,  // measure 28
0310
0000
1000
0010
0100
0001
1001
0000
,  // measure 29
0010
1000
0010
0100
0010
1000
0010
0100
,  // measure 30
0001
0010
0001
0100
0001
1000
0010
1000
,  // measure 31
0100
0010
0100
1000
0100
0010
0100
1000
,  // measure 32
0001
0100
0010
0100
0001
0100
0010
0000
,  // measure 33
1000
0000
0001
1000
0001
0000
1000
0001
1000
0000
0010
0100
0010
0000
0100
0010
,  // measure 34
0100
0000
0010
1000
0010
0000
0100
0001
0100
0000
0001
1000
0001
0000
1000
0001
,  // measure 35
0020
0000
0000
0000
,  // measure 36
0130
0000
0000
0000
,  // measure 37
0000
0000
0000
0000
,  // measure 38
0001
0000
0000
0100
0000
0000
0001
0010
0100
1000
0000
0000
,  // measure 39
0010
0000
0000
1000
0010
0100
0001
0000
0000
1000
0000
1000
,  // measure 40
0010
0000
0010
0100
0000
0000
1001
0000
0000
1000
0001
1000
,  // measure 41
0100
0000
0000
0110
0000
0000
0010
0001
0100
0010
0000
0000
,  // measure 42
1010
0000
0000
0000
0000
0000
1000
0000
0001
0000
1000
0000
0100
0000
0000
0000
0000
0000
0010
0000
0000
0001
0000
0000
,  // measure 43
1000
0100
0020
0000
0000
0000
0030
0000
,  // measure 44
1000
0100
0010
0001
,  // measure 45
1100
0011
0110
1001
,  // measure 46
0001
0010
0100
0000
1010
0000
0101
0000
,  // measure 47
0001
0000
1000
0010
1000
0000
0010
1000
0010
0000
1000
0010
1000
0000
0001
0100
,  // measure 48
0001
0000
0100
0001
0100
0000
0001
0100
0001
0000
1000
0000
0100
0000
0010
0000
,  // measure 49
0001
0000
1000
0000
0010
0000
1000
0001
0000
0001
0000
0001
1000
0000
0010
0100
,  // measure 50
0001
0000
0001
0000
1000
0000
0010
0100
0000
0100
0000
0100
0010
1000
0010
1000
,  // measure 51
0010
0000
1000
0100
0010
0000
0100
0000
1000
0000
0001
0010
0100
0000
0010
0000
,  // measure 52
0001
1000
0001
1000
0010
0100
0010
0100
0001
1000
0001
1000
0001
0010
0100
1000
,  // measure 53
0010
0000
0000
0010
0100
0000
0000
0000
0001
0000
0000
0001
1000
0000
0000
0000
,  // measure 54
0010
0000
0000
0010
1000
0000
0000
1000
0001
0000
0000
0000
1001
0000
0000
0000
,  // measure 55
0001
0000
1000
0001
2000
0000
0000
0000
3001
0000
0100
0000
0010
0000
0000
0000
,  // measure 56
0001
0000
0010
0001
0010
0000
0001
0000
1000
0000
0100
1000
0100
0000
1000
0000
,  // measure 57
0010
0000
0100
0010
0100
0000
0010
0000
1000
0000
0010
0000
0100
0000
0001
0000
,  // measure 58
1000
0000
0010
1000
0010
0000
1000
0000
0001
0000
0100
0001
0100
0000
0001
0000
,  // measure 59
1000
0000
0010
1000
0010
0000
1000
0000
0001
0000
0100
0000
0010
0000
1000
0000
,  // measure 60
0100
0000
0010
0001
0010
0000
0001
0000
1000
0000
0100
0000
0010
0000
0001
0000
,  // measure 61
2000
0001
0010
0100
,  // measure 62
0001
3010
2002
3003
,  // measure 63
0010
0100
0010
0100
0010
0000
0000
0000
,  // measure 64
1000
0001
1000
0000
0001
1000
0000
0000
,  // measure 65
0011
1100
1010
0101
,  // measure 66
1001
0000
0000
0001
0010
0100
2000
0000
0000
3001
0000
0000
,  // measure 67
0110
0000
1001
0000
0101
0101
0000
1100
,  // measure 68
0000
0001
0010
0100
1000
0000
0000
1001
,  // measure 69
0000
1000
0100
0010
0001
0000
1000
0001
,  // measure 70
1001
1001
0000
0011
0101
0000
1001
0000
,  // measure 71
0011
0000
0011
0000
1100
1010
0000
0101
,  // measure 72
0000
1000
0100
0010
0001
0000
1010
0000
,  // measure 73
0001
0000
0100
0001
0100
0000
0010
1000
0010
0000
0100
0001
0100
0000
0010
0000
,  // measure 74
1000
0000
0001
1000
0001
0000
1000
0100
1000
0000
0010
0000
0100
0000
0000
0000
,  // measure 75
1001
0000
1010
0000
0011
0101
0000
1100
,  // measure 76
0000
0001
0010
0100
1000
0000
0000
1001
,  // measure 77
0000
0010
0100
0010
0100
0000
0001
1000
,  // measure 78
1001
1001
0000
1100
1001
0000
0000
0000
,  // measure 79
0001
0000
0100
0010
0100
0000
0001
0000
0000
0000
1000
0010
1000
0000
0001
0000
,  // measure 80
1000
0000
0010
0100
0010
0000
1000
0000
0000
0000
0100
0000
0010
0000
0001
0000
,  // measure 81
0200
0010
0310
1000
0002
1000
1003
0000
,  // measure 82
0001
0000
1000
0000
0100
0000
0010
0000
0001
0000
0000
1000
0000
0000
0001
0000
,  // measure 83
1001
0000
0000
0110
0220
0000
0330
0000
,  // measure 84
1000
0000
1000
0100
0010
0000
0001
0000
1001
0000
0000
0000
1001
0000
0000
0000
,  // measure 85
0110
0010
0010
0010
1000
0100
0001
0000
,  // measure 86
0110
0100
0100
0100
0001
0100
1000
0000
,  // measure 87
0011
0001
0001
1000
0100
0100
0100
0000
,  // measure 88
1001
0000
0000
0001
1000
0000
0000
1000
0010
0000
0000
0000
1001
0000
0000
0000
,  // measure 89
0110
0010
0010
1000
0100
0010
0001
0000
,  // measure 90
0110
0010
0010
0001
0010
0100
1000
0000
,  // measure 91
0202
0303
2200
3300
,  // measure 92
0001
0000
1000
0010
0100
0000
0001
0000
0010
0000
0100
0000
1000
0000
0000
0000
,  // measure 93
0001
0000
0000
0000
0000
0000
0001
0000
0010
0000
0100
0000
1000
0000
0000
0100
0000
0000
0010
0000
0000
0001
0000
0000
,  // measure 94
1000
0000
2002
0000
,  // measure 95
0000
0000
0000
3003
;

//---------------dance-single - ----------------
#NOTES:
     dance-single:
     :
     Medium:
     11:
     0.531997,0.672030,0.602773,0.363315,0.061929,451.000000,378.000000,73.000000,44.000000,0.000000,0.000000,0.531997,0.672030,0.602773,0.363315,0.061929,451.000000,378.000000,73.000000,44.000000,0.000000,0.000000:
// measure 0
0000
0000
0000
0000
,  // measure 1
0000
0000
0000
0000
,  // measure 2
0000
0000
0000
0000
,  // measure 3
0000
0000
0000
0000
,  // measure 4
0000
0000
0000
0000
,  // measure 5
0000
0000
0000
0000
,  // measure 6
0000
0000
0000
0000
,  // measure 7
0010
0000
1000
0000
,  // measure 8
0100
0000
0001
0000
,  // measure 9
1000
0000
0010
0000
,  // measure 10
0001
0000
0100
0000
,  // measure 11
2000
0000
0000
0000
,  // measure 12
3001
0000
0000
0000
,  // measure 13
0010
0100
0010
0000
0100
0010
0100
0000
,  // measure 14
0010
0100
0010
0000
1000
0010
0001
0000
,  // measure 15
0100
0010
0100
0000
0010
0100
0010
0000
,  // measure 16
0101
0011
1010
1001
,  // measure 17
1000
0100
1000
0000
0001
0100
0001
0000
,  // measure 18
1000
0100
1000
0000
0001
0010
0001
0000
,  // measure 19
0220
0330
2002
3003
,  // measure 20
0001
0010
0100
1000
,  // measure 21
0001
0000
0101
0000
1100
0000
0001
0010
,  // measure 22
0100
0101
1100
0101
,  // measure 23
1000
0010
0100
0000
0001
0100
0001
0000
,  // measure 24
0010
0001
0100
0000
0001
1000
0001
0000
,  // measure 25
1000
1100
0101
1100
,  // measure 26
0010
0110
1001
0110
,  // measure 27
0002
0000
2003
0000
,  // measure 28
3010
0110
2002
3003
,  // measure 29
0001
0000
0000
0001
0100
0000
0000
0100
0010
0000
0000
0010
0100
0000
0000
0100
,  // measure 30
0001
0000
0000
0001
1000
0000
0000
1000
0100
0000
0000
0100
1000
0000
0000
1000
,  // measure 31
0001
0000
0000
0001
0010
0000
0000
0010
0100
0000
0000
0100
1000
0000
0000
0000
,  // measure 32
1000
0000
0000
1000
0100
0000
0000
0100
0010
0000
0000
0010
0001
0000
0000
0000
,  // measure 33
1000
0010
1000
0010
0100
0001
0100
0001
,  // measure 34
1000
0100
0010
0001
1000
0100
0010
0001
,  // measure 35
0200
0000
0000
0000
,  // measure 36
0310
0000
0000
0000
,  // measure 37
0000
0000
0000
0000
,  // measure 38
0001
1000
1000
0001
,  // measure 39
0100
0100
0001
0010
,  // measure 40
0010
0100
0100
1000
,  // measure 41
0001
0010
0010
0001
,  // measure 42
0100
0100
0001
1000
,  // measure 43
1000
2002
0000
3003
,  // measure 44
0010
0001
0100
1000
,  // measure 45
0001
1000
0001
1000
,  // measure 46
0010
0100
0000
0000
1001
0000
0110
0000
,  // measure 47
1000
0100
1000
0100
0010
0001
0010
0000
,  // measure 48
1000
0010
0001
0010
2000
0000
3000
0000
,  // measure 49
0001
0100
0001
0000
1000
0100
1000
0000
,  // measure 50
0010
0100
0010
0000
1001
0000
0110
0000
,  // measure 51
1000
0001
0100
0001
0010
0001
0100
0001
,  // measure 52
1000
0011
2200
3300
,  // measure 53
0020
0130
0002
1003
,  // measure 54
0011
1100
0110
0000
,  // measure 55
0010
2002
3003
0110
,  // measure 56
1001
0000
0001
1000
0000
0000
0110
0000
,  // measure 57
1010
0000
0101
0000
1000
0001
0000
2002
,  // measure 58
0000
3003
0110
0000
1000
0000
0110
0000
,  // measure 59
1001
0000
1000
0001
0000
0001
1000
0001
,  // measure 60
1000
0100
0010
0001
0000
0100
0010
0100
,  // measure 61
0002
0010
0100
1000
,  // measure 62
0100
0013
2002
3003
,  // measure 63
0220
0000
0330
0000
,  // measure 64
2002
0000
3003
0000
,  // measure 65
0011
1100
0011
1100
,  // measure 66
2002
0000
3003
0000
,  // measure 67
0110
0000
0110
0000
0100
0010
0000
1001
,  // measure 68
0000
0010
0100
0000
1001
0000
0000
1000
,  // measure 69
0000
0100
0010
0000
0001
0000
1000
0000
,  // measure 70
0001
0001
0000
1000
1000
0000
0000
0000
,  // measure 71
0110
0000
1001
0000
0100
0010
0000
1001
,  // measure 72
0000
0010
0100
0000
1001
0000
0000
0000
,  // measure 73
1000
0100
1000
0000
0001
0100
0001
0000
,  // measure 74
0010
0001
0010
0001
1000
0000
1001
0000
,  // measure 75
0110
0000
0110
0000
1000
0001
0000
0110
,  // measure 76
0000
0001
1000
0000
0011
0000
0000
1100
,  // measure 77
0000
0001
0010
0000
0100
0000
1000
0000
,  // measure 78
0001
0001
0000
1000
1000
0000
0000
0000
,  // measure 79
0010
1000
0010
1000
0000
0000
1001
0000
,  // measure 80
0100
0001
0100
0001
0000
0000
1001
0000
,  // measure 81
0020
0030
0200
0300
,  // measure 82
0000
0000
0000
0000
0001
0000
0000
0000
1000
0000
0000
0001
0000
0000
1000
0000
,  // measure 83
2000
0000
0000
0001
0002
0000
3003
0000
,  // measure 84
0110
1001
0110
1001
,  // measure 85
1000
0100
0010
0000
0100
0010
0001
0000
,  // measure 86
0010
0100
1000
0000
0001
0010
0100
0000
,  // measure 87
0001
1000
0001
1000
0001
1000
0001
0000
,  // measure 88
0100
0110
2002
3003
,  // measure 89
1000
0010
1000
0010
0100
0001
0100
0000
,  // measure 90
0001
0010
0001
0010
0100
1000
0100
0000
,  // measure 91
2020
3030
0202
0303
,  // measure 92
0100
0010
1000
0001
0100
0010
1000
0000
,  // measure 93
2002
0000
3003
0000
1000
0100
0010
0001
,  // measure 94
1000
0000
2002
0000
,  // measure 95
0000
0000
0000
3003
;

//---------------dance-single - ----------------
#NOTES:
     dance-single:
     :
     Easy:
     8:
     0.416397,0.711561,0.726630,0.198172,0.000000,353.000000,265.000000,88.000000,24.000000,0.000000,0.000000,0.416397,0.711561,0.726630,0.198172,0.000000,353.000000,265.000000,88.000000,24.000000,0.000000,0.000000:
// measure 0
0000
0000
0000
0000
,  // measure 1
0000
0000
0000
0000
,  // measure 2
0000
0000
0000
0000
,  // measure 3
0000
0000
0000
0000
,  // measure 4
0000
0000
0000
0000
,  // measure 5
0000
0000
0000
0000
,  // measure 6
0000
0000
0000
0000
,  // measure 7
0010
0000
0000
0000
,  // measure 8
0001
0000
0000
0000
,  // measure 9
0100
0000
0000
0000
,  // measure 10
1000
0000
0000
0000
,  // measure 11
2002
0000
0000
0000
,  // measure 12
3003
0000
0000
0000
,  // measure 13
1010
1010
0101
0101
,  // measure 14
0011
0011
1100
1100
,  // measure 15
0110
0110
1001
1001
,  // measure 16
0010
0100
1001
0000
,  // measure 17
0011
0011
1010
1010
,  // measure 18
1100
1100
0101
0101
,  // measure 19
0020
0030
0200
0300
,  // measure 20
0001
0010
0100
1000
,  // measure 21
0001
0001
1000
1000
,  // measure 22
0001
0010
1000
0100
,  // measure 23
1000
1000
0001
0001
,  // measure 24
1000
0010
0001
0100
,  // measure 25
0010
0010
0100
0100
,  // measure 26
0001
0010
0100
1000
,  // measure 27
0200
0300
0020
0030
,  // measure 28
2002
3003
0220
0330
,  // measure 29
0011
0001
0100
1000
,  // measure 30
1100
1000
0100
0001
,  // measure 31
1001
1000
0010
0001
,  // measure 32
1001
1000
0100
0001
,  // measure 33
1000
0001
1000
0000
0001
1000
0001
0000
,  // measure 34
1000
0001
1000
0000
0001
1000
0001
0000
,  // measure 35
2002
0000
0000
0000
,  // measure 36
3003
0000
0000
0000
,  // measure 37
0000
0000
0000
0000
,  // measure 38
0010
0000
0000
1000
,  // measure 39
0000
0000
0100
0000
,  // measure 40
0000
0001
0000
0000
,  // measure 41
0010
0000
0000
0001
,  // measure 42
0000
0000
0100
0000
,  // measure 43
0000
1001
0000
0000
,  // measure 44
0010
0010
0010
0010
,  // measure 45
1000
0100
0010
0001
,  // measure 46
0100
0010
1001
0000
,  // measure 47
0010
1000
0010
0000
0010
1000
0010
0000
,  // measure 48
1000
0100
0010
0001
,  // measure 49
0100
0100
0010
0010
,  // measure 50
0100
0100
0010
0010
,  // measure 51
0001
1000
0001
0000
0001
1000
0001
0000
,  // measure 52
1000
0100
0010
0001
,  // measure 53
1000
1000
0001
0001
,  // measure 54
1000
0001
1001
0000
,  // measure 55
0000
0200
0000
0301
,  // measure 56
1000
0000
0000
1000
0000
0000
1000
0000
,  // measure 57
0001
0000
0000
0000
0100
0000
0000
0100
,  // measure 58
0000
1001
0000
1000
,  // measure 59
0001
0000
0000
0001
0000
0000
0001
0000
,  // measure 60
1000
0000
0000
1000
0000
0000
0020
0000
,  // measure 61
0200
0000
0000
0000
,  // measure 62
0000
0300
2000
3030
,  // measure 63
0001
1000
0100
0000
,  // measure 64
1000
0001
0100
0000
,  // measure 65
0110
1001
0110
1001
,  // measure 66
0110
0020
0200
0330
,  // measure 67
0011
0000
0011
0000
0011
0000
0000
1000
,  // measure 68
0000
0000
1001
0000
1001
0000
0000
0010
,  // measure 69
0000
0110
0110
0000
,  // measure 70
1000
0001
0000
1000
0001
0000
0000
0000
,  // measure 71
1010
0000
1010
0000
1010
0000
0000
0100
,  // measure 72
0000
0011
0011
0000
,  // measure 73
1000
0100
0010
0001
,  // measure 74
1000
1001
0110
0000
,  // measure 75
1001
0000
1001
0000
1001
0000
0000
0110
,  // measure 76
0000
0000
1001
0000
1001
0000
0000
0011
,  // measure 77
0000
1100
1100
0000
,  // measure 78
1001
0000
0000
0110
0000
0000
0000
0000
,  // measure 79
0001
1000
0001
1000
0000
0000
0000
0000
,  // measure 80
1000
0001
1000
0001
0000
0000
0000
0000
,  // measure 81
1001
0000
0110
0000
,  // measure 82
0000
1001
1001
0000
,  // measure 83
0011
0000
1100
0000
,  // measure 84
0001
0100
1000
1001
,  // measure 85
1010
1000
0101
0001
,  // measure 86
1100
0100
0011
0010
,  // measure 87
0011
0011
1100
1100
,  // measure 88
0110
1001
0110
0000
,  // measure 89
0101
0100
1010
0010
,  // measure 90
1100
0100
0011
0010
,  // measure 91
2002
3003
0220
0330
,  // measure 92
0001
0010
0100
1000
,  // measure 93
0010
0000
0100
0100
,  // measure 94
0100
0000
2002
0000
,  // measure 95
0000
0000
0000
3003
;

//---------------dance-single - ----------------
#NOTES:
     dance-single:
     :
     Beginner:
     5:
     0.199351,0.395312,0.123857,0.066057,0.000000,169.000000,154.000000,15.000000,8.000000,0.000000,0.000000,0.199351,0.395312,0.123857,0.066057,0.000000,169.000000,154.000000,15.000000,8.000000,0.000000,0.000000:
// measure 0
0000
0000
0000
0000
,  // measure 1
0000
0000
0000
0000
,  // measure 2
0000
0000
0000
0000
,  // measure 3
0000
0000
0000
0000
,  // measure 4
0000
0000
0000
0000
,  // measure 5
0000
0000
0000
0000
,  // measure 6
0000
0000
0000
0000
,  // measure 7
0010
0000
0000
0000
,  // measure 8
1000
0000
0000
0000
,  // measure 9
0100
0000
0000
0000
,  // measure 10
0001
0000
0000
0000
,  // measure 11
0020
0000
0000
0000
,  // measure 12
0030
0000
0000
0000
,  // measure 13
1000
0000
0001
0000
,  // measure 14
1000
0000
0001
0000
,  // measure 15
1000
0000
0001
0000
,  // measure 16
0010
0010
0010
0000
,  // measure 17
0001
0000
1000
0000
,  // measure 18
0001
0000
1000
0000
,  // measure 19
0010
0000
0000
0000
,  // measure 20
0100
0100
0100
0100
,  // measure 21
0000
0000
0001
0000
,  // measure 22
1000
0000
0001
0000
,  // measure 23
1000
0000
1000
0000
,  // measure 24
0001
0000
1000
0000
,  // measure 25
0001
0000
1000
0000
,  // measure 26
0001
0000
1000
0000
,  // measure 27
0010
0000
0010
0000
,  // measure 28
0010
0000
0010
0000
,  // measure 29
0100
0100
0100
0000
,  // measure 30
0010
0010
0010
0000
,  // measure 31
2000
0000
3000
0000
,  // measure 32
0002
0000
0003
0000
,  // measure 33
1000
0001
1000
0001
,  // measure 34
1000
0001
1000
0001
,  // measure 35
1000
0000
0000
0000
,  // measure 36
1001
0000
0000
0000
,  // measure 37
0000
0000
0000
0000
,  // measure 38
0010
0000
0000
0100
,  // measure 39
0000
0000
0010
0000
,  // measure 40
0000
0100
0000
0000
,  // measure 41
0001
0000
0000
1000
,  // measure 42
0000
0000
0001
0000
,  // measure 43
0000
1000
0000
0000
,  // measure 44
0000
0000
0000
0000
,  // measure 45
0010
0000
0010
0000
,  // measure 46
0100
0100
0100
0000
,  // measure 47
0001
0000
1000
0000
,  // measure 48
0001
0001
0001
0000
,  // measure 49
1000
0000
0001
0000
,  // measure 50
1000
0000
0001
0000
,  // measure 51
0100
0000
0010
0000
,  // measure 52
0100
0100
0100
0000
,  // measure 53
0001
0000
1000
0000
,  // measure 54
0010
0000
0100
0000
,  // measure 55
0000
0001
0000
0001
,  // measure 56
0001
0000
1000
0000
,  // measure 57
0010
0000
0100
0000
,  // measure 58
0010
0000
0000
0000
,  // measure 59
1000
0000
0001
0000
,  // measure 60
0100
0000
0010
0000
,  // measure 61
2002
0000
0000
0000
,  // measure 62
3003
0000
0020
0030
,  // measure 63
0010
0000
0000
0000
,  // measure 64
0100
0000
0000
0000
,  // measure 65
0010
0010
0010
0010
,  // measure 66
0010
0000
0000
0000
,  // measure 67
1000
0000
0000
0000
,  // measure 68
0001
0000
0000
0000
,  // measure 69
1000
0000
0100
0000
,  // measure 70
0001
0000
0000
0000
,  // measure 71
0001
0000
0000
0000
,  // measure 72
1000
0000
0000
0000
,  // measure 73
0001
0000
0010
0000
,  // measure 74
0100
0000
1000
0000
,  // measure 75
1001
0000
0000
0000
,  // measure 76
0110
0000
0000
0000
,  // measure 77
1000
0000
0100
0000
,  // measure 78
0010
0000
0001
0000
,  // measure 79
1000
0000
0000
0000
,  // measure 80
0001
0000
0000
0000
,  // measure 81
0010
0000
0010
0000
,  // measure 82
0000
0000
0100
0000
,  // measure 83
0100
0000
0100
0000
,  // measure 84
0000
0000
0000
1000
,  // measure 85
1001
0000
1001
0000
,  // measure 86
1001
0000
1001
0000
,  // measure 87
0110
0000
0110
0000
,  // measure 88
0010
0010
0010
0000
,  // measure 89
1001
0000
1001
0000
,  // measure 90
0110
0000
0110
0000
,  // measure 91
0010
0000
0000
0000
,  // measure 92
1000
1000
1000
1000
,  // measure 93
1000
0000
0001
0000
,  // measure 94
1000
0000
2002
0000
,  // measure 95
0000
0000
0000
3003
;
