#TITLE:BACKWARDS WALKER;
#SUBTITLE:;
#ARTIST:TT Sound Team "r140iku";
#TITLETRANSLIT:;
#SUBTITLETRANSLIT:;
#ARTISTTRANSLIT:;
#GENRE:;
#CREDIT:;
#BANNER:BACKWARDS WALKER.png;
#BACKGROUND:BACKWARDS WALKER-bg.png;
#LYRICSPATH:;
#CDTITLE:;
#MUSIC:BACKWARDS WALKER.ogg;
#OFFSET:1.700000;
#SAMPLESTART:54.832150;
#SAMPLELENGTH:13.710369;
#LASTBEATHINT:1.609470;
#SELECTABLE:YES;
#DISPLAYBPM:140.000000;
#BPMS:0.000000=140.000000
,35.000000=144.000000
,36.000000=140.000000
,64.000000=140.699997
,75.000000=139.899994
,121.000000=140.039993
,211.000000=140.100006
,228.000000=140.000000
;
#STOPS:
;
#BGCHANGES:;
#KEYSOUNDS:;
#ATTACKS:;

//---------------dance-single - ----------------
#NOTES:
     dance-single:
     :
     Challenge:
     17:
     0.739520,0.867821,0.146855,0.211104,0.986682,564.000000,548.000000,16.000000,23.000000,0.000000,0.000000,0.739520,0.867821,0.146855,0.211104,0.986682,564.000000,548.000000,16.000000,23.000000,0.000000,0.000000:
// measure 0
0000
0000
0000
0000
,  // measure 1
0000
0000
0000
0000
,  // measure 2
0000
0000
0000
0000
,  // measure 3
0000
0000
0000
0000
,  // measure 4
0000
0000
0000
0000
,  // measure 5
0001
0000
0100
0000
1000
0000
0100
0000
0001
0000
0010
1000
0000
0001
0100
0000
,  // measure 6
0010
0000
0001
0000
1000
0000
0100
0000
0010
0000
0001
0010
0000
0100
1000
0000
,  // measure 7
0001
0000
1000
0000
0010
0000
0100
0000
0001
0000
1000
0010
0000
0010
1000
0000
,  // measure 8
0001
0000
0000
0010
0000
0000
0100
0000
0010
0000
1001
0000
0100
0000
0000
0000
,  // measure 9
1000
0000
0100
0010
0000
0001
0010
0000
1000
0000
0001
0100
0000
0010
0100
0000
,  // measure 10
0001
0000
1000
0100
0000
0010
0100
0000
0001
0000
1000
0010
0000
0100
0010
0000
,  // measure 11
1000
0100
1000
0100
0000
0010
0001
0000
1000
0100
0010
0001
0000
0010
0100
0000
,  // measure 12
1000
0010
1000
0010
0000
0100
0001
0000
1000
0010
0100
0001
0000
0001
1000
0000
,  // measure 13
0010
0100
0010
0100
0010
0000
1000
0000
0001
0000
0010
0100
0000
0010
0001
0000
,  // measure 14
1000
0000
0010
0100
0000
0010
1000
0000
0001
0000
0010
0100
0000
0010
0001
0000
,  // measure 15
1000
0100
0010
0100
1000
0100
0010
0001
0100
0000
0010
0100
0000
0100
0001
0000
,  // measure 16
1000
0000
0100
0001
0000
0100
1000
0000
0001
0000
0010
1000
0000
0010
0001
1000
,  // measure 17
0100
0000
0000
1001
0000
0000
1000
0000
0200
0000
0000
0000
0302
0000
0000
0000
,  // measure 18
0013
0000
0000
0010
0000
0000
0020
0000
0000
0000
1030
0000
0100
0000
0001
0000
,  // measure 19
1000
0000
0000
1001
0000
0000
0001
0000
0200
0000
0000
0000
0320
0000
0000
0000
,  // measure 20
2030
0000
0001
3010
,  // measure 21
0001
0000
0100
0001
0000
1000
0100
0000
0020
0000
0000
0000
0230
0000
0000
0000
,  // measure 22
0301
0000
0010
0001
0000
1000
0100
0000
0001
0000
0000
0000
1001
0000
0000
0000
,  // measure 23
0010
0000
1000
0100
0000
0010
0001
0000
1000
0000
0000
0000
0101
0000
0000
0000
,  // measure 24
1000
0000
0000
0100
0000
0000
0010
0000
0000
0001
0000
0000
1000
0000
0000
0001
0000
0000
0010
0000
0000
0100
0000
0000
1000
0000
0000
0010
0000
0000
0100
0000
0000
0001
0000
0000
1000
0000
0100
0000
0010
0000
0001
0000
0100
0000
0010
0000
,  // measure 25
1000
0000
0001
0100
0010
0100
0001
0000
1000
0010
0000
1000
0010
0000
0100
0000
,  // measure 26
0001
0010
0100
0010
0001
0000
1000
0000
0001
0100
0000
0010
1000
0000
0001
0000
,  // measure 27
1000
0100
0010
0001
0010
0100
1000
0010
0100
0001
0000
0001
1000
0000
0010
0000
,  // measure 28
1000
0000
0100
0010
0000
0001
1000
0010
0100
0000
0001
0010
0000
0100
1000
0010
,  // measure 29
0100
0010
0100
0010
1000
0000
0100
1000
0010
0000
0010
0001
0000
0001
0100
0000
,  // measure 30
0010
0000
1000
0010
0000
0100
0001
0000
0001
0000
0100
0010
0000
0010
1000
0000
,  // measure 31
0001
0000
1000
0100
0000
0010
0001
0000
0010
0100
0000
1000
0001
0000
1000
0000
,  // measure 32
0010
0000
0000
0100
0000
0000
0001
0000
0000
0100
0000
0000
0010
0000
0000
1000
0000
0000
0100
0000
0000
0010
0000
0000
0001
0000
0000
0010
0000
0000
0100
0000
0000
1000
0000
0000
0001
0000
0010
0000
0001
0000
0010
0000
0000
0001
0000
0000
,  // measure 33
0100
0010
0100
0010
1000
0100
0010
0001
2000
0000
0000
0000
3001
0010
0100
1000
,  // measure 34
0010
0000
1000
0010
0000
1000
0010
0000
0100
0000
0001
0100
0000
0001
0100
0000
,  // measure 35
0001
0010
0100
1000
0010
0100
0010
1000
0100
0000
0000
0000
0010
0001
0100
0010
,  // measure 36
1000
0000
0010
0001
0000
0010
1000
0000
0001
0000
0100
1000
0000
0100
0001
0000
,  // measure 37
1000
0100
0010
0100
1000
0010
0001
0010
1000
0100
0010
0001
1000
0000
0010
0000
,  // measure 38
0110
0000
0100
0001
0000
0100
0001
0000
1010
0000
1000
0100
0000
1000
0100
0000
,  // measure 39
0010
0001
0100
0001
0010
0001
1000
0100
0010
0000
0000
0000
0001
1000
0100
0010
,  // measure 40
0001
0000
0010
0100
0000
1000
0010
0000
0001
0000
0010
1000
0000
0100
0010
0001
,  // measure 41
1000
0000
0010
0001
0000
0010
0001
0000
0100
1000
0000
0100
1000
0000
0100
0000
,  // measure 42
0001
0000
1000
0010
0000
1000
0010
0000
0001
0000
0010
1000
0000
0010
1000
0000
,  // measure 43
0100
0000
0001
0100
0000
0001
0100
0000
1000
0100
0000
1000
0100
0010
0001
0000
,  // measure 44
0010
0000
0000
0000
0000
0000
0001
0000
0000
0100
0000
0000
0010
0000
0000
0100
0000
0000
0001
0000
0000
0000
0000
0000
1000
0000
0000
0000
0000
0000
0010
0000
0000
1000
0000
0000
0010
0000
0000
0100
0000
0000
0010
0000
0100
0000
0010
0000
,  // measure 45
0200
0000
0000
0000
0320
0000
0000
0000
1030
0000
0001
0010
0000
0100
1000
0000
,  // measure 46
0001
0000
1000
0100
0000
0010
0001
0000
2002
0000
0000
0000
3003
0000
0000
0001
,  // measure 47
1000
0000
0100
0000
0010
0000
0001
0000
1000
0010
0000
0010
1000
0000
0001
0010
,  // measure 48
0011
0000
1000
0010
0100
0010
0110
0000
1001
0000
1000
0100
0010
0001
0100
0010
,  // measure 49
1000
0000
0100
0000
0010
0000
0001
0000
2000
0000
0000
0000
3010
0100
0001
0100
,  // measure 50
0020
0000
1000
0000
0100
0000
1030
0010
,  // measure 51
1001
0000
1000
0100
0010
0000
0100
0000
0001
0000
0010
0100
1100
0000
0001
0000
,  // measure 52
0100
0000
0001
0100
0000
1000
0100
0000
0001
0000
0010
1000
0000
0010
0001
0000
,  // measure 53
1000
0000
0010
1000
0001
0000
0010
0100
1000
0000
0001
1000
0010
0000
1000
0100
,  // measure 54
0110
0000
0001
0100
0001
0000
1000
0100
0010
0100
1000
0001
0010
0100
0010
0001
,  // measure 55
1000
0000
0000
0001
0000
0000
1000
0100
0010
0001
0000
0000
1000
0000
0000
0000
0000
0000
0001
0010
0100
1000
0000
0000
,  // measure 56
0001
0010
0001
1000
0100
1000
0001
0010
0001
1000
0100
0010
0001
0100
0010
1000
,  // measure 57
0002
2003
3020
0200
,  // measure 58
0330
0000
0000
0000
0000
0000
0000
0220
0000
0000
0000
0000
0000
0000
0000
0000
,  // measure 59
0330
0000
0000
0000
0000
0000
0000
0000
0000
0000
0000
0000
0000
0000
0000
1000
,  // measure 60
0000
0001
0000
0000
0000
0000
0000
0100
0000
0220
0000
0000
0000
0000
0000
0000
,  // measure 61
0330
0000
0000
0000
;

//---------------dance-single - ----------------
#NOTES:
     dance-single:
     :
     Hard:
     13:
     0.491702,0.587879,0.146855,0.302888,0.426797,375.000000,359.000000,16.000000,33.000000,0.000000,0.000000,0.491702,0.587879,0.146855,0.302888,0.426797,375.000000,359.000000,16.000000,33.000000,0.000000,0.000000:
0000
0000
0000
0000
,
0000
0000
0000
0000
,
0000
0000
0000
0000
,
0000
0000
0000
0000
,
0000
0000
0000
0000
,
0100
0000
0001
0000
0100
0000
1000
0000
0100
0000
0001
0100
0000
0000
0010
0000
,
1000
0000
0010
0000
0001
0000
0010
0000
1000
0000
0010
1000
0000
0000
0001
0000
,
1000
0100
0010
0001
,
1000
0000
0000
0001
0000
0000
0100
0000
0000
0000
0010
0000
1001
0000
0000
0000
,
1000
0010
1000
0001
1000
0100
0010
0001
,
1000
0001
0010
0001
0010
0100
1000
0010
,
1000
0000
0100
1000
0000
0000
0100
0000
0010
0000
0001
0010
0000
0000
0001
0000
,
0100
0000
0010
0100
0000
0000
0001
0000
1000
0000
0001
0100
0000
0000
0010
0000
,
1000
0010
1000
0010
1000
0000
0001
0000
0100
0000
0010
0000
1000
0000
0100
0000
,
0010
0001
0010
0100
1000
0001
0100
0010
,
1000
0001
1000
0001
0100
0000
0010
0000
0200
0000
0000
0000
0310
0000
0000
0000
,
0001
0010
0100
1000
0100
0010
1001
0000
,
0001
0000
0000
0001
0000
0000
1000
0000
0200
0000
0000
0000
0320
0000
0000
0000
,
0030
0000
0000
0000
,
1000
0000
0000
0001
0000
0000
1000
0000
0020
0000
0000
0000
0230
0000
0000
0000
,
0020
0000
0000
0330
,
0001
0000
0000
1000
0000
0000
0010
0000
0200
0000
0000
0000
0302
0000
0000
0000
,
1003
0000
0000
0100
0000
0000
0010
0000
0002
0000
0000
0000
0203
0000
0000
0000
,
0310
0000
0000
0010
0000
0000
1000
0000
0002
0000
0000
0000
0203
0000
0000
0300
,
0020
0000
2030
3000
,
0010
0000
0000
0010
0000
0000
0010
0000
1000
0001
0000
1000
0001
0000
0000
0000
,
0100
0000
0000
0100
0000
0000
0100
0000
0001
1000
0000
0001
1000
0000
0000
0000
,
0010
0000
0000
0010
0000
0000
0010
0000
1000
0100
0000
1000
0100
0000
0000
0000
,
0010
0000
0000
0010
0000
0000
0010
0000
0001
0100
0000
0001
0100
0000
0000
0000
,
0010
0000
0000
1000
0000
0000
0100
0000
1000
0100
0000
1000
0100
0000
0010
0000
,
0001
0000
0000
0001
0000
0000
0001
0000
0100
0001
0000
0100
0001
0000
0000
0000
,
0010
0000
0000
0010
0000
0000
0010
0000
1000
0100
0000
1000
0100
0000
1000
0000
,
0010
0000
0000
0010
0000
0000
0100
0000
0001
0100
0000
0001
0100
0000
0000
0000
,
1000
0010
0100
0001
1002
0000
0013
0100
,
2001
0000
0000
0001
0000
0000
0001
0000
0010
0000
0000
0010
0000
0010
0000
0000
,
3001
0000
0000
0100
0001
0000
1000
0000
1100
0000
0000
0001
1000
0000
0010
0000
,
1010
0000
0000
0010
0000
0000
0100
0000
0001
0000
0000
1001
0000
1001
0000
0000
,
0010
1000
0001
0100
0220
0330
0010
1000
,
2001
0000
0000
0010
0000
0000
0010
0000
0010
0000
0000
0001
0000
0001
0000
0000
,
3010
0000
0000
0010
0100
0000
0001
0000
0101
0000
0000
0010
1000
0000
0100
0000
,
1100
0000
0000
1000
0000
1000
0100
0000
0010
0000
0000
0010
0000
0001
0100
0000
,
0010
0000
1000
0010
0000
0000
1000
0010
0000
0000
0100
0000
0001
0000
1000
0000
,
0010
0000
0100
0010
0000
0000
0100
0010
0000
0000
1000
0000
0100
0000
0010
0000
,
0001
0000
1000
0100
0000
0000
0010
0001
0000
0000
1000
0000
0010
0000
0100
0000
,
0001
0000
0100
0010
0000
0000
0010
0100
0000
0000
0001
0000
1000
0000
0100
0000
,
0020
0000
0000
0000
0230
0000
0000
0000
0301
0000
0001
1000
0000
0000
0010
0000
,
0100
0000
0001
0100
0000
0000
0001
0000
2002
0000
0000
0000
3003
0000
0000
0000
,
0010
0000
1000
0000
0100
0000
0010
0000
0001
0010
0000
0010
0001
0000
0100
0000
,
0010
0000
0000
1010
0000
0000
1000
0000
0001
0100
0001
0100
0001
0100
0001
0000
,
1000
0000
0000
1000
0000
0000
0010
0000
0200
0000
0000
0300
0001
0000
0001
0000
,
1000
0000
0000
0010
0000
0000
0100
0000
0001
0000
0000
0100
0000
0100
0010
0000
,
1000
0000
0000
0001
0000
0000
0100
0000
0001
1000
0000
0000
0010
0000
0100
0000
,
0001
0000
0000
0001
0000
0000
0010
0000
0100
0000
0000
0100
0000
0100
0010
0000
,
1000
0100
1000
0100
0002
0000
0013
0001
,
1000
0000
0000
1000
0000
0000
0010
0000
0100
0000
0000
0100
0000
0001
1000
0000
,
0010
0000
0000
0010
1000
0000
0100
0000
0001
0000
0000
0001
0100
0000
1000
0000
,
0010
0000
0000
0010
0000
0000
1000
0000
0100
0000
0010
0000
0001
0000
0100
0000
,
0020
0230
0302
2003
,
3000
0000
0000
0000
0000
0000
0000
0220
0000
0000
0000
0000
0000
0000
0000
0000
,
0330
0000
0000
0000
0000
0000
0000
0000
0000
0000
0000
0000
0000
0000
0000
1000
,
0000
0001
0000
0000
0000
0000
0000
0100
0000
0220
0000
0000
0000
0000
0000
0000
,
0330
0000
0000
0000
;

//---------------dance-single - ----------------
#NOTES:
     dance-single:
     :
     Medium:
     8:
     0.350092,0.419914,0.183569,0.532349,0.013768,267.000000,247.000000,20.000000,58.000000,0.000000,0.000000,0.350092,0.419914,0.183569,0.532349,0.013768,267.000000,247.000000,20.000000,58.000000,0.000000,0.000000:
0000
0000
0000
0000
,
0000
0000
0000
0000
,
0000
0000
0000
0000
,
0000
0000
0000
0000
,
0000
0000
0000
0000
,
0010
0010
1000
0100
,
0010
0010
0001
0100
,
0001
0010
0001
0000
1000
0000
0100
0000
,
0010
0001
0010
0000
0001
0000
0100
0000
,
0010
1010
0010
1010
,
0100
0101
0100
0101
,
1000
0001
1000
0000
0001
1000
0001
0000
,
1000
0100
0010
0001
0010
0100
1000
0000
,
0010
0110
0100
0110
,
1000
1001
0001
1001
,
1000
0010
1000
0000
0001
0100
0001
0000
,
1000
0001
1000
0001
1000
0001
1000
0000
,
0020
0000
0230
0000
0302
0000
2000
3003
,
0000
0000
0000
0000
,
0200
0000
0320
0000
2030
0000
0002
3003
,
0000
0000
0000
0000
,
0020
0230
0302
0003
,
0200
0320
2030
3000
,
0002
0203
2300
3000
,
0020
2030
3200
0302
,
1003
0100
1000
0100
1000
0000
0001
0000
,
0010
0001
0010
0001
0100
0000
0010
0000
,
1000
0100
1000
0000
0001
0100
0001
0000
,
0100
0010
0100
0010
0100
0010
0100
0000
,
0001
0010
0001
0010
0001
0000
1000
0000
,
0100
1000
0100
1000
0010
0000
0100
0000
,
0001
1000
0001
0000
1000
0001
1000
0000
,
0010
0100
2002
3003
,
0010
1000
0010
1000
0010
0000
0100
0001
,
0200
0302
2003
3020
,
0130
0000
0001
0100
1000
0000
0001
0100
,
0020
2030
3200
0320
,
0031
0010
0001
0010
0001
0000
1000
0100
,
2000
3020
0230
0302
,
1003
0000
0010
1000
0100
0000
0010
0001
,
0200
0320
2030
3002
,
0003
1100
0001
0101
,
0010
1001
0100
1010
,
0001
0010
0100
0000
1000
0100
0010
0000
,
0001
0010
0001
0010
0001
0010
0001
0000
,
2000
0002
3003
0000
,
0010
0000
2002
3003
,
0010
1000
0010
0000
2002
0000
3003
0000
,
0100
0010
1000
0001
,
0020
0000
0030
0001
0100
0000
0010
1000
,
0010
0100
1001
0110
,
0010
0000
1000
0100
0010
0000
0100
0010
,
0001
0100
0010
1000
,
0001
0000
0010
0001
0010
0000
0100
1000
,
0100
0010
0001
0100
,
0010
0000
1000
0001
1000
0000
0010
0100
,
0020
2030
3200
0320
,
0032
2003
3002
2003
,
3000
0000
0000
0000
0000
0000
0000
0220
0000
0000
0000
0000
0000
0000
0000
0000
,
0330
0000
0000
0000
,
0000
1001
0000
0000
0000
0000
0000
0000
0000
0220
0000
0000
0000
0000
0000
0000
,
0330
0000
0000
0000
;

//---------------dance-single - ----------------
#NOTES:
     dance-single:
     :
     Easy:
     6:
     0.236017,0.335931,0.156033,0.312067,0.013768,180.000000,163.000000,17.000000,34.000000,0.000000,0.000000,0.236017,0.335931,0.156033,0.312067,0.013768,180.000000,163.000000,17.000000,34.000000,0.000000,0.000000:
0000
0000
0000
0000
,
0000
0000
0000
0000
,
0000
0000
0000
0000
,
0000
0000
0000
0000
,
0000
0000
0000
0000
,
0010
0010
1001
0000
,
0010
0010
1001
0000
,
0001
0010
1000
0000
,
1000
0100
0001
0000
,
0010
0010
0010
0110
,
1000
1000
1000
1001
,
0001
0010
0100
1001
,
1000
0100
0010
1001
,
0010
0010
0100
0010
,
1000
1000
0001
1000
,
0010
0001
0100
0001
,
0010
1000
0100
1000
,
0020
0030
0001
1000
,
0000
0000
0000
0000
,
0200
0300
1000
0001
,
0000
0000
0000
0000
,
0020
0030
0001
1000
,
0200
0300
1000
0001
,
0020
0030
0200
0300
,
0001
0010
0100
1000
,
0001
1000
0002
0003
,
1000
0001
2000
3000
,
0001
0010
0100
1000
,
0010
0010
0100
1001
,
1000
1000
0002
0003
,
0001
0001
2000
3000
,
0001
0010
0100
1000
,
0010
0010
2002
3003
,
0010
0000
0000
1000
1000
0000
0000
0001
,
0002
0000
0003
0000
,
0000
0000
0010
0100
0010
0000
0100
0010
,
0200
0000
0300
0000
,
1001
0000
0000
0010
0010
0000
0000
0100
,
0200
0000
0300
0000
,
0000
0000
1000
0100
1000
0000
0001
0100
,
0002
0000
0003
1001
,
1000
0010
0100
0001
,
0010
0100
0010
0001
,
1000
0100
0001
0010
,
0001
0100
1000
0010
,
2002
0000
3003
0000
,
0020
0000
0200
0330
,
0001
2002
3003
0000
,
1000
0100
0010
0001
,
1001
0000
0000
0010
0010
0000
0000
1000
,
2000
0000
3000
0000
,
0001
0000
1000
0010
1000
0000
0001
0100
,
0020
0000
0030
0000
,
0200
0000
0000
0001
0001
0000
0000
0001
,
0002
0000
0303
0000
,
0020
1000
1000
1000
,
2000
0000
0000
3030
,
2002
0000
3003
0000
,
0000
0000
0000
0000
0000
0000
0000
0220
0000
0000
0000
0000
0000
0000
0000
0000
,
0330
0000
0000
0000
,
0000
1001
0000
0000
0000
0000
0000
0000
0000
0220
0000
0000
0000
0000
0000
0000
,
0330
0000
0000
0000
;

//---------------dance-single - ----------------
#NOTES:
     dance-single:
     :
     Beginner:
     2:
     0.108830,0.139971,0.009178,0.192747,0.009178,83.000000,82.000000,1.000000,21.000000,0.000000,0.000000,0.108830,0.139971,0.009178,0.192747,0.009178,83.000000,82.000000,1.000000,21.000000,0.000000,0.000000:
0000
0000
0000
0000
,
0000
0000
0000
0000
,
0000
0000
0000
0000
,
0000
0000
0000
0000
,
0000
0000
0000
0000
,
0010
0000
0000
0000
,
0010
0000
0000
0000
,
0100
0000
0000
0000
,
0100
0000
0000
0000
,
0010
0000
0010
0000
,
1000
0000
1000
0000
,
0001
0000
0001
0000
,
0100
0000
0100
0000
,
0001
0000
0001
0000
,
1000
0000
1000
0000
,
0010
0000
0100
0000
,
1000
0000
0001
0000
,
0020
0030
0010
0000
,
0000
0000
0000
0000
,
0200
0300
0100
0000
,
0000
0000
0000
0000
,
0020
0030
0010
0000
,
0200
0300
0100
0000
,
0010
0000
0100
0000
,
0001
0000
1000
0000
,
0001
0000
0002
0003
,
1000
0000
2000
3000
,
0001
0000
0000
0000
,
0010
0000
0100
0000
,
1000
0000
0002
0003
,
0001
0000
2000
3000
,
1000
0000
0000
0000
,
0010
0000
0010
0000
,
0010
0000
1000
0000
,
0002
0000
0003
0000
,
0000
0010
0010
0000
,
0200
0000
0300
0000
,
0000
0000
0010
0000
,
0200
0000
0300
0000
,
0000
1000
1000
0000
,
0002
0000
0003
0000
,
1000
0000
0100
0000
,
0010
0000
0001
0000
,
0010
0000
0100
0000
,
1000
0000
0100
0000
,
0020
0000
0030
0000
,
0000
0000
2002
0000
,
3003
0000
0000
0000
,
1000
0000
0001
0000
,
0000
0000
0010
0000
,
2000
0000
3000
0000
,
0000
1000
1000
0000
,
0020
0000
0030
0000
,
0000
0000
0001
0000
,
0002
0000
0003
0000
,
0000
1000
1000
1000
,
2000
0000
3000
0000
,
0000
0000
0000
0000
,
0000
0000
0000
0000
0000
0000
0000
0020
0000
0000
0000
0000
0000
0000
0000
0000
,
0030
0000
0000
0000
,
0000
0000
0000
0000
0000
0000
0000
0000
0000
0200
0000
0000
0000
0000
0000
0000
,
0300
0000
0000
0000
;
