#TITLE:Astrogazer;
#SUBTITLE:("STREAM" Special);
#ARTIST:DJ TOTTO;
#TITLETRANSLIT:;
#SUBTITLETRANSLIT:;
#ARTISTTRANSLIT:;
#GENRE:KONAMI originals;
#CREDIT:;
#BANNER:Astrogazer (STREAM Special).png;
#BACKGROUND:Astrogazer (STREAM Special)-bg.png;
#LYRICSPATH:;
#CDTITLE:;
#MUSIC:Astrogazer (STREAM Special).ogg;
#OFFSET:0.000000;
#SAMPLESTART:77.921997;
#SAMPLELENGTH:15.000000;
#SELECTABLE:YES;
#BPMS:0.000000=154.000000
,8.000000=77.000000
,24.000000=154.000000
;
#STOPS:212.000000=0.195000,
212.500000=0.195000,
213.000000=0.195000
;
#BGCHANGES:;
#KEYSOUNDS:;
#ATTACKS:;

//---------------dance-single - ----------------
#NOTES:
     dance-single:
     :
     Challenge:
     13:
     0.770719,0.677881,0.210835,0.155835,0.623339,474.000000,451.000000,23.000000,17.000000,0.000000,0.000000,0.770719,0.677881,0.210835,0.155835,0.623339,474.000000,451.000000,23.000000,17.000000,0.000000,0.000000:
// measure 0
0000
0000
0000
0000
,  // measure 1
0000
0000
0000
0000
,  // measure 2
1000
0000
0000
0000
0000
0000
1000
0000
0100
0000
0000
0000
0000
0000
0000
0000
0001
0000
0000
0001
0000
0000
0100
0000
0010
0000
0000
0000
1000
0000
0000
0000
,  // measure 3
0001
0000
0000
0000
0000
0000
0001
0000
1000
0000
0000
0000
0000
0000
0000
0000
0010
0000
0000
0010
0000
0000
0100
0000
0001
0000
0000
0000
1000
0000
0000
0000
,  // measure 4
0001
0000
0000
0000
0000
0000
0001
0000
1000
0000
0000
0000
0000
0000
0000
0000
1000
0000
0000
1000
0000
0000
0100
0000
0010
0000
0000
0000
1000
0000
0000
0000
,  // measure 5
0001
0000
0000
0000
0000
0000
0001
0000
0100
0000
0000
0000
0000
0000
0000
0000
0010
0000
0000
0010
0000
0000
1000
0000
0100
0000
0000
0000
1001
0000
0000
0000
,  // measure 6
1000
0100
1000
0100
0010
0001
0010
0001
,  // measure 7
1000
0010
1000
0010
0100
0010
0100
0010
,  // measure 8
1000
0100
0010
0001
1000
0100
0010
0001
,  // measure 9
1000
0010
1000
0010
0100
0001
0100
0010
,  // measure 10
1000
0000
0100
0000
0010
0000
0001
0000
0100
0010
0100
0000
0001
0000
0100
0000
,  // measure 11
0010
0000
1000
0000
0100
0000
1000
0000
0010
0100
0010
0000
0100
0000
0001
0000
,  // measure 12
1000
0000
0100
0000
0010
0001
0010
0000
0001
0000
0100
0000
0010
0100
0010
0000
,  // measure 13
1000
0000
1010
0000
0101
0000
1001
0000
0000
0110
0000
0000
,  // measure 14
1010
0000
1000
0010
0000
0010
0100
0000
0100
0001
0000
0001
,  // measure 15
1000
0000
1000
0001
0000
1000
0010
1000
0010
0100
0010
0100
,  // measure 16
0010
0000
0010
1000
0000
1000
0100
0000
0000
0110
0000
0010
,  // measure 17
0001
0000
0001
0100
0000
0001
1000
0001
0100
0001
0000
1000
,  // measure 18
0010
0000
0000
1010
0000
1000
0010
0000
0010
0100
0000
0100
,  // measure 19
0001
0000
1000
0001
0000
1000
0010
0000
1000
0100
0000
0010
,  // measure 20
0001
0100
0001
0000
1000
0000
0010
0100
0010
0000
1000
0000
,  // measure 21
0001
0010
0001
0000
1000
0000
0001
0000
0100
0010
0100
0010
,  // measure 22
1000
0000
0000
1001
0000
0000
1000
0000
0100
1000
0000
0000
,  // measure 23
0001
0000
0100
0010
0000
1000
0001
0000
0100
0101
0000
0000
,  // measure 24
1010
0000
0000
0101
0000
0000
1000
0100
0010
0001
0000
0000
,  // measure 25
1000
0010
1000
0001
0100
0001
1000
0010
1000
0010
0000
0100
,  // measure 26
0010
0000
0000
1001
0000
0000
1000
0100
0010
0001
0000
0000
,  // measure 27
1000
0000
0000
1010
0000
0000
0001
0100
0010
0100
0001
0100
,  // measure 28
0010
0000
0010
0000
1000
0010
1000
0000
0001
0000
0100
0010
,  // measure 29
0100
0000
0010
0000
0100
0000
0010
0000
1000
0010
1000
0000
0001
0100
0001
0000
,  // measure 30
2000
0000
0010
3020
0000
0000
0100
0230
,  // measure 31
0000
0000
0000
0000
0000
0301
1000
0010
,  // measure 32
2000
0000
0100
3200
0000
0320
0000
0032
,  // measure 33
0000
0203
0020
0000
0000
0000
0330
0000
,  // measure 34
0001
0000
2000
0020
0000
3030
0200
0002
,  // measure 35
0000
0000
0300
0000
0000
1003
0100
0010
,  // measure 36
0002
0000
0000
0000
0003
1000
0100
0010
,  // measure 37
0010
1000
0202
0303
,  // measure 38
1000
0100
1000
0100
0010
0001
0010
0001
,  // measure 39
1000
0000
0010
0000
1000
0000
0010
0000
0100
0000
0001
0000
1000
0010
0100
0000
,  // measure 40
0010
1000
0010
1000
0001
0010
0001
0010
,  // measure 41
0001
0000
1000
0000
0100
0000
0010
0000
0001
0000
1000
0000
0010
0100
0010
0000
,  // measure 42
1000
0000
1000
0000
0001
0000
1000
0000
0010
0000
0100
0000
0001
0100
0001
0000
,  // measure 43
1000
0000
1000
0000
0010
0000
0100
0000
0001
0000
0001
0000
1000
0001
1000
0000
,  // measure 44
0010
0000
0100
0000
0001
0010
0001
0000
1000
0100
1000
0000
0010
0100
0010
0000
,  // measure 45
1000
0000
0001
0000
0000
0110
0000
0000
1001
0000
0000
0000
0110
0000
0000
0000
,  // measure 46
2000
0000
0000
3001
0000
0100
0000
1000
0000
0100
0000
0001
0000
0000
1000
0000
,  // measure 47
0000
0001
0000
0010
0000
0100
0000
1000
0000
0000
0001
0000
1000
0000
0100
0000
,  // measure 48
0010
0000
0000
0001
0000
1000
0000
0010
0000
0010
0000
1000
0000
0000
0001
0000
,  // measure 49
0000
1000
0000
0000
0100
1000
0000
1000
0000
0000
0001
0000
0100
0000
0010
0000
,  // measure 50
1000
0000
0000
0001
0000
0010
0000
0100
0000
1000
0000
0010
0000
0000
1000
0000
,  // measure 51
0000
0001
0000
0010
0000
0100
0000
0010
0000
0000
0001
0000
1000
0000
0100
0000
,  // measure 52
1000
0000
0000
0001
0000
0010
0000
0100
0000
1000
0000
0010
0000
0000
0100
0000
,  // measure 53
0010
1010
0101
0000
0000
1000
0100
1000
,  // measure 54
0100
0000
0010
0000
0001
0000
0010
0001
0010
0000
0001
0000
0100
0000
0001
0000
,  // measure 55
0100
0000
0010
0000
1000
0000
0010
1000
0010
1000
0010
0000
0100
0000
0010
0000
,  // measure 56
0100
0000
0001
0000
1000
0000
0001
0000
1000
0000
0010
0100
0010
0000
0000
1010
,  // measure 57
0000
0000
0101
0000
0000
0000
1000
0001
1000
0000
0010
0000
0100
0000
0010
0000
,  // measure 58
1000
0000
0100
0000
0010
0000
0001
0010
0001
0000
1000
0000
0010
0000
0100
0000
,  // measure 59
0010
0000
1000
0000
0001
0010
0001
0010
0001
0000
1000
0000
0100
0000
0010
0000
,  // measure 60
0001
0000
0100
0000
0001
0000
1000
0001
1000
0000
0010
1000
0010
0000
0100
0001
,  // measure 61
0100
0000
0001
1000
0001
1000
0010
0100
0010
0000
1001
0000
0000
0000
0000
0000
;
