#TITLE:風にお願い;
#SUBTITLE:(Live Mix);
#ARTIST:FORTE ESCAPE;
#TITLETRANSLIT:Ask To Wind;
#SUBTITLETRANSLIT:;
#ARTISTTRANSLIT:;
#GENRE:;
#CREDIT:;
#BANNER:Ask To Wind (Live Mix).png;
#BACKGROUND:Ask To Wind (Live Mix)-bg.png;
#LYRICSPATH:;
#CDTITLE:;
#MUSIC:Ask To Wind (Live Mix).ogg;
#OFFSET:-2.344000;
#SAMPLESTART:81.201241;
#SAMPLELENGTH:13.714285;
#SELECTABLE:YES;
#BPMS:0.000000=210.000000
;
#STOPS:
;
#BGCHANGES:-8.000=Ask To Wind (Live Mix).avi=1.000=0=0=0=StretchNoLoop====,
99999=-nosongbg-=1.000=0=0=0 // don't automatically add -songbackground-
;
#KEYSOUNDS:;
#ATTACKS:;

//---------------dance-single - ----------------
#NOTES:
     dance-single:
     :
     Hard:
     13:
     0.661607,0.752578,0.699833,0.178389,0.034306,675.000000,573.000000,102.000000,26.000000,0.000000,0.000000,0.661607,0.752578,0.699833,0.178389,0.034306,675.000000,573.000000,102.000000,26.000000,0.000000,0.000000:
0000
0000
0000
0000
,
0000
0000
0000
0000
,
0000
0000
0000
0000
,
0000
0000
0000
0000
,
0000
0000
0000
0000
,
0000
0000
0000
0000
,
0000
1000
0010
1000
0001
0100
0001
1000
,
0100
0010
0001
0200
0000
0301
1000
0001
,
0020
0000
0000
0001
0000
0000
0001
0000
,
0000
0001
0000
0000
0031
0100
0010
1000
,
0002
0000
0000
1003
0000
0010
0100
0010
,
1000
0100
0010
0001
0000
1001
0000
1100
,
0000
0001
0010
0001
0100
0001
1000
0001
,
0100
0001
0010
0001
1000
0100
0010
0001
,
1001
0000
1000
1100
0000
0001
0011
0000
,
1000
1010
0000
0101
0000
1010
0000
0001
,
0202
0000
0000
0300
,
1000
0000
0010
0010
0000
1003
0000
0000
,
0102
0000
1000
0000
,
0103
0010
0000
0000
1001
0000
1000
0001
,
0100
0000
0000
0010
1000
0000
0000
0000
,
0001
0100
0010
0100
0001
0000
1000
0000
,
0101
0000
0000
1000
0010
0000
0000
0000
,
0010
1000
0100
1000
0010
0000
1001
0000
,
1100
0000
0000
0101
0000
0000
1001
0000
,
0011
0000
1000
1010
0000
0101
0000
0000
,
0002
0000
0103
0000
0001
1000
0001
1000
,
0000
1001
0000
0000
1010
0000
0001
0100
,
0010
0000
1001
0000
0100
0001
0100
0001
,
0000
1000
0100
1000
0100
0000
1000
0000
,
0002
0000
0010
0000
0100
0000
1003
0001
,
0000
1000
0100
0010
0001
0000
1000
0000
,
0101
0000
0000
1100
0000
0000
0110
0000
,
0101
0000
0001
1000
0001
0100
0000
1001
,
0000
1000
1000
0001
0100
0000
0001
1000
,
0000
0001
0001
1000
0100
0000
1000
0010
,
0000
1000
1000
0001
0010
0000
0001
0001
,
0000
1000
0100
0000
1000
0001
0000
0110
,
0000
0000
0001
1000
0001
0000
1000
1000
,
0000
0010
1000
0010
1000
0000
0001
0100
,
0020
1030
2000
3100
,
0001
0000
1000
0001
0100
0010
0000
1001
,
0000
0001
0001
1000
0100
0000
1000
0001
,
0000
1000
1000
0001
0100
0000
0001
1000
,
0000
0010
0010
1000
0001
0000
0001
1000
,
0000
0100
0100
0001
1000
0000
0010
0000
,
1000
0000
1100
0000
0001
0100
0001
0000
,
0010
0000
1010
0000
0001
0010
0001
0000
,
1000
1001
0000
0101
0000
0001
1000
0000
,
0001
0011
0000
1001
0000
1100
0000
1001
,
0000
0000
0010
1000
0002
0000
0100
0000
,
0000
1000
0100
1003
,
0001
0000
1000
0100
0000
0010
0001
0000
,
1000
0010
0000
1000
0100
0001
0000
1001
,
0000
0000
0001
0000
1000
0010
0100
0000
,
0002
0100
0000
1003
,
0001
0100
0001
0000
1000
0010
1000
0000
,
0001
0010
1000
0000
1000
0001
0000
1001
,
0000
0000
1000
0010
0200
0000
0001
0000
,
0000
0010
0001
0301
,
0001
0000
1000
0100
0000
1000
0010
0000
,
1000
0001
0100
0000
0010
0000
1010
0000
,
0101
0000
1000
0100
0000
0010
0001
0000
,
0110
0000
0001
0100
0000
0000
1010
0000
,
0101
0000
1000
0001
0000
1000
0100
0000
,
1001
0000
0001
0100
0000
0001
1000
0000
,
1001
0000
1000
0010
0000
0100
0010
0000
,
1001
0000
0001
0100
0000
0010
0100
0000
,
0001
0000
0100
0000
1000
0000
0001
0000
0010
0000
1000
0000
,
1001
0000
0010
0110
0000
0110
0000
0000
,
1000
0000
0101
0000
1000
0001
0000
1001
,
0000
1001
0000
0001
0010
0100
1000
0000
,
1001
0000
0101
0000
1000
0001
0000
1001
,
0000
1001
0000
1000
0010
0100
0001
0000
,
1001
0000
1100
0000
1000
0001
0000
1001
,
0000
1001
0000
0001
0100
0010
1000
0000
,
0101
0000
1001
0000
1000
0100
0000
0010
,
0001
0000
0100
0110
0000
0110
0000
0000
,
0001
0000
1010
0000
0001
1000
0000
0101
,
0000
0101
0000
1000
0100
0010
0001
0000
,
1000
0000
0101
0000
1000
0010
0000
1001
,
0000
1001
0000
1000
0010
0100
0001
0000
,
1001
0000
0001
0010
0000
0100
1000
0000
,
1001
0000
1000
0100
0000
0010
0001
0000
,
1100
0000
0001
0101
0000
0010
1010
0000
,
0001
1001
0000
1000
0100
0010
0001
2000
,
0000
0010
0000
3010
,
0000
0001
0100
0001
1000
0010
1000
0001
,
0010
0001
0010
0001
1000
0001
1000
0001
,
0010
0100
0000
1001
0000
1100
0000
0101
,
0000
2000
0002
0000
0000
0000
3003
0000
,
0000
0001
0100
0001
1000
0100
1000
0001
,
0010
0001
1000
0010
1000
0001
0010
0100
,
1000
0100
0010
0001
2000
0000
3001
0000
,
0200
0001
0000
0310
,
0020
0000
1000
0000
0000
0000
1030
0001
,
1000
0001
0100
0010
0100
0010
1000
0100
,
0010
0000
0001
2000
0000
0000
3010
0000
,
0001
0100
0001
1000
0100
1000
0001
0010
,
0001
1000
0010
0100
0001
0100
1000
0000
,
0101
0000
1000
1010
0000
0001
1001
0000
,
1000
1010
0000
1000
0100
0010
0001
0000
,
0100
0001
0101
0000
,
0010
1000
1010
0000
,
0100
0010
0110
0000
,
1000
0001
0101
0000
,
0001
1000
1010
0000
,
0100
0010
1001
0000
,
0001
0000
1100
0000
0000
0101
0000
0000
,
0011
0000
0000
1001
0000
1001
0000
0000
,
0010
1000
0100
0000
1000
0001
0100
0000
,
0011
0000
1000
0001
0010
0001
1000
0000
,
0001
0100
0010
0000
1000
0001
0100
0000
,
0101
0000
1000
0100
0001
0100
1000
0000
,
0011
0000
1010
0000
0001
0010
1000
0000
,
1010
0000
0011
0000
1000
0100
0001
0000
,
1000
0100
1000
0001
0100
0001
1000
0010
,
0100
0001
0100
0010
1000
0100
0010
0002
,
2000
0000
0000
0000
0000
0000
0000
3003
,
0000
0000
0000
0000
0000
0000
0000
0000
0000
0000
0000
0000
0000
0000
0000
0010
0000
0000
0000
0000
0000
0000
0000
0000
0000
0000
0100
0000
0000
0000
0000
0000
0000
0000
0000
0000
0010
0000
0000
0000
0000
0000
0000
0000
0000
0000
0100
0000
,
0000
0020
0000
2030
0000
3002
0000
0203
,
0000
0000
0000
0300
0000
0000
0000
0001
0000
0000
0100
0000
0000
1000
0000
0000
0000
0000
0000
0000
0000
1001
0000
0000
;

//---------------dance-double - ----------------
#NOTES:
     dance-double:
     :
     Hard:
     13:
     0.627302,0.710768,0.596917,0.137222,0.034306,640.000000,553.000000,87.000000,20.000000,0.000000,0.000000,0.627302,0.710768,0.596917,0.137222,0.034306,640.000000,553.000000,87.000000,20.000000,0.000000,0.000000:
00000000
00000000
00000000
00000000
,
00000000
00000000
00000000
00000000
,
00000000
00000000
00000000
00000000
,
00000000
00000000
00000000
00000000
,
00000000
00000000
00000000
00000000
,
00000000
00000000
00000000
00000000
,
00000000
00100000
10000000
00010000
01000000
00000000
00100000
10000000
,
01000000
00000000
00100000
00010000
00000000
00000100
00000000
00001000
,
00000020
00000000
00000000
00001000
00000000
00000000
00000100
00000000
,
00000000
00001000
00000000
00000000
00000130
00001000
00000010
00000100
,
00000002
00000000
00000000
00000103
00000000
00000001
00000100
00000010
,
00001000
00000100
00001000
00000010
00000000
00001010
00000000
00010010
,
00000000
00000100
00010000
00001000
00010000
00000000
00001000
00000000
,
00100000
00010000
01000000
00000000
00010000
10000000
01000000
00000000
,
10000000
01000000
00100000
00010000
01000000
00000000
00100000
00000000
,
10000000
01000000
00000000
00010000
00000000
00100000
00000000
00002000
,
00020000
00000000
00000000
00033000
,
00010100
00000000
00000100
00001000
00000000
00001010
00000000
00000000
,
00001002
00000000
00000010
00000000
,
00001003
00000010
00000000
00001000
00000100
00000000
00001000
00000100
,
00010000
00000000
00000000
00001000
00010000
00000000
00000000
00000000
,
00000100
00010000
00001000
00010000
00000100
00000000
00010000
00000000
,
00001000
00000000
00000000
01000000
00001000
00000000
00000000
00000000
,
01000000
00010000
01000000
00100000
10000000
00000000
01010000
00000000
,
10010000
00000000
00000000
11000000
00000000
00000000
00101000
00000000
,
00011000
00000000
00000000
00010010
00000000
00010010
00000000
00000000
,
00001000
00000000
00000001
00000000
00001000
00000100
00001000
00000000
,
00000001
00000100
00000001
00000000
00001100
00000000
00000001
00000010
,
00000100
00000000
00001001
00000000
00001000
00000100
00001000
00000000
,
00000010
00010000
00001000
00010000
00000010
00000000
00010000
00000000
,
00001000
00000000
01001000
00000000
00001000
01000000
00010000
00000000
,
01000000
00010000
10000000
00100000
10000000
00000000
00010000
00000000
,
01010000
00000000
10000000
01000000
00100000
01000000
10000000
00000000
,
01010000
00000000
10000000
00010000
01000000
00010000
00000000
10010000
,
00000000
10000000
00010000
10000000
01000000
00000000
00010000
00000000
,
00000000
00100000
00001000
00100000
00001000
00000000
00010000
00000000
,
00000000
00000010
00001000
00000010
00000100
00000000
00000010
00000000
,
00000000
00001000
00000100
00000010
00000001
00001000
00000000
00001001
,
00000000
00000001
00000010
00000001
00001000
00000000
00000100
00000000
,
00000000
00010000
00000100
00010000
00001000
00000000
00100000
00000000
,
00000000
00100000
10000000
00010000
01000000
00000000
00100000
00000000
,
00000000
10000000
01000000
00100000
00010000
01000000
00000000
10010000
,
00000000
00100000
00001000
00010000
00001000
00000000
00010000
00000010
,
00000000
00001000
00000010
00000100
00000001
00000000
00001000
00000100
,
00000000
00001000
00000010
00001000
00000100
00000000
00010000
00001000
,
00000000
01000000
00010000
10000000
00010000
00000000
11000000
00000000
,
00010000
00000000
01010000
00000000
10000000
00100000
01000000
00000000
,
00010000
00000000
10100000
00000000
00010000
01000000
00100000
00000000
,
10000000
00010000
00000000
01010000
00000000
00000000
01001000
00000000
,
00000000
00011000
00000000
00001100
00000000
00001001
00000000
00000101
,
00000000
00000000
00000010
00001000
00000200
00000000
00001000
00000000
,
00000000
00010000
00000000
00010300
,
00001000
00000000
00100000
00001000
00000000
00100000
00010000
00000000
,
10000000
01000000
00100000
00000000
10000000
00010000
00000000
01010000
,
00000000
00000000
10000000
00010000
01000000
00000000
00100000
00000000
,
20000000
00010000
00000000
30010000
,
10000000
01000000
10000000
01000000
00100000
00010000
00100000
00010000
,
01000000
00100000
01000000
00010000
00100000
00100000
00000000
00101000
,
00000000
00000000
00010000
00000100
00020000
00000000
00001000
00000000
,
00000000
00001000
00000000
00031000
,
00010000
00000000
00001000
00010000
00000000
00000100
00010000
00000000
,
00000100
00001000
00000010
00000001
,
00000110
00000000
00000001
00001000
00000000
00001100
00000000
00000000
,
00000101
00000000
00001000
00000100
00000000
00000000
00001010
00000000
,
00010010
00000000
00000010
00010000
00000000
00001000
00010000
00000000
,
00000010
00000000
00010000
00001000
00000000
00010000
00000100
00000000
,
00010000
00000000
00001000
01000000
00000000
00001000
00010000
00000000
,
00001000
00000000
00010000
00000100
00000000
00010000
00000010
00000000
,
00010000
00000000
00001000
00000000
00000100
00000000
00000010
00000000
00000001
00000000
00001000
00000000
,
00001001
00000000
00000000
00000011
00000000
00001100
00000000
00000000
,
00000101
00000000
00001010
00000000
00000001
00001000
00000001
00000000
,
00001100
00000000
00000010
00001000
00000100
00001000
00000010
00000000
,
00010000
00000000
00010100
00000000
00001000
00010000
00001000
00000000
,
00010100
00000000
00010000
00001000
01000000
00001000
00010000
00000000
,
00001000
00000000
01001000
00000000
01000000
00010000
01000000
00000000
,
10100000
00000000
00010000
10000000
01000000
10000000
00010000
00000000
,
10000000
00000000
01010000
00000000
10000000
00010000
00000000
00100000
,
00001000
00000000
00010000
00000010
00000000
00001010
00000000
00000000
,
00001000
00000000
00000001
00000000
00001000
00000100
00000001
00000000
,
00001000
00000000
00000100
00010000
00001000
00010000
00000100
00000000
,
00010000
00000000
00011000
00000000
00001000
00100000
00010000
00000000
,
00100000
00000000
00010000
01000000
10000000
01000000
00010000
00000000
,
10100000
00000000
00010000
00100000
00000000
00001000
00010000
00000000
,
00011000
00000000
00010000
00000100
00000000
00001000
00000010
00000000
,
00001001
00000000
00000000
00001100
00000000
00000000
01001000
00000000
,
00000000
11000000
00000000
00000000
10000000
01000000
00100000
00020000
,
00000000
01000000
00000000
01030000
,
00000000
10000000
00100000
10000000
00010000
01000000
00010000
10000000
,
01000000
10000000
00100000
00000000
01000000
00010000
01000000
00000000
,
00001000
00010000
00000000
00000100
00000000
00001000
00000000
00000001
,
00000000
00001000
00000200
00000000
00000000
00000000
00010300
00000000
,
00000000
00001000
00010000
00001000
01000000
00001000
00010000
00001000
,
00010000
00000010
00010000
00001000
00010000
00000100
00001000
00000010
,
00001000
00000100
00010000
00001000
02000000
00000000
03000000
00000000
,
00020000
10000000
00000000
01030000
,
20000000
00010000
00000000
31000000
,
10000000
00100000
10000000
00100000
01000000
00000000
01010000
00000000
,
11000000
00000000
00010000
00100000
00000000
00101000
00000000
00000000
,
00100000
00010000
01000000
00100000
10000000
00000000
00010000
00000000
,
00100000
00001000
00010000
00001000
00100000
00000000
00001000
00000000
,
00011000
00000000
00000000
00010010
00000000
00000000
00001001
00000000
,
00001000
00000100
00000000
00000010
00000001
00000200
00000000
00000310
,
00001000
00001100
00001010
00000000
,
00000100
00001100
00010100
00000000
,
00010000
00011000
01001000
00000000
,
01000000
01010000
10010000
00000000
,
00100000
00101000
00011000
00000000
,
00010000
00010010
00010100
00000000
,
00001000
00000000
00001010
00000000
00000000
00001001
00000000
00000000
,
00001100
00000000
00000000
00010100
00000000
00010100
00000000
00000000
,
00010000
00000000
00001000
00000000
00100000
00010000
01000000
00000000
,
00010000
00100000
01000000
10000000
01000000
00100000
00010000
00000000
,
00100000
00000000
00101000
00000000
00010000
00000100
00001000
00000000
,
00000010
00001000
00000100
00001000
00000010
00000100
00000001
00000000
,
00001000
00000000
00001100
00000000
00000100
00010000
00001000
00000000
,
00011000
00000000
00100000
00010000
01000000
00000000
10100000
00000000
,
10000000
00000000
00010000
01010000
00000000
10000000
11000000
00000000
,
00100000
00110000
00000000
01000000
00100000
00010000
10000000
00000000
,
20020000
00000000
00000000
00000000
,
30030000
00000000
00000000
00000000
00000000
00000000
00000000
00000000
01000000
00000000
00000000
00000000
00000000
00100000
00000000
00000000
00000000
00000000
01000000
00000000
00000000
00000000
00100000
00000000
,
00000000
10000000
00000000
00200000
00000000
00302000
00000000
00003200
,
00000000
00000000
00000000
00000302
00000000
00000000
00000000
00000000
00000100
00000003
00000000
00000010
00000000
00000000
00001000
00000000
00000000
00000000
00000000
00000000
00000000
00001001
00000000
00000000
;

//---------------dance-double - ----------------
#NOTES:
     dance-double:
     :
     Medium:
     9:
     0.389123,0.501719,0.322472,0.198972,0.000000,397.000000,350.000000,47.000000,29.000000,0.000000,0.000000,0.389123,0.501719,0.322472,0.198972,0.000000,397.000000,350.000000,47.000000,29.000000,0.000000,0.000000:
00000000
00000000
00000000
00000000
,
00000000
00000000
00000000
00000000
,
00000000
00000000
00000000
00000000
,
00000000
00000000
00000000
00000000
,
00000000
00000000
00000000
00000000
,
00000000
00000000
00000000
00000000
,
00000000
00000000
00000000
00000000
,
00000000
00000000
00000000
00000000
,
00200000
00010000
00000000
00010000
,
00000000
00000000
00310000
00000000
00000000
10000000
00010000
10000000
,
00020000
00000000
00000000
01030000
,
00010000
00000000
10000000
00010000
00000000
00010000
00000000
00010000
,
00000000
10000000
00100000
10000000
,
00010000
00100000
00010000
00100000
,
00001000
00000000
00000000
00011000
00000000
00000000
00010000
00000000
,
00000000
00011000
00000000
00000000
00010000
00000000
00000010
00000000
,
00000200
00000000
00000000
00000000
,
00000001
00000000
00000000
00000001
00000000
00000301
00000000
00000000
,
00002002
00000000
00000000
00003003
,
00000000
00000010
00000000
00000000
00001000
00000000
00000001
00001000
,
00000000
00000000
00000000
00000000
,
00000000
00000100
00010000
00000000
00001000
00000000
00010000
00000000
,
00000100
00000000
00000000
00000000
,
00000000
00010000
00001000
00000000
00100000
00000000
00001000
00000000
,
01000000
00000000
00000000
00010000
00000000
00000000
10000000
00000000
,
00100000
00000000
00000000
10010000
00000000
00000000
00000000
00000000
,
00200000
10000000
00000000
10300000
,
00000000
00010000
00000000
10000000
00000000
00010000
02000000
00000000
,
00000000
00010000
00000000
03010000
,
00000000
00100000
00001000
00000000
00010000
00000000
00001000
00000000
,
00020000
00000100
00000000
00030100
,
00000000
00001000
00000100
00000000
00001000
00000000
00000001
00000000
,
00001001
00000000
00000000
00001000
00000000
00000000
00000001
00000000
,
00001001
00000000
00000000
00000010
00000000
00000000
00000000
00001001
,
00000000
00001000
00000010
00000100
,
00000001
00000000
00000100
00000001
00000000
00000000
00001000
00000010
,
00001000
00000000
00000000
00000010
00000000
00001000
00000000
00000100
,
00000000
00000000
00010000
00000000
00001000
00010000
00000000
00001000
,
00000000
00100000
00010000
01000000
,
00100000
00000000
10000000
00010000
00000000
00000000
10000000
00000000
,
00020000
00030000
20000000
30000000
,
00100000
00000000
01000000
00000000
00010000
10000000
00000000
10010000
,
00000000
00100000
00001000
00010000
,
00001000
00000000
00010000
00000100
00000000
00000000
00001000
00000000
,
00000010
00000000
00000000
00000001
00000000
00000100
00000000
00000010
,
00000000
00000000
00001000
00000001
00000000
00000000
00001000
00000000
,
00000001
00001000
00000100
00001000
,
00000010
00000000
00000000
00001000
00000000
00000000
00000100
00000000
,
00010000
00000000
00000000
00001000
00000000
00000000
00010000
00000000
,
00000000
00001000
00000000
00100000
00000000
01000000
00000000
00010000
,
00000000
10000000
00020000
01000000
,
00000000
01000000
00000000
01030000
,
10000000
00000000
00000000
00100000
00000000
01000000
00000000
00001000
,
00000000
00000000
00010000
00000000
00000100
00001000
00000000
00000100
,
00000000
00001000
00000001
00000100
,
00000020
00000000
00000000
00001030
00000000
00000000
00000100
00000000
,
00000002
00000003
00002000
00003000
,
00000100
00000000
00010000
00000000
00001000
00010000
00000000
00011000
,
00000000
00100000
00010000
01000000
,
00200000
00000000
00000000
10000000
00000000
00000000
01300000
00000000
,
10000000
00000000
00000000
00010000
00000000
00000000
01000000
00000000
,
00100000
00000000
00000000
10010000
00000000
00000000
00000000
00000000
,
01000000
00000000
00000000
00010000
00000000
00000000
10000000
00000000
,
00010000
00000000
00000000
02000000
00000000
00000000
00010000
00000000
,
03010000
00000000
00000000
00100000
00000000
00000000
00001000
00000000
,
00010000
00000000
00000000
00001000
00000000
00000000
00010000
00000000
,
00000010
00000000
00000000
00001000
00000000
00000000
00000100
00000000
,
00001000
00000000
00000000
00000010
00000000
00000000
00000001
00000000
,
00001100
00000000
00011000
00000000
,
01010000
00000000
00000000
10010000
00000000
10010000
00000000
00000000
,
01000000
00000000
10010000
00000000
00000000
00010000
00000000
10000000
,
00010000
10000000
00000000
00000000
00010000
00000000
00010000
00000000
,
00100000
00000000
00010000
00000000
00000000
00100000
00000000
00010000
,
00100000
00010000
00000000
00000000
01000000
00000000
01000000
00000000
,
00001000
00000000
00010000
00000000
00000000
00001000
00000000
00010000
,
00001000
00010000
00000000
00000000
00000010
00000000
00000010
00000000
,
00001000
00000000
00000001
00000000
00000000
00001100
00000000
00000000
,
00000101
00000000
00000000
00001100
00000000
00001100
00000000
00000000
,
00000100
00000000
00010000
00000000
00000000
00001000
00000000
00010000
,
00001000
00010000
00000000
00000000
00001000
00000000
00100000
00000000
,
00010000
00000000
10000000
00000000
00000000
00100000
00000000
10000000
,
00010000
10000000
00000000
00000000
00100000
00000000
00100000
00000000
,
10000000
00000000
00000000
01000000
00000000
00000000
00010000
00000000
,
00001000
00000000
00000000
00000100
00000000
00000000
00000001
00000000
,
00001001
00000000
00000000
00001100
00000000
00000000
00001001
00000000
,
00000000
00000101
00000000
00000000
00001001
00000000
00000000
00000020
,
00000000
00000000
00000000
00000030
,
00000000
00000001
00000100
00001000
,
00000010
00000000
00001000
00000100
,
00010000
00000100
00000000
00010000
00000000
00001000
00000000
01000000
,
00000000
00010000
02000000
00000000
00000000
00000000
03000000
00000000
,
00000000
10100000
00000000
00000000
01010000
00000000
00000000
10010000
,
00000000
10000000
01000000
00020000
,
00001000
00001000
00030100
00000000
,
00000020
00000000
00000030
00000000
,
00002000
00000000
00003000
00000001
,
00001000
00000100
00010000
00001000
,
00100000
00010000
01000000
00000000
,
00200000
10000000
00000000
01300000
,
02000000
00010000
00000000
03100000
,
10010000
00000000
00000000
00110000
00000000
00000000
10010000
00000000
,
00000000
11000000
00000000
00000000
10010000
00000000
00000000
00000000
,
00100000
00100000
10010000
00000000
,
00100000
00100000
00011000
00000000
,
00000010
00000010
00011000
00000000
,
00000100
00000100
00011000
00000000
,
01000000
01000000
00011000
00000000
,
00000010
00000010
00001100
00000000
,
00000001
00000000
00001001
00000000
00000000
00001100
00000000
00000000
,
00001001
00000000
00000000
00001000
00000000
00000100
00000000
00000000
,
00010000
00000000
00001000
00000000
00000000
00010000
00000000
00010000
,
00000000
00000100
00000000
00000000
00100000
00001000
00100000
00000000
,
00010000
00000000
00010000
00000000
00000000
01000000
00000000
00010000
,
00000000
10000000
00000000
00000000
00010000
10000000
00010000
00000000
,
20000000
30100000
00020000
00130000
,
20000000
31000000
00200000
00301000
,
00011000
00000000
00000000
00010100
00000000
00000000
00011000
00000000
,
00000000
01001000
00000000
00010000
00000000
00001000
00000000
00000000
,
00022000
00000000
00000000
00000000
,
00000000
00000000
00000000
00000000
,
00000000
00000000
00000000
00000000
,
00000000
00000000
00000000
00000000
00000000
00000000
00000000
00033000
;

//---------------dance-double - ----------------
#NOTES:
     dance-double:
     :
     Easy:
     6:
     0.247980,0.376289,0.075472,0.404806,0.000000,253.000000,242.000000,11.000000,59.000000,0.000000,0.000000,0.247980,0.376289,0.075472,0.404806,0.000000,253.000000,242.000000,11.000000,59.000000,0.000000,0.000000:
00000000
00000000
00000000
00000000
,
00000000
00000000
00000000
00000000
,
00000000
00000000
00000000
00000000
,
00000000
00000000
00000000
00000000
,
00000000
00000000
00000000
00000000
,
00000000
00000000
00000000
00000000
,
00000000
00000000
00000000
00000000
,
00000000
00000000
00000000
00000000
,
00200000
00000000
00000000
00000000
,
00300000
00000000
00000000
00000000
,
00002000
00000000
00003000
00010000
,
00000000
00010000
00000000
00000100
,
00000000
00001000
00000001
00001000
,
00000100
00001000
00000010
00001000
,
00000001
00000000
00000000
00000100
00000000
00000000
00001000
00000000
,
00000000
00000100
00000000
00000100
00000000
00000100
00000000
00000000
,
00020000
00000000
00000000
00000000
,
00002000
00000000
00000000
00033000
,
00000000
00000000
00000000
00000000
,
01000000
00000000
00010000
00000000
,
00100000
00000000
00000000
00000000
,
00000100
00000000
00001000
00000000
,
00000010
00000000
00000000
00000000
,
00000001
00000000
00001000
00000000
,
00001100
00000000
00000000
00000000
,
00100000
00000000
00010000
00000000
,
20000000
00000000
00000000
00000000
,
00000000
30010000
00000000
00000000
01000000
00000000
00010000
00000000
,
00000000
10000000
00000000
10000000
,
00000000
00010000
00100000
00010000
,
01000000
00010000
00000000
00010000
,
00000000
00100000
00001000
00010000
,
00001000
00000000
00000000
00010000
00000000
00000000
00000000
00000000
,
00001000
00000000
00000000
00010000
00000000
00000000
00000000
00000000
,
00000000
00000001
00001000
00000100
,
00000000
00001000
00000001
00000100
,
00000000
00000001
00001000
00000010
,
00000000
00001000
00000200
00000300
,
00000000
00010000
00001000
00100000
,
00000000
00001000
00010000
00001000
,
00010000
00000000
00001000
00000000
,
01000000
00100000
10010000
00000000
,
00000000
00100000
10000000
00100000
,
00000000
01000000
00010000
01000000
,
00000000
00001000
00010000
00001000
,
00000000
00010000
00000100
00000000
,
00002000
00003000
00000002
00000003
,
00000200
00000300
00000020
00000030
,
00001001
00000000
00000000
00000100
00000000
00000000
00000100
00000000
,
00000000
00000001
00000000
00001000
00000000
00000001
00000000
00001000
,
00000000
00000000
00000020
00000000
,
00000000
00000000
00000030
00000000
,
00000002
00000003
00000200
00000300
,
00020000
00000000
00030000
00000000
00001000
00000000
00000000
00011000
,
00000000
00000000
00100000
00000000
,
00020000
00000000
00000000
00030000
,
20000000
30000000
00200000
00300000
,
00002000
00000000
00003000
00000000
00010000
00001000
00000000
00011000
,
00000000
00000000
00000020
00000000
,
00000000
00000000
00000030
00000000
,
00002000
00003000
00020000
00030000
,
02000000
03000000
20000000
30000000
,
00100000
00000000
00000000
00100000
00000000
00000000
00000000
00000000
,
01000000
00000000
00000000
01000000
00000000
00000000
00000000
00000000
,
00010000
00000000
00000000
00010000
00000000
00000000
00000000
00000000
,
00001000
00000000
00000000
00001000
00000000
00000000
00000000
00000000
,
00010000
00000000
00000000
00010000
00000000
00000000
00000000
00000000
,
00000100
00000000
00000000
00000100
00000000
00000000
00000000
00000000
,
00001001
00000000
00000110
00000000
,
00001001
00000000
00000000
00000010
00000000
00000010
00000000
00000000
,
00000002
00000003
00002000
00003000
,
00000010
00000100
00000010
00000000
,
00002000
00003000
00000002
00000003
,
00000100
00000010
00000100
00000000
,
00002000
00003000
00000200
00000300
,
00020000
00030000
00002000
00003000
,
02000000
03000000
00200000
00300000
,
10000000
01000000
00010000
00000000
,
00200000
00300000
02000000
03000000
,
00010000
10000000
00010000
10000000
,
02000000
03000000
00200000
00300000
,
10000000
00010000
10000000
00000000
,
00020000
00030000
00200000
00300000
,
00002000
00003000
00020000
00030000
,
00000010
00000000
00000000
00001000
00000000
00000000
00000001
00000000
,
00000000
00001000
00000000
00000000
00000010
00000000
00000000
00002002
,
00000000
00000000
00000000
00003003
,
00000000
00000001
00000000
00000100
,
00000000
00000001
00001000
00000100
,
00000000
00001000
00000100
00010000
,
00000000
00002000
00000000
00003000
,
00000000
00100000
00000000
00000000
00010000
00000000
00000000
01000000
,
00000000
10000000
00000000
00010000
,
10000000
10000000
00010000
00000000
,
00200000
00000000
00000000
00300000
,
00002000
00000000
00003000
00000000
,
00010000
00000100
00010000
00000000
,
00000010
00001000
00000010
00000000
,
00002000
00000000
00003002
00000000
,
00002003
00000000
00003200
00000000
,
00010300
00000000
00000000
00010000
00000000
00000000
00001000
00000000
,
00000000
00001000
00000000
00000000
00022000
00000000
00000000
00000000
,
00000000
00000000
00033000
00000000
,
00200000
00000000
01300000
00000000
,
02000000
00000000
03010000
00000000
,
00002000
00000000
00013000
00000000
,
00000200
00000000
00001300
00000000
,
00000002
00000000
00000013
00000000
,
00000000
00000000
00000100
00000000
00000000
00010000
00000000
00000000
,
00000100
00000000
00000000
00010000
00000000
00010000
00000000
00000000
,
00000000
00000100
00000000
00010000
,
00001000
01000000
00001000
00010000
,
00000000
00000100
00000000
00010000
,
00001000
00010000
00000010
00010000
,
00001000
00000000
00100000
00010000
,
01000000
00000000
10000000
00000000
,
00100000
00000000
00001000
00000000
,
00010000
00000010
00010000
00000000
,
00022000
00000000
00000000
00000000
,
00000000
00000000
00000000
00000000
,
00000000
00000000
00000000
00000000
,
00000000
00000000
00000000
00000000
00000000
00000000
00000000
00033000
;

//---------------dance-single - ----------------
#NOTES:
     dance-single:
     :
     Easy:
     6:
     0.246020,0.376289,0.096056,0.425389,0.000000,251.000000,237.000000,14.000000,62.000000,0.000000,0.000000,0.246020,0.376289,0.096056,0.425389,0.000000,251.000000,237.000000,14.000000,62.000000,0.000000,0.000000:
0000
0000
0000
0000
,
0000
0000
0000
0000
,
0000
0000
0000
0000
,
0000
0000
0000
0000
,
0000
0000
0000
0000
,
0000
0000
0000
0000
,
0000
0000
0000
0000
,
0000
0000
0000
0000
,
0002
0000
0000
0000
,
0003
0000
0000
0000
,
2000
0000
0000
0001
,
0000
3001
0000
0100
,
0000
0001
0010
0001
,
1000
0001
0100
0000
,
0001
0000
0000
0100
0000
0000
1000
0000
,
0000
0010
0000
0010
0000
0010
0000
0000
,
0002
0000
0000
0000
,
2000
0000
0000
3003
,
0000
0000
0000
0000
,
0100
0000
0001
0000
,
0010
0000
0000
0000
,
0100
0000
1000
0000
,
0010
0000
0000
0000
,
0001
0000
1000
0000
,
1001
0000
0000
0000
,
0010
0000
0100
0000
,
2002
0000
0000
0003
,
0000
3001
0000
0000
0100
0000
0010
0000
,
0000
1000
0000
1000
,
0000
0001
1000
0001
,
1000
0001
0000
0100
,
0000
0010
0100
0010
,
1000
0000
0000
0001
0000
0000
0000
0000
,
1000
0000
0000
0001
0000
0000
0000
0000
,
0000
0001
1000
0100
,
0000
1000
0001
0100
,
0000
0001
1000
0010
,
0000
1000
0002
0003
,
0000
1000
0001
0010
,
0000
0001
1000
0000
,
0002
0003
2000
3000
,
0010
1000
0100
0000
,
0000
0010
0100
0010
,
0000
1000
0001
1000
,
0000
0100
0010
0100
,
0000
0001
0100
0000
,
0002
0003
0020
0030
,
0200
0300
2000
3000
,
1001
0000
0000
0010
0000
0000
0010
0000
,
0000
1000
0000
0001
0000
1000
0000
0001
,
0000
0000
0200
0000
,
0000
0000
0300
0000
,
2000
3000
0200
0300
,
0002
0000
0003
0000
0100
0000
0000
1001
,
0000
0000
0010
0000
,
2002
0000
0000
3003
,
2000
3000
0020
0030
,
0002
0000
0003
0000
0100
0000
0000
1001
,
0000
0000
0020
0000
,
0000
0000
0030
0000
,
2000
3000
0200
0300
,
0020
0030
0002
0003
,
0010
0000
0000
0010
0000
0000
0000
0000
,
0100
0000
0000
0100
0000
0000
0000
0000
,
0001
0000
0000
0001
0000
0000
0000
0000
,
1000
0000
0000
1000
0000
0000
0000
0000
,
0001
0000
0000
0001
0000
0000
0000
0000
,
1000
0000
0000
1000
0000
0000
0000
0000
,
1001
0000
0110
0000
,
1001
0000
0000
0010
0000
0010
0000
0000
,
0002
0003
2000
3000
,
0010
0100
0010
0000
,
2000
3000
0002
0003
,
0100
0010
0100
0000
,
0002
0003
2000
3000
,
0002
0003
2000
3000
,
0001
0010
0100
0000
,
1000
0100
0010
0000
,
0002
0003
0200
0300
,
0001
1000
0001
0000
,
2000
3000
0200
0300
,
1000
0001
1000
0000
,
0002
0003
0020
0030
,
0200
0300
2000
3000
,
0010
0000
0000
1000
0000
0000
0001
0000
,
0000
1000
0000
0000
0010
0000
0000
2002
,
0000
0000
0000
3003
,
0000
0001
0000
0100
,
0000
1000
0001
1000
,
0000
0001
1000
0001
,
0000
0020
0000
0030
,
0000
0010
0000
0000
0001
0000
0000
0100
,
0000
1000
0000
0001
,
1000
1000
1001
0000
,
0020
0000
0000
0030
,
2002
0000
3003
0000
,
0001
1000
0001
0000
,
0100
0010
0100
0000
,
0002
0000
2003
0000
,
3002
0000
0203
0000
,
0301
0000
0000
0001
0000
0000
1000
0000
,
0000
1000
0000
0000
2002
0000
0000
0000
,
0000
0000
3003
0000
,
0020
0000
0130
0000
,
0200
0000
0310
0000
,
0002
0000
1003
0000
,
2000
0000
3001
0000
,
0200
0000
0310
0000
,
0000
0000
1000
0000
0000
0001
0000
0000
,
1000
0000
0000
0001
0000
0001
0000
0000
,
0000
1000
0000
0001
,
1000
0100
1000
0001
,
0000
0010
0000
0001
,
0100
0001
1000
0001
,
1000
0000
0010
0000
,
0100
0000
0001
0000
,
0010
0000
1000
0000
,
0100
0000
0001
0000
,
2002
0000
0000
0000
,
0000
0000
0000
0000
,
0000
0000
0000
0000
,
0000
0000
0000
0000
0000
0000
0000
3003
;

//---------------dance-single - ----------------
#NOTES:
     dance-single:
     :
     Medium:
     9:
     0.387163,0.501719,0.315611,0.205833,0.000000,395.000000,349.000000,46.000000,30.000000,0.000000,0.000000,0.387163,0.501719,0.315611,0.205833,0.000000,395.000000,349.000000,46.000000,30.000000,0.000000,0.000000:
0000
0000
0000
0000
,
0000
0000
0000
0000
,
0000
0000
0000
0000
,
0000
0000
0000
0000
,
0000
0000
0000
0000
,
0000
0000
0000
0000
,
0000
0000
0000
0000
,
0000
0000
0000
0000
,
0200
0001
0000
0001
,
0000
0000
0301
0000
0000
1000
0001
1000
,
0002
0000
0000
0103
,
0001
0000
1000
0001
0000
0001
0000
0001
,
0000
1000
0010
1000
,
0001
0010
0001
0010
,
0001
0000
0000
0100
0000
0000
1000
0000
,
0000
0001
0000
0000
1000
0000
0001
0000
,
0200
0000
0000
0000
,
0010
0000
0000
0010
0000
0310
0000
0000
,
2002
0000
0000
3003
,
0000
0100
0000
0000
0001
0000
1000
0001
,
0000
0000
0000
0000
,
0000
1000
0001
0000
0100
0000
0001
0000
,
1000
0000
0000
0000
,
0000
0001
1000
0000
0010
0000
1000
0000
,
0001
0000
0000
0100
0000
0000
0001
0000
,
1000
0000
0000
1001
0000
0000
0000
0000
,
0020
1000
0000
1030
,
0000
0001
0000
1000
0000
0001
0200
0000
,
0000
0001
0000
0301
,
0000
1000
0001
0000
1000
0000
0001
0000
,
0200
0001
0000
0301
,
0000
1000
0001
0000
1000
0000
0010
0000
,
1001
0000
0000
0100
0000
0000
0010
0000
,
1001
0000
0000
0010
0000
0000
0000
1001
,
0000
0001
0010
0100
,
1000
0000
0001
0100
0000
0000
0001
1000
,
0001
0000
0000
1000
0000
0100
0000
0010
,
0000
0000
0001
0000
1000
0001
0000
1000
,
0000
0010
0001
0100
,
0010
0000
1000
0001
0000
0000
1000
0000
,
0002
0003
2000
3000
,
0010
0000
0100
0000
0001
1000
0000
1001
,
0000
0010
0100
0001
,
1000
0000
0001
1000
0000
0000
0001
0000
,
0100
0000
0000
0001
0000
1000
0000
0010
,
0000
0000
1000
0001
0000
0000
1000
0000
,
0001
0100
0010
0100
,
0001
0000
0000
1000
0000
0000
0100
0000
,
1000
0000
0000
0001
0000
0000
1000
0000
,
0000
0001
0000
0010
0000
0100
0000
1000
,
0000
0001
2000
0100
,
0000
0100
0000
3100
,
1000
0000
0000
0010
0000
0100
0000
0001
,
0000
0000
1000
0000
0001
0000
0000
1001
,
0000
0010
1000
0001
,
0200
0000
0000
0310
0000
0000
0001
0000
,
2000
3000
0002
0003
,
0100
0000
0001
0000
1000
0001
0000
1001
,
0000
0010
0001
0100
,
0020
0000
0000
1000
0000
0000
0130
0000
,
1000
0000
0000
0001
0000
0000
0100
0000
,
0010
0000
0000
1001
0000
0000
0000
0000
,
0100
0000
0000
0001
0000
0000
1000
0000
,
0001
0000
0000
0200
0000
0000
0001
0000
,
0301
0000
0000
0010
0000
0000
1000
0000
,
0001
0000
0000
1000
0000
0000
0001
0000
,
0100
0000
0000
1000
0000
0000
0100
0000
,
1000
0000
0000
0001
0000
0000
1000
0000
,
0101
0000
1001
0000
,
0110
0000
0000
1001
0000
1001
0000
0000
,
0100
0000
1001
0000
0000
0001
0000
1000
,
0001
1000
0000
0000
0001
0000
0001
0000
,
0010
0000
0001
0000
0000
1000
0000
0001
,
0010
0001
0000
0000
1000
0000
0001
0000
,
0100
0000
0010
0000
0000
1000
0000
0001
,
1000
0001
0000
0000
0100
0000
0100
0000
,
1000
0000
0001
0000
0000
1100
0000
0000
,
0101
0000
0000
1001
0000
1001
0000
0000
,
0010
0000
0100
0000
0000
0001
0000
1000
,
0001
1000
0000
0000
0010
0000
0100
0000
,
0001
0000
1000
0000
0000
0010
0000
1000
,
0001
1000
0000
0000
0010
0000
0010
0000
,
1000
0000
0000
0100
0000
0000
1000
0000
,
0001
0000
0000
0100
0000
0000
0001
0000
,
1001
0000
0000
1010
0000
0000
1001
0000
,
0000
0011
0000
0000
1001
0000
0000
0020
,
0000
0000
0000
0030
,
0000
0001
0100
0001
,
1000
0100
0010
0001
,
0100
0000
0000
0001
0000
1000
0000
0001
,
0000
1000
0200
0000
0000
0000
0300
0000
,
0000
1010
0000
0000
0101
0000
0000
1001
,
0000
1000
0100
0020
,
0001
0001
0031
0000
,
0200
0000
0300
0000
,
0020
0000
0030
1000
,
0001
0100
0001
1000
,
0010
1000
0200
0300
,
0020
1000
0000
0130
,
0200
0001
0000
0310
,
1001
0000
0000
0011
0000
0000
1001
0000
,
0000
1100
0000
0000
1001
0000
0000
0000
,
0010
0010
1001
0000
,
0010
0010
1001
0000
,
0100
0010
1001
0000
,
0010
0100
1001
0000
,
0100
0001
1001
0000
,
0010
1000
1001
0000
,
0100
0000
0101
0000
0000
1001
0000
0000
,
1100
0000
0000
1001
0000
1001
0000
0000
,
0001
0000
1000
0000
0000
0001
0000
0001
,
0000
0100
0000
0000
1000
0001
1000
0000
,
0001
0000
0001
0000
0000
1000
0000
1000
,
0000
0010
0000
0000
0001
1000
0001
0000
,
2000
3010
0002
0013
,
2000
3100
0020
0031
,
0100
0000
0000
1001
0000
0000
1001
0000
,
0000
0100
0000
0001
0000
1000
0000
0000
,
2002
0000
0000
0000
,
0000
0000
0000
0000
,
0000
0000
0000
0000
,
0000
0000
0000
0000
0000
0000
0000
3003
;

//---------------dance-single - ----------------
#NOTES:
     dance-single:
     :
     Beginner:
     5:
     0.166627,0.250859,0.048028,0.198972,0.000000,170.000000,163.000000,7.000000,29.000000,0.000000,0.000000,0.166627,0.250859,0.048028,0.198972,0.000000,170.000000,163.000000,7.000000,29.000000,0.000000,0.000000:
0000
0000
0000
0000
,
0000
0000
0000
0000
,
0000
0000
0000
0000
,
0000
0000
0000
0000
,
0000
0000
0000
0000
,
0000
0000
0000
0000
,
0000
0000
0000
0000
,
0000
0000
0000
0000
,
0002
0000
0000
0000
,
0003
0000
0000
0000
,
2000
0000
3000
0000
,
0001
0000
0001
0000
,
0000
0010
0000
0100
,
0000
0010
0000
0100
,
0100
0000
0000
0001
,
0000
0010
0000
0000
,
2002
0000
0000
0000
,
0000
0000
0000
3003
,
0000
0000
0000
0000
,
0100
0000
0001
0000
,
0010
0000
0000
0000
,
0100
0000
1000
0000
,
0010
0000
0000
0000
,
0001
0000
1000
0000
,
0001
0000
0000
0000
,
0010
0000
0100
0000
,
0020
0000
0030
0000
,
0001
0000
0100
0000
,
0010
0000
0000
0000
,
0001
0000
1000
0000
,
0001
0000
0000
0000
,
0100
0000
0010
0000
,
1000
0000
0000
0000
,
0001
0000
0000
0000
,
0000
0000
0001
0000
,
0000
0000
0001
0000
,
0000
0000
1000
0000
,
0000
0000
1000
0000
,
0000
0000
0001
0000
,
0000
0000
1000
0000
,
0001
0000
1000
0000
,
0010
0000
0100
0000
,
0000
0000
0100
0000
,
0000
0000
0100
0000
,
0000
0000
0010
0000
,
0000
0000
0010
0000
,
0001
0000
0010
0000
,
0100
0000
1000
0000
,
0001
0000
1000
0000
,
0000
0001
0000
0001
0000
0001
0000
0000
,
0000
0000
0200
0000
,
0000
0000
0300
0000
,
1000
0000
0100
0000
,
0001
0000
0000
0000
0000
0000
0000
1001
,
0000
0000
0000
0000
,
0002
0000
0003
0000
,
1000
0000
0010
0000
,
0001
0000
0000
0000
0000
0000
0000
1001
,
0000
0000
0020
0000
,
0000
0000
0030
0000
,
1000
0000
0100
0000
,
0010
0000
0001
0000
,
0020
0000
0030
0000
,
0200
0000
0300
0000
,
0002
0000
0003
0000
,
2000
0000
3000
0000
,
0002
0000
0003
0000
,
2000
0000
3000
0000
,
0010
0000
0010
0000
,
0020
0000
0030
0000
,
0001
0000
1000
0000
,
0010
0000
0000
0000
,
1000
0000
0001
0000
,
0010
0000
0000
0000
,
0001
0000
1000
0000
,
0001
0000
1000
0000
,
0001
1000
0001
0000
,
0010
0000
0010
0000
,
0001
0000
0100
0000
,
1000
0000
0000
0000
,
1000
0000
0100
0000
,
0001
0000
0000
0000
,
0001
0000
0010
0000
,
0100
0000
1000
0000
,
0001
0000
0000
1000
0000
0000
0001
0000
,
0000
0000
0000
0000
,
2002
0000
3003
0000
,
0000
0001
0000
0001
,
0000
1000
0000
1000
,
0000
0001
0000
0001
,
0000
0200
0000
0300
,
0000
0010
0000
0001
,
0000
0100
0000
1000
,
1000
0000
1001
0000
,
0020
0000
0030
0000
,
0200
0000
0300
0000
,
0001
0000
0001
0000
,
1000
0000
1000
0000
,
0001
0000
1000
0000
,
0001
0000
1000
0000
,
0001
0000
0000
0001
0000
0000
0001
0000
,
0000
0000
2002
0000
,
0000
0000
3003
0000
,
0020
0000
0030
0000
,
0200
0000
0300
0000
,
0002
0000
0003
0000
,
2000
0000
3000
0000
,
0200
0000
0300
0000
,
0000
0000
1000
0000
0000
0001
0000
0000
,
1000
0000
0000
0001
0000
0000
0000
0000
,
0000
1000
0000
0001
,
0000
1000
0000
0001
,
0000
0100
0000
0100
,
0000
0010
0000
0010
,
0010
0000
0001
0000
,
0100
0000
1000
0000
,
0010
0000
1000
0000
,
0100
0000
0001
0000
,
2002
0000
0000
0000
,
0000
0000
0000
0000
,
0000
0000
0000
0000
,
0000
0000
0000
0000
0000
0000
0000
3003
;

//---------------dance-threepanel - ----------------
#NOTES:
     dance-threepanel:
     :
     Challenge:
     1:
     0.002940,0.127617,0.006861,0.000000,0.000000,3.000000,1.000000,1.000000,0.000000,0.000000,1.000000,0.002940,0.127617,0.006861,0.000000,0.000000,3.000000,1.000000,1.000000,0.000000,0.000000,1.000000:
// measure 0 000 000 000 000
,  // measure 1 000 000 000 000
,  // measure 2 000 000 000 000
,  // measure 3 000 000 000 000
,  // measure 4 000 000 000 000
,  // measure 5 000 000 000 000
,  // measure 6 000 000 000 000
,  // measure 7 000 000 000 000
,  // measure 8 000 000 000 000
,  // measure 9 000 000 000 000
,  // measure 10 000 000 000 000
,  // measure 11 000 000 000 000
,  // measure 12 000 000 000 000
,  // measure 13 000 000 000 000
,  // measure 14 000 000 000 000
,  // measure 15 000 000 000 000
,  // measure 16 000 000 000 000
,  // measure 17 000 000 000 000
,  // measure 18 000 000 000 000
,  // measure 19 000 000 000 000
,  // measure 20 000 000 000 000
,  // measure 21 000 000 000 000
,  // measure 22 000 000 000 000
,  // measure 23 000 000 000 000
,  // measure 24 000 000 000 000
,  // measure 25 000 000 000 000
,  // measure 26 000 000 000 000
,  // measure 27 000 000 000 000
,  // measure 28 000 000 000 000
,  // measure 29 000 000 000 000
,  // measure 30 000 000 000 000
,  // measure 31 000 000 000 000
,  // measure 32 000 000 000 000
,  // measure 33 000 000 000 000
,  // measure 34 000 000 000 000
,  // measure 35 000 000 000 000
,  // measure 36 000 000 000 000
,  // measure 37 000 000 000 000
,  // measure 38 000 000 000 000
,  // measure 39 000 000 000 000
,  // measure 40 000 000 000 000
,  // measure 41 000 000 000 000
,  // measure 42 000 000 000 000
,  // measure 43 000 000 000 000
,  // measure 44 000 000 000 000
,  // measure 45 000 000 000 000
,  // measure 46 000 000 000 000
,  // measure 47 000 000 000 000
,  // measure 48 000 000 000 000
,  // measure 49 000 000 000 000
,  // measure 50 000 000 000 000
,  // measure 51 000 000 000 000
,  // measure 52 000 000 000 000
,  // measure 53 000 000 000 000
,  // measure 54 000 000 000 000
,  // measure 55 000 000 000 000
,  // measure 56 000 000 000 000
,  // measure 57 000 000 000 000
,  // measure 58 000 000 000 000
,  // measure 59 000 000 000 000
,  // measure 60 000 000 000 000
,  // measure 61 000 000 000 000
,  // measure 62 000 000 000 000
,  // measure 63 000 000 000 000
,  // measure 64 000 000 000 000
,  // measure 65 000 000 000 000
,  // measure 66 000 000 000 000
,  // measure 67 000 000 000 000
,  // measure 68 000 000 000 000
,  // measure 69 000 000 000 000
,  // measure 70 000 000 000 000
,  // measure 71 000 000 000 000
,  // measure 72 000 000 000 000
,  // measure 73 000 000 000 000
,  // measure 74 000 000 000 000
,  // measure 75 000 000 000 000
,  // measure 76 000 000 000 000
,  // measure 77 000 000 000 000
,  // measure 78 000 000 000 000
,  // measure 79 000 000 000 000
,  // measure 80 000 000 000 000
,  // measure 81 000 000 000 000
,  // measure 82 000 000 000 000
,  // measure 83 000 000 000 000
,  // measure 84 000 000 000 000
,  // measure 85 000 000 000 000
,  // measure 86 000 000 000 000
,  // measure 87 000 000 000 000
,  // measure 88 000 000 000 000
,  // measure 89 000 000 000 000
,  // measure 90 000 000 000 000
,  // measure 91 000 000 000 000
,  // measure 92 000 000 000 000
,  // measure 93 000 000 000 000
,  // measure 94 000 000 000 000
,  // measure 95 000 000 000 000
,  // measure 96 000 000 000 000
,  // measure 97 000 000 000 000
,  // measure 98 000 000 000 000
,  // measure 99 000 000 000 000
,  // measure 100 000 000 000 000
,  // measure 101 000 000 000 000
,  // measure 102 000 000 000 000
,  // measure 103 000 000 000 000
,  // measure 104 000 000 000 000
,  // measure 105 000 000 000 000
,  // measure 106 000 000 000 000
,  // measure 107 000 000 000 000
,  // measure 108 000 000 000 000
,  // measure 109 000 000 000 000
,  // measure 110 000 000 000 000
,  // measure 111 000 000 000 000
,  // measure 112 000 000 000 000
,  // measure 113 000 000 000 000
,  // measure 114 000 000 000 000
,  // measure 115 000 000 000 000
,  // measure 116 000 000 000 000
,  // measure 117 000 000 000 000
,  // measure 118 000 000 000 000
,  // measure 119 000 000 000 000
,  // measure 120 000 000 000 000
,  // measure 121 000 000 000 000
,  // measure 122 000 000 000 000
,  // measure 123 000 000 000 000
,  // measure 124 111 000 000 000
;
