#TITLE:As I go;
#SUBTITLE:;
#ARTIST:Akira Complex & Slyleaf;
#TITLETRANSLIT:;
#SUBTITLETRANSLIT:;
#ARTISTTRANSLIT:;
#GENRE:;
#CREDIT:;
#BANNER:As I go.png;
#BACKGROUND:As I go-bg.png;
#LYRICSPATH:;
#CDTITLE:;
#MUSIC:As I go.ogg;
#OFFSET:1.498999;
#SAMPLESTART:39.249718;
#SAMPLELENGTH:13.584904;
#LASTBEATHINT:0.881565;
#SELECTABLE:YES;
#BPMS:0.000000=106.000000
;
#STOPS:
;
#BGCHANGES:;
#KEYSOUNDS:;
#ATTACKS:;

//---------------dance-single - ----------------
#NOTES:
     dance-single:
     :
     Hard:
     12:
     0.443644,0.492598,0.142782,0.071391,0.517585,348.000000,332.000000,16.000000,8.000000,0.000000,0.000000,0.443644,0.492598,0.142782,0.071391,0.517585,348.000000,332.000000,16.000000,8.000000,0.000000,0.000000:
0000
0000
0000
0000
,
0000
0000
0000
0000
,
0000
0000
0000
0000
,
0000
0000
0000
0000
,
0000
0000
0000
0000
,
0000
0000
0000
0000
,
1000
0000
0000
0001
1000
0000
0000
0000
0001
0000
0000
1000
0001
0000
0000
0000
,
0100
0000
0000
0010
0100
0000
0000
0000
0010
0000
0000
0100
0010
0000
0000
0000
,
1000
0000
0000
0100
1000
0000
0000
0000
0001
0000
0000
0100
0001
0000
0000
0000
,
1000
0000
0000
0010
1000
0000
0000
0000
0001
0000
0000
0010
0001
0000
0000
0000
,
1000
0000
0100
1000
0000
0010
1000
0000
0001
0000
0100
0001
0000
0010
0001
0000
,
1000
0000
0010
1000
0000
0000
0001
1000
0001
0000
0000
0001
0000
1000
0001
0000
,
1000
0000
0100
1000
0000
0100
1000
0000
0010
0000
0100
0010
0000
0100
0010
0000
,
1000
0000
0001
1000
0000
0000
0010
1000
0010
0000
0000
0010
0000
0100
0010
0000
,
1000
0000
1000
0100
0000
0000
0010
0000
0001
0000
0001
0100
0000
0000
0010
0000
,
1000
0000
1000
0001
0000
0000
0100
0000
0001
0000
0001
1000
0000
0000
0010
0000
,
1000
0000
1000
0010
0000
0000
0100
0000
0001
0000
0001
0100
0000
0000
0010
0000
,
1000
0001
1000
0001
1000
0000
1000
0010
1000
0010
0000
0100
0000
0001
0100
0000
,
0001
0000
0000
0000
0000
0000
1001
0000
0000
1000
0000
0000
0000
0000
0001
1000
0000
0001
1000
0000
0000
0000
0000
0000
,
0010
0000
0000
0000
0000
1000
0010
0000
0000
0100
0000
0000
0000
0000
0001
1000
0000
0000
0010
0000
0000
1000
0000
0000
,
0001
0000
0000
0000
0000
0000
1001
0000
0000
1000
0000
0000
0000
0000
0010
0100
0000
0010
0100
0000
0000
0000
0000
0000
,
0001
0000
0000
0000
0000
0010
0001
0000
0000
0100
0000
0000
0010
0000
0000
1000
0000
0000
0010
0000
0000
0100
0000
0000
,
0001
0000
0000
0000
0000
0000
1001
0000
0000
0100
0000
0000
0000
0000
0001
0010
0000
0001
0010
0000
0000
0000
0000
0000
,
0100
0000
0000
0000
0000
0100
0001
0000
0000
1000
0000
0000
0000
0000
0001
1000
0000
0000
0010
0000
0000
1000
0000
0000
,
0001
0000
0000
0000
0000
0000
0110
0000
0000
1000
0000
0000
0000
0000
0001
0100
0000
0001
0100
0000
0000
0000
0000
0000
,
1000
0100
1000
0002
0000
0000
1003
0000
,
0001
0000
0001
0010
0000
0010
0001
0000
1000
0000
1000
0100
0000
0100
1000
0000
,
0010
0000
0010
0100
0000
0100
0010
0000
1000
0000
1000
0001
0000
0001
1000
0000
,
0001
0000
0010
0001
0000
0001
0010
0000
1000
0000
0100
1000
0000
1000
0100
0000
,
1000
0000
0100
0000
0010
0000
0001
0000
1000
0001
0000
0100
0000
0001
1000
0000
,
0010
0000
0000
1000
0000
0000
0101
0000
0000
1000
0000
0000
0000
0000
0001
1000
0000
0001
1000
0000
0000
0000
0000
0000
,
1001
0000
0000
0000
0000
1000
0100
0000
0000
0011
0000
0000
0000
0000
0100
0010
0000
0000
1001
0000
0000
0000
0000
0000
,
0010
0000
0000
0000
0000
0000
1001
0000
0000
0100
0000
0000
0000
0000
0010
1000
0000
0010
1000
0000
0000
0000
0000
0000
,
1001
0000
0000
0000
0000
1000
0100
0000
0000
0010
0000
0000
0000
0000
0001
0100
0000
0000
0010
0000
0000
1000
0000
0000
,
0001
0000
0000
0000
0000
0000
1001
0000
0000
0100
0000
0000
0000
0000
0010
1000
0000
0000
0001
0000
0000
1000
0000
0000
,
0010
0000
0000
0000
0000
0010
0100
0000
0000
0001
0000
0000
0000
0000
0000
0000
0000
0100
0010
0000
0000
1000
0000
0000
,
0001
0000
0000
0000
0000
0000
1001
0000
0000
1000
0000
0000
0000
0000
0001
0100
0000
0001
0100
0000
0000
0000
0000
0000
,
1001
0000
0000
0000
0000
1100
0000
0000
0000
0202
0000
0000
0000
0000
0000
0000
0000
0303
0101
0000
0000
0000
0000
0000
,
1000
0000
0100
0000
0000
0010
0000
0000
0001
0000
0000
0200
0000
0000
0000
0010
0300
1000
0000
0000
0001
1000
0000
0000
,
0001
0000
1000
0000
0000
0010
0100
0000
0000
0002
0000
0000
0000
0000
0000
1003
0000
0000
0001
0000
0000
1000
0000
0000
,
0010
0100
0010
1000
0001
1000
0010
0100
0010
1000
0100
1000
,
0001
0000
0000
0000
0000
0001
1000
0000
0000
0020
0000
0000
0000
0000
0000
1030
0000
0000
0001
0000
0000
0000
0000
0000
,
1000
0000
0100
0000
0000
0100
0000
0000
0010
0000
0000
0001
0000
0000
1000
0001
0000
1000
0001
0000
0000
1000
0000
0000
,
0010
0000
0100
0010
0000
0000
1000
0000
0100
0000
0000
0010
0000
0000
0001
1000
0000
0000
0010
0000
0000
1000
0000
0000
,
0001
0000
0010
0000
0001
0000
1000
0000
0100
0000
1000
0000
0010
0000
0100
0000
0010
0000
1000
0000
0000
0001
0000
0000
,
0100
0000
0000
0000
0000
0010
0100
0000
0000
0020
0000
0000
0000
0000
0000
0000
0000
0000
0130
0000
0000
0000
0000
0000
,
0001
0000
0000
0001
0000
0000
0001
0000
1000
0000
0000
1000
0000
0000
1000
0000
,
0010
0000
0000
0010
0000
0000
0010
0000
0100
0000
0000
0100
0000
0000
0200
0000
,
0300
0000
0000
0000
;

//---------------dance-single - ----------------
#NOTES:
     dance-single:
     :
     Medium:
     8:
     0.288114,0.342677,0.232021,0.187401,0.000000,226.000000,200.000000,26.000000,21.000000,0.000000,0.000000,0.288114,0.342677,0.232021,0.187401,0.000000,226.000000,200.000000,26.000000,21.000000,0.000000,0.000000:
0000
0000
0000
0000
,
0000
0000
0000
0000
,
0000
0000
0000
0000
,
0000
0000
0000
0000
,
0000
0000
0000
0000
,
0000
0000
0000
0000
,
0001
0000
1000
0000
0010
0000
0100
0010
,
1000
0000
0100
0000
0010
0000
0001
0100
,
0001
1000
0010
0100
,
0010
0000
1000
0001
1000
0000
1001
0000
,
2000
3100
0020
0031
,
2000
0000
3010
0000
1000
0010
0001
0000
,
2000
3100
0002
0103
,
2000
0000
3100
0000
1000
0100
0001
0000
,
0020
0000
0130
0000
0001
0010
0001
0000
,
0200
0000
0310
0000
1000
0010
1000
0000
,
0001
1000
0010
0100
,
0001
1000
0001
1000
0020
0000
0030
0000
,
1000
0000
1100
0000
0001
0100
0010
0000
,
0001
0000
0101
0000
0100
0010
1000
0000
,
0100
0000
1001
0000
0010
1000
0100
0000
,
0010
1001
0110
1001
,
0100
0000
1001
0000
0010
1000
0001
0000
,
0010
0000
1001
0000
0100
1000
0001
0000
,
0010
0000
1100
0000
0010
0100
0001
0000
,
0010
1000
2002
3003
,
0010
1000
0100
0001
,
1000
0001
1000
0000
0001
1000
0001
0000
,
1000
0010
1000
0010
0100
0001
0100
0001
,
1000
0100
1000
0100
0020
0000
0031
0000
,
0100
0000
0110
0000
0010
1000
0001
0000
,
0010
0000
0110
0000
0100
1000
0001
0000
,
1000
0000
0101
0000
1000
0100
0010
0000
,
0001
0000
1010
0000
0001
1000
0001
1000
,
0010
0000
0110
0000
1000
0100
1000
0001
,
0100
0000
1001
0000
1000
0010
1000
0001
,
0010
0000
1001
0000
0100
1000
0001
1000
,
0100
1001
0020
0130
,
2002
0000
0000
0000
0000
3003
1001
0000
,
0010
0000
1000
0000
0001
0100
0010
0000
,
0010
0000
0001
0000
1000
0100
0010
0000
,
0010
0000
1000
0001
0100
0000
1001
0000
,
0001
0010
0001
0000
1000
0000
1001
0000
,
1000
0010
1000
0000
0001
0000
1001
0000
,
0010
0100
0010
0000
1000
0001
1000
0000
,
0010
1001
0220
0330
,
2000
3000
0002
0003
,
0200
0300
0020
0000
,
0030
0000
0000
0000
;

//---------------dance-single - ----------------
#NOTES:
     dance-single:
     :
     Easy:
     5:
     0.212898,0.257007,0.258792,0.196325,0.000000,167.000000,138.000000,29.000000,22.000000,0.000000,0.000000,0.212898,0.257007,0.258792,0.196325,0.000000,167.000000,138.000000,29.000000,22.000000,0.000000,0.000000:
0000
0000
0000
0000
,
0000
0000
0000
0000
,
0000
0000
0000
0000
,
0000
0000
0000
0000
,
0000
0000
0000
0000
,
0000
0000
0000
0000
,
1000
0001
1000
0001
,
0100
0010
0100
0010
,
1000
0100
0010
0001
,
0100
0100
0010
0010
,
2000
3000
0002
0003
,
2000
3000
0002
0003
,
0200
0300
0020
0030
,
0200
0300
0020
0030
,
1000
0100
1000
0100
,
0010
0001
0010
0001
,
1000
0010
1000
0010
,
0100
0001
2002
3003
,
0010
1001
0000
1001
,
0100
0010
1000
1001
,
0100
1001
0000
1001
,
0010
0001
0100
1001
,
1000
0110
0000
1001
,
0001
0100
0010
1000
,
0001
0110
0000
1001
,
1000
0100
2002
3003
,
0010
1000
0100
1000
,
0010
0001
0100
0001
,
0010
1000
0100
0001
,
0010
0001
0100
1000
,
0010
1010
0000
0101
,
1000
0001
0100
0010
,
0100
1100
0000
0011
,
0100
0010
1000
0001
,
1000
1010
0000
0011
,
0100
0001
1000
0010
,
0100
1100
0000
0101
,
1000
0010
0220
0330
,
2002
0000
3003
1001
,
0001
1001
0000
0110
,
1000
0100
0010
0001
,
0100
0110
0000
1001
,
0001
0100
0001
0000
,
1000
0100
1000
0000
,
0001
0010
0100
1000
,
0010
0110
2002
3003
,
0020
0030
0200
0300
,
0002
0003
2000
0000
,
3000
0000
0000
0000
;

//---------------dance-single - ----------------
#NOTES:
     dance-single:
     :
     Beginner:
     2:
     0.103262,0.128504,0.008924,0.008924,0.000000,81.000000,80.000000,1.000000,1.000000,0.000000,0.000000,0.103262,0.128504,0.008924,0.008924,0.000000,81.000000,80.000000,1.000000,1.000000,0.000000,0.000000:
// measure 0
0000
0000
0000
0000
,  // measure 1
0000
0000
0000
0000
,  // measure 2
0000
0000
0000
0000
,  // measure 3
0000
0000
0000
0000
,  // measure 4
0000
0000
0000
0000
,  // measure 5
0000
0000
0000
0000
,  // measure 6
1000
0000
1000
0000
,  // measure 7
0001
0000
0001
0000
,  // measure 8
1000
0000
0001
0000
,  // measure 9
1000
0000
0000
0000
,  // measure 10
0001
0000
0001
0000
,  // measure 11
1000
0000
1000
0000
,  // measure 12
0001
0000
1000
0000
,  // measure 13
0001
0000
1000
0000
,  // measure 14
0001
0000
0001
0000
,  // measure 15
1000
0000
1000
0000
,  // measure 16
0001
0000
0010
0000
,  // measure 17
1000
0000
0010
0000
,  // measure 18
0000
0100
0000
0100
,  // measure 19
0000
0010
0000
0010
,  // measure 20
0000
1000
0000
1000
,  // measure 21
0000
0001
0000
0001
,  // measure 22
0000
1000
0000
0001
,  // measure 23
0000
0100
0000
0010
,  // measure 24
0000
0010
0000
0100
,  // measure 25
0000
1001
0000
0000
,  // measure 26
0010
0000
0001
0000
,  // measure 27
0100
0000
1000
0000
,  // measure 28
0010
0000
1000
0000
,  // measure 29
0100
0000
0001
0000
,  // measure 30
0000
1000
0000
0001
,  // measure 31
0000
0100
0000
0001
,  // measure 32
0000
1000
0000
0001
,  // measure 33
0000
0010
0000
0001
,  // measure 34
0000
1000
0000
0010
,  // measure 35
0000
0001
0000
0010
,  // measure 36
0000
1000
0000
0100
,  // measure 37
0000
0001
0000
0000
,  // measure 38
0010
0000
0000
0010
,  // measure 39
0000
1000
0000
1000
,  // measure 40
0000
0001
0000
0001
,  // measure 41
0000
1000
0000
0001
,  // measure 42
0000
0100
0000
0100
,  // measure 43
0000
0010
0000
0010
,  // measure 44
0000
0100
0000
0010
,  // measure 45
0000
1000
0000
0000
,  // measure 46
0001
0000
0100
0000
,  // measure 47
1000
0000
0020
0000
,  // measure 48
0030
0000
0000
0000
;
