#TITLE:Another Phase;
#SUBTITLE:("VOLTAGE" Special);
#ARTIST:TAG;
#TITLETRANSLIT:;
#SUBTITLETRANSLIT:;
#ARTISTTRANSLIT:;
#GENRE:KONAMI originals;
#CREDIT:;
#BANNER:Another Phase (VOLTAGE Special).png;
#BACKGROUND:Another Phase (VOLTAGE Special)-bg.png;
#LYRICSPATH:;
#CDTITLE:;
#MUSIC:Another Phase (VOLTAGE Special).ogg;
#OFFSET:0.000000;
#SAMPLESTART:14.243000;
#SAMPLELENGTH:15.000000;
#SELECTABLE:YES;
#DISPLAYBPM:160.000000:320.000000;
#BPMS:0.000000=160.000000
,36.000000=160.003998
,197.000000=160.009003
,198.000000=320.018005
;
#STOPS:36.000000=1.127000,
197.000000=1.127000
;
#BGCHANGES:;
#KEYSOUNDS:;
#ATTACKS:;

//---------------dance-single - ----------------
#NOTES:
     dance-single:
     :
     Challenge:
     17:
     0.850283,1.073500,0.304742,0.209510,0.590437,625.000000,593.000000,32.000000,22.000000,0.000000,0.000000,0.850283,1.073500,0.304742,0.209510,0.590437,625.000000,593.000000,32.000000,22.000000,0.000000,0.000000:
// measure 0
0000
0000
0000
0000
,  // measure 1
0000
0000
0000
0000
,  // measure 2
0000
0000
0000
0000
,  // measure 3
0000
0000
0000
0000
,  // measure 4
0000
0000
0000
0000
,  // measure 5
0001
0000
0000
0001
0000
0000
1000
0000
0000
1000
0000
0000
0100
0000
0010
0000
,  // measure 6
0001
0000
0000
0001
0000
0000
1000
0000
0000
1000
0000
0000
0010
0000
0100
0000
,  // measure 7
0001
0000
0000
0001
0000
0000
0010
0000
0000
0010
0000
0000
1000
0000
0100
0000
,  // measure 8
0010
0000
0000
0010
0000
0000
0001
0000
0000
0001
0000
0000
1000
0000
0101
0000
,  // measure 9
2002
3003
0000
0000
0010
0000
0000
1000
0000
0000
0100
0000
0000
0100
0000
0000
,  // measure 10
0010
0001
0010
0000
0001
0000
0000
0100
0000
0000
1000
0000
0000
1000
0000
0000
,  // measure 11
0010
1000
0100
0000
1000
0000
0000
1000
0000
0000
0010
0000
0000
0010
0000
0000
,  // measure 12
0100
0000
0001
0000
1000
0000
0000
1010
0000
0000
1000
0000
0001
0000
0000
0101
,  // measure 13
0000
0000
0001
0000
1000
0000
0000
0100
0000
0000
0010
0000
0000
0001
0000
0000
,  // measure 14
1000
0001
1000
0000
0001
0000
0000
0010
0000
0000
0100
0000
0000
1000
0000
0000
,  // measure 15
0001
0010
0001
0000
1000
0000
0000
0100
0000
0000
0010
0000
0001
0000
0000
0100
,  // measure 16
0000
0000
0010
0000
0001
0010
0000
0100
1000
0000
0010
0000
1000
0100
0000
0010
,  // measure 17
0001
0000
1000
0000
0010
0000
0100
0010
0000
0100
0010
0000
0100
0010
0000
0000
,  // measure 18
1000
0000
0001
0000
0100
0000
0010
0100
0000
0010
0100
0000
0010
0100
0000
0000
,  // measure 19
0001
0000
0100
0000
1000
0000
0010
1000
0000
0010
1000
0000
0010
1000
0000
0000
,  // measure 20
0001
0000
0010
0000
1000
0000
0001
0100
0000
0001
0100
0000
0001
0100
0000
0000
,  // measure 21
0001
0000
1000
0000
0100
0000
0010
0001
0000
0010
0001
0000
0010
0001
0000
0000
,  // measure 22
1000
0000
0100
0000
0001
0000
1000
0010
0000
1000
0010
0000
1000
0010
0000
0000
,  // measure 23
0100
0000
0001
0000
1000
0000
0000
1001
0000
0000
1000
0000
0000
1001
0000
0000
,  // measure 24
0001
0000
0100
0000
0010
0000
0000
0110
0000
0000
0010
0000
0000
0110
0000
0000
,  // measure 25
1001
0000
0000
0000
1000
1000
0000
0001
0000
1000
0100
0000
0010
0000
0001
0000
,  // measure 26
0100
0010
0000
0010
0100
0000
0001
0000
1000
0100
0000
0100
1000
0000
0010
0000
,  // measure 27
0100
0001
0100
0000
0010
0010
0000
1000
0000
0001
0010
0000
0001
0000
0100
0000
,  // measure 28
0010
1000
0000
1000
0010
0000
0100
0000
0001
0010
0000
0010
0001
0000
1000
0100
,  // measure 29
0010
0000
0001
0000
0100
0010
0000
0010
0000
1000
0100
0000
0010
0000
0001
0000
,  // measure 30
1000
0010
0000
0010
1000
0000
0001
0000
0100
0010
0000
0010
0100
0000
0001
0000
,  // measure 31
1000
0000
0100
0000
0010
0001
0000
1000
0100
0000
0020
0000
0000
0000
1000
0000
,  // measure 32
0000
0000
0130
0000
1000
0000
1010
0000
0000
0011
0000
0000
1000
0100
0010
0000
,  // measure 33
0100
0010
0001
0000
1000
0010
0000
0010
0000
1000
0100
0000
0010
0000
0001
0000
,  // measure 34
0100
0010
0000
1010
0000
0000
0101
0000
0000
0000
0000
0000
0010
0000
0010
0000
,  // measure 35
0010
0000
0010
0000
0000
0000
1010
0000
0000
0101
0000
0000
1010
0000
0000
0101
,  // measure 36
0000
0000
1001
0000
0000
0000
0011
0000
0000
1100
0000
0010
0100
0000
1001
0000
,  // measure 37
1100
0000
1001
0000
0001
0010
0000
0010
0000
0010
0001
0000
1100
0000
1001
0000
,  // measure 38
0001
0100
0000
0100
0010
0000
1010
0000
0010
0100
0000
0100
0001
0000
1000
0100
,  // measure 39
0010
0000
0100
0000
1001
0000
0000
0110
0000
0000
2002
0000
0000
0000
0000
0000
,  // measure 40
0000
0000
3003
0000
0010
0000
1000
0000
0100
0000
0010
0000
0001
0100
0001
0000
,  // measure 41
1000
0010
1000
0000
0002
0000
0000
0100
0000
0000
0103
0000
2000
0000
0000
0100
,  // measure 42
0000
0000
3100
0000
0020
0000
0000
0001
0000
0000
0031
0000
1000
0100
0010
0000
,  // measure 43
0001
0100
1000
0000
0020
0000
0000
0100
0000
0000
0130
0000
0002
0000
0000
1000
,  // measure 44
0000
0000
1003
0000
0200
0000
0000
0001
0000
0000
0301
0000
1000
0100
0010
0000
,  // measure 45
0001
0010
1000
0000
0020
0000
0000
0001
0000
0000
0032
0000
0100
0000
0000
0203
,  // measure 46
0000
0000
0010
0000
0320
0000
0000
1000
0000
0000
2030
0000
0100
0000
0000
3200
,  // measure 47
0000
0000
0010
0000
0320
0000
0000
0001
0000
0000
0032
0000
0100
0000
0000
0100
,  // measure 48
0000
0000
0103
0000
0010
1000
0001
0010
0100
1000
0100
0010
0001
1000
0100
0001
,  // measure 49
0100
0000
0000
1000
0000
0000
0010
0000
0000
0100
0000
0000
0002
0000
0003
0000
0000
0000
0000
0000
0000
0000
0000
0000
1000
0000
0000
0000
0000
0000
0100
0000
0000
0000
0000
0000
1000
0000
0000
0000
0000
0000
0001
0000
0000
0000
0000
0000
,  // measure 50
0010
0001
1000
0100
0010
0001
0100
0010
,  // measure 51
1000
1000
0001
1000
0010
0100
0010
1000
,  // measure 52
0100
1000
0001
0100
0001
1000
0010
1000
,  // measure 53
0001
0001
1000
0010
0100
0001
0100
0010
,  // measure 54
1000
0010
0100
0001
0010
0001
0100
0010
,  // measure 55
1000
1000
0001
0001
1000
0100
0010
0100
,  // measure 56
0010
0001
1000
0010
0100
0001
0100
0010
,  // measure 57
1000
1000
0001
0001
1000
0100
0010
0100
,  // measure 58
1000
0001
0010
0100
0010
0001
1000
0001
,  // measure 59
0100
0100
0010
0010
1000
0001
0100
0001
,  // measure 60
1000
0001
0010
0001
1000
0100
0010
0001
,  // measure 61
1000
1000
0010
0010
1000
0100
0010
0001
,  // measure 62
0100
0010
1000
0000
0001
0010
0100
1000
,  // measure 63
0010
0100
0001
0000
1000
1000
0001
0100
,  // measure 64
0100
0100
0001
0000
0001
1000
0010
0010
,  // measure 65
1000
0001
1000
0000
0001
0010
0100
0010
,  // measure 66
0001
1000
0100
0010
0100
1000
0001
0100
,  // measure 67
1000
0100
0001
1000
0001
1000
0100
0010
,  // measure 68
0100
1000
0001
0010
0100
0010
0001
1000
,  // measure 69
0100
0001
0100
1000
0010
0100
0010
1000
,  // measure 70
0100
0010
0001
0100
0010
0100
0001
0010
,  // measure 71
0100
1000
0001
0100
1000
0100
0001
0010
,  // measure 72
0100
1000
0010
0001
0010
1000
0100
0010
,  // measure 73
0001
1000
0010
0100
0001
1000
0010
1000
,  // measure 74
0100
1000
0001
0010
0001
0100
0001
1000
,  // measure 75
0100
0010
0100
0010
0001
1000
0010
0100
,  // measure 76
0010
0010
1000
0001
0100
0010
1000
1000
,  // measure 77
0001
0010
0100
1000
0001
0001
0100
0010
,  // measure 78
0010
1000
0001
0001
1000
0010
0010
0100
,  // measure 79
0001
0010
0100
1000
0001
0000
1000
0100
,  // measure 80
0000
0010
0001
0000
0100
0010
0000
1000
,  // measure 81
0101
1001
0220
0000
,  // measure 82
0000
0000
0000
0000
,  // measure 83
0000
0000
0330
0000
;
