#TITLE:Always;
#SUBTITLE:;
#ARTIST:YUGI & Mool ft. Shin Ji;
#TITLETRANSLIT:;
#SUBTITLETRANSLIT:;
#ARTISTTRANSLIT:;
#GENRE:;
#CREDIT:;
#BANNER:Always.png;
#BACKGROUND:Always-bg.png;
#LYRICSPATH:;
#CDTITLE:;
#MUSIC:Always.ogg;
#OFFSET:-0.080000;
#SAMPLESTART:10.746667;
#SAMPLELENGTH:17.777779;
#SELECTABLE:YES;
#BPMS:0.000000=135.000000
;
#STOPS:
;
#BGCHANGES:0.000=Always.avi=1.000=0=0=0=StretchNoLoop====,
99999=-nosongbg-=1.000=0=0=0 // don't automatically add -songbackground-
;
#KEYSOUNDS:;
#ATTACKS:;

//---------------dance-single - ----------------
#NOTES:
     dance-single:
     :
     Hard:
     10:
     0.410409,0.490035,0.530154,0.322391,0.046568,401.000000,327.000000,74.000000,45.000000,0.000000,0.000000,0.410409,0.490035,0.530154,0.322391,0.046568,401.000000,327.000000,74.000000,45.000000,0.000000,0.000000:
0000
0000
0000
0000
,
0000
0000
0000
0000
,
0000
0000
0000
0000
,
0000
0000
0000
0000
,
0000
0000
0000
0000
,
0000
0000
0000
0000
,
0021
0000
0000
0031
0100
0010
1000
0010
,
0200
0000
0301
1000
1001
0000
0010
1000
,
1100
0000
0101
0000
1001
0000
0010
0100
,
0110
0000
1010
0000
0001
0100
0100
0000
,
0012
0000
0000
1003
0010
0100
0001
1000
,
0002
0000
0103
0010
1010
0000
0001
0010
,
0011
0000
0101
0000
1001
0000
0010
1000
,
1100
1010
1001
0110
,
2002
0000
0000
0000
,
0000
0000
3003
0000
,
0110
0000
0000
0000
0000
0000
1000
0001
1000
0000
0010
0000
1000
0000
0001
0000
,
0100
0000
0000
0100
0000
0000
0002
0000
2000
0000
0000
0000
3003
0000
0000
0000
,
1001
0000
0010
1000
0100
0000
0010
0001
,
1000
0000
0010
0010
0000
1000
0001
0100
,
0010
1010
0100
0101
,
0020
0000
1030
0001
0100
0000
0001
1000
,
0200
0000
0301
1000
0001
0000
1000
0001
,
0020
0000
0032
0000
1003
0000
0010
1000
,
0001
0000
0000
0000
0100
0000
0010
0000
0100
0000
0000
0100
0000
0000
0001
0000
,
2000
0000
0000
0001
3001
0000
0010
0000
,
0100
0000
0001
1000
0010
0000
1000
0100
,
0001
0000
0010
0010
0000
1000
0001
1000
,
0010
1100
0101
1001
,
0120
0000
0000
1030
0001
0000
0000
0100
,
0020
0000
1030
0100
1000
0000
0001
0100
,
0020
0000
0000
0000
1030
0000
0000
1000
0000
0000
0000
0000
0010
0000
0001
0000
,
0100
0000
0101
0000
1100
0000
1000
0001
,
0100
0000
0000
0100
0000
0000
0100
0000
0000
0000
0000
0000
1001
0000
0000
0000
,
0020
2030
3200
0302
,
2003
0000
0000
3001
0100
0010
0100
0001
,
2000
0000
3001
0100
0010
0000
1000
0001
,
1001
0000
1100
0000
0101
0000
0001
1000
,
1001
0000
0101
0000
1000
0010
0010
0000
,
1002
0000
0000
1003
0010
0100
0010
1000
,
0002
0000
1003
0010
0110
0000
0001
1000
,
1001
0000
1010
0000
1100
0000
1000
0001
,
0011
0101
1001
0110
,
2002
0000
0000
0000
,
0000
0000
3003
0000
,
0010
0000
0000
0000
0000
0000
0001
1000
0001
0000
1000
0000
0010
0000
0100
0000
,
0001
0000
0000
0001
0000
0000
0100
0000
0020
0000
0000
0000
1030
0000
0100
0000
,
0010
0000
0000
0001
0100
0001
1000
0000
,
0010
0010
0010
0000
0000
1000
0001
0000
,
2000
0000
3010
0100
0002
0000
0003
1000
,
0001
1000
0010
0100
0000
0000
0010
0000
,
1000
0000
0000
0001
0100
0001
1000
0000
,
0010
0010
0010
0000
0000
0000
0000
0000
,
0001
0000
0000
0001
0000
0000
1000
0000
0100
0000
0000
0000
0000
0000
0001
0000
,
1000
0000
0000
1000
0000
0000
0001
0000
0100
0000
0000
0100
0000
0000
0000
0000
,
0101
0000
0000
0101
0000
0000
0101
0000
0000
0000
0000
0000
1001
0000
0000
0000
,
0010
0010
0000
0000
0001
0001
0000
0000
,
0100
0100
0000
0000
1000
1000
0000
0000
,
0010
0010
0000
0000
0100
0100
0000
0000
,
0101
1100
0202
0303
,
0010
0010
0000
0000
1000
1000
0000
0000
,
0100
0100
0000
0000
0001
0001
0000
0000
,
0220
0330
2002
3003
,
0011
0110
2002
3003
,
0012
0000
0000
0103
0001
0100
0010
1000
,
0020
0000
0130
0001
1000
0000
0010
1000
,
1100
0000
1001
0000
1100
0000
0010
0001
,
0101
1001
0202
0303
,
1020
0000
0000
0130
0001
0100
0010
0100
,
0002
0000
1003
0010
1000
0000
0001
0100
,
0101
0000
1001
0000
1010
0000
0100
0010
,
0110
1001
1100
0011
,
2000
0010
0010
3001
,
0002
0100
0100
1003
,
0010
0000
0000
0010
0000
0000
0001
0000
0000
0001
0000
0000
0001
0000
0000
0000
,
1001
0000
0000
0110
0000
0000
1001
0000
,
1001
0000
0000
0000
;

//---------------dance-single - ----------------
#NOTES:
     dance-single:
     :
     Challenge:
     12:
     0.513779,0.544483,0.544483,0.329555,0.161196,502.000000,426.000000,76.000000,46.000000,0.000000,0.000000,0.513779,0.544483,0.544483,0.329555,0.161196,502.000000,426.000000,76.000000,46.000000,0.000000,0.000000:
0000
0000
0000
0000
,
0000
0000
0000
0000
,
0000
0000
0000
0000
,
0000
0000
0000
0000
,
0000
0000
0000
0000
,
0000
0000
0000
0000
,
2002
0000
3003
0010
1000
0100
1000
0010
,
0002
0000
0103
0010
0100
0000
0001
1000
,
1100
0000
0000
1000
0010
0000
0000
0010
0100
0000
0000
0000
0100
0000
0001
0000
,
1001
0000
0000
0001
1000
0000
0000
1000
0010
0000
0100
0000
0100
0000
0000
0000
,
2002
0000
3003
0100
0001
1000
0001
0100
,
0020
0000
1030
0100
1000
0000
0001
0010
,
0011
0000
0000
0001
0100
0000
0000
0100
0010
0000
0000
0000
1000
0000
0010
0000
,
1010
0000
0000
0010
0100
0000
0000
0100
0001
0000
0000
0001
1000
0000
0000
0000
,
2000
0001
0100
3001
,
0002
1000
0100
1003
,
0110
0000
0000
0000
0001
0000
1000
0100
1000
0000
0001
0000
0100
0000
0010
0000
,
1001
0000
0000
1001
0000
0000
0100
0000
0020
0000
0000
0000
1030
0000
0000
0000
,
0001
0000
0000
0000
1000
0000
0010
0100
0010
0000
1000
0000
0001
0000
1000
0000
,
0100
0000
0000
0000
1000
0000
0001
0100
0001
0000
1000
0000
0010
0000
1000
0000
,
0100
0000
0000
0000
0100
0000
0000
1000
0100
0000
1000
0000
0001
0000
0000
0000
,
0010
0000
0000
0000
0010
0000
0000
0001
0100
0000
0001
0000
0010
0000
0001
0000
,
2000
0000
3001
0010
0001
0001
1000
0001
,
0001
0000
0000
0001
0100
0000
0000
0100
0010
0000
0000
0000
1000
0000
0010
0000
,
0200
0000
0000
0000
0301
0000
1000
0000
0010
0000
0000
1000
0000
0000
0001
0000
,
0200
0000
0310
1000
0001
0000
0101
0000
,
1010
0000
0000
0000
0001
0000
0100
0010
0100
0000
0001
0000
1000
0000
0100
0000
,
0010
0000
0000
0000
0001
0000
1000
0100
1000
0000
0001
0000
0010
0000
0001
0000
,
0100
0000
0000
0000
0100
0000
0000
0010
0100
0000
0001
0000
1000
0000
0000
0000
,
0010
0000
0000
0000
0010
0000
0000
0100
0010
0000
1000
0000
0001
0000
1000
0000
,
0100
0000
0011
0100
0010
0000
1000
0001
,
0101
0000
0000
0000
0100
0000
0000
0010
0000
0000
0000
0000
1000
0000
0001
0000
,
0200
0000
0301
1000
0020
0000
1030
0001
,
1001
0000
0000
1001
0000
0000
1001
0000
0000
0000
0100
0001
0100
0000
0010
1000
,
0020
0230
0302
0203
0320
0030
1010
0000
,
2002
0000
3003
1000
0001
0100
0010
0100
,
0002
0000
0103
0010
1000
0000
0001
0100
,
0101
0000
0000
0001
1000
0000
0000
1000
0010
0000
0000
0000
1000
0000
0100
0000
,
1100
0000
0000
0100
0001
0000
0000
0001
1000
0000
0010
0000
0010
0000
0000
0000
,
2002
0000
3003
0001
0100
0010
1000
0010
,
0200
0000
0301
0100
0010
0000
1000
0001
,
0101
0000
0000
0100
0010
0000
0000
0010
1000
0000
0000
0000
0100
0000
0010
0000
,
1010
0000
0000
1000
0001
0000
0000
0001
0100
0000
0000
0100
0010
0000
0000
0000
,
2000
0001
0100
3001
,
0002
0100
1000
0103
,
1001
0000
0000
0000
0010
0000
1000
0100
1000
0000
0010
0000
0100
0000
0001
0000
,
1001
0000
0000
1010
0000
0000
1000
0000
0002
0000
0000
0000
0103
0000
0010
0000
,
2000
0000
3001
0100
0010
1000
0001
0001
,
0100
0100
0110
0000
0001
1000
0100
1000
,
0001
0000
0000
0001
0000
0000
0100
0000
1000
0000
0000
0000
1001
0000
0010
0000
,
0100
0010
1000
0001
0000
1000
0100
0010
,
0002
0000
0103
0010
0010
1000
0001
1000
,
0010
0010
0200
0000
0301
0010
0011
0000
,
1000
0000
0000
0010
0000
0000
0100
0000
0001
0000
0000
0000
0000
0000
0100
0000
,
1000
0000
0000
1000
0000
0000
0010
0000
0001
0000
0000
0001
0000
0000
0100
0000
,
0110
0000
0000
0110
0000
0000
1010
0000
0000
0000
0001
0000
0101
0000
0000
0000
,
0110
0110
0000
0000
0011
0011
0000
0000
,
1100
1100
0000
0000
0101
0101
0000
0000
,
1100
1010
0000
0000
0101
0011
0000
0000
,
1020
0230
0302
1003
,
0011
0011
0000
0000
1100
1100
0000
0000
,
0101
0101
0000
0000
1010
1010
0000
0000
,
1001
0110
1001
0110
,
2000
3002
0203
0300
,
0012
0000
0103
0010
1000
0001
0100
0010
,
2000
0000
3001
0101
0101
0000
0010
1000
,
1100
0000
0101
0000
1100
0000
0010
1000
,
0001
0000
1001
0000
0010
0110
0110
0000
,
0002
0100
0103
0010
1000
0100
0010
0001
,
0200
0010
0310
1000
1001
0000
0001
0010
,
0011
0000
0110
0000
1100
0000
0001
0100
,
1010
0101
0011
1100
,
0010
1000
0100
1000
0001
0100
0010
0100
,
0001
0010
0100
1000
0010
0100
0001
0100
,
0002
0000
0000
0203
0000
0000
0320
0000
0000
2030
0000
0000
3001
0000
0100
0000
,
1000
0000
0001
0100
0001
0000
1000
0000
0010
0000
0100
0000
0020
0000
0030
0000
,
1001
0000
0000
0000
;

//---------------dance-double - ----------------
#NOTES:
     dance-double:
     :
     Challenge:
     12:
     0.522990,0.571707,0.530154,0.279406,0.157613,511.000000,437.000000,74.000000,39.000000,0.000000,0.000000,0.522990,0.571707,0.530154,0.279406,0.157613,511.000000,437.000000,74.000000,39.000000,0.000000,0.000000:
00000000
00000000
00000000
00000000
,
00000000
00000000
00000000
00000000
,
00000000
00000000
00000000
00000000
,
00000000
00000000
00000000
00000000
,
00000000
00000000
00000000
00000000
,
00000000
00000000
00000000
00000000
,
10200000
00000000
00000000
01300000
00010000
01000000
00001000
00010000
,
00000020
00000000
00000000
00000100
00000130
00000000
00000001
00001000
,
00001100
00000000
00000000
00000100
00010000
00000000
00000000
00010000
00001000
00000000
00000000
00000000
00001000
00000000
01000000
00000000
,
00010000
00000000
00000000
00010000
10000000
00000000
00000000
10000000
00100000
00000000
01000000
00000000
01000000
00000000
00000000
00000000
,
10200000
00000000
00000000
01300000
00010000
01000000
00001000
00010000
,
00000200
00000000
00001300
00000001
00000100
00000000
00000001
00001000
,
00001100
00000000
00000000
00000100
00010000
00000000
00000000
00010000
00001000
00000000
00000000
00000000
00100000
00000000
00010000
00000000
,
01010000
00000000
00000000
00010000
10000000
00000000
00000000
10000000
00100000
00000000
00000000
00100000
01000000
00000000
00000000
01000000
,
00002000
00010000
00000100
00023000
,
00000100
00001000
00030010
00001010
,
00000101
00000000
00000000
00000000
00001000
00000000
00000010
00000100
00000010
00000000
00001000
00000000
00000001
00000000
00000100
00000000
,
00000101
00000000
00000000
00000001
00000000
00000000
00002000
00000000
00000200
00000000
00003300
00000000
00001100
00000000
00000000
00000000
,
00001001
00000000
00000000
00000000
00000010
00000000
00001000
00000100
00001000
00000000
00000010
00000000
00001000
00000000
00000100
00000000
,
00010000
00000000
00000000
00000000
00001000
00000000
00100000
00001000
00100000
00000000
00010000
00000000
10000000
00000000
00100000
00000000
,
01000000
00000000
00000000
00000000
01000000
00000000
00000000
00010000
01000000
00000000
00100000
00000000
10000000
00000000
00000000
00000000
,
00100000
00000000
00100000
10000000
00010000
00100000
00001000
00010000
,
00000200
00000000
00001300
00000001
00000200
00000000
00001300
00000100
,
00020000
00000000
00032000
00000000
02003000
00000000
03100000
10000000
,
10100000
00000000
00000000
00000000
00100000
00000000
00010000
00000000
01010000
00000000
00000000
01000000
00000000
00000000
00010000
00000000
,
00200000
00000000
00000000
00301000
00010000
00000000
00011000
00000000
,
00001001
00000000
00000000
00000000
00000010
00000000
00001000
00000100
00001000
00000000
00000010
00000000
00000100
00000000
00000001
00000000
,
00001000
00000000
00000000
00000000
00000100
00000000
00010000
00000100
00001000
00000000
00000100
00000000
00010000
00000000
00001000
00000000
,
02000000
03020000
00230000
20300000
,
31000000
00000000
00100000
10000000
00010000
00100000
00001000
00010000
,
00000200
00000000
00001300
00000010
00000011
00000000
00000001
00000100
,
00001100
00000000
00000000
00000000
00000100
00000000
00000000
00010100
00000000
00000000
00000000
00000000
00010000
00000000
00001000
00000000
,
00100000
00000000
00000000
00100000
00010000
00000000
00000000
00010000
01000000
00000000
00000000
01000000
00100000
00000000
10000000
00000000
,
10010000
00000000
00000000
10010000
00000000
00000000
10010000
00000000
00000000
00000000
00100000
00001000
00100000
00000000
00001000
00010000
,
00002000
00023000
00030200
00002300
00003010
00000100
00000101
00000000
,
00001020
00000000
00000130
00000001
00001000
00000100
00010000
00001000
,
02000000
00000000
03010000
00100000
00001000
00000000
00010000
00000100
,
00001100
00000000
00001001
00000000
00001100
00000000
00000100
00010000
,
00011000
00000000
01001000
00000000
01000000
00010000
00010000
00000000
,
10020000
00000000
00000000
00130000
00001000
00010000
00001000
01000000
,
00200000
00000000
10300000
01000000
00010000
00000000
00100000
00001000
,
00011000
00000000
00010010
00000000
00001001
00000000
00000010
00010000
,
00011000
01001000
10010000
01001000
,
00011000
00010000
00000100
00001000
00000001
00001000
00000100
00010000
,
00001000
01000000
00010000
10000000
00010000
01000000
00001000
00010000
,
00000010
00000000
00000000
00000000
00001000
00000000
00000010
00001000
00000100
00000000
00001000
00000000
00000001
00000000
00000100
00000000
,
00000010
00000000
00000000
00001010
00000000
00000000
00001000
00000000
00000200
00000000
00000000
00000000
00010300
00000000
00001000
00000000
,
01000000
00000000
00100000
00000000
10000000
00000000
00100000
01000000
00010000
00000000
01000000
00000000
00100000
00000000
10000000
00000000
,
00010000
00000000
00100000
00000000
00001000
00000000
00000000
00001000
00010000
00000000
00000100
00000000
00001000
00000000
00000001
00000000
,
00000010
00000000
00000000
00000001
00000000
00000000
00000100
00000000
00000010
00000000
00001000
00000000
00001010
00000000
00001000
00000000
,
00000100
00010000
00001000
01000000
00000000
00010000
10010000
10000000
,
00100000
00000000
01000000
00000000
00010000
00000000
00100000
00010000
00100000
00000000
00001000
00000000
00010000
00000000
00000010
00000000
,
00001000
00000100
00002000
00000000
00003010
00000100
00000110
00000000
,
00000001
00000000
00000000
00000100
00000000
00000000
00001000
00000000
00000100
00000000
00010000
00000000
00001000
00000000
01000000
00000000
,
00010000
00000000
00000000
00100000
00000000
00000000
10000000
00000000
00100000
00000000
00000000
01000000
00000000
00000000
00010000
00000000
,
10010000
00000000
00000000
00110000
00000000
00000000
01010000
00000000
00000000
00000000
00100000
00000000
00001000
00000000
00000000
00000000
,
00011000
00011000
00000000
00000000
00001001
00001001
00000000
00000000
,
00011000
00011000
00000000
00000000
10010000
10010000
00000000
00000000
,
00110000
00110000
00000000
00000000
00011000
00011000
00000000
00000000
,
00020000
00030020
00000130
00000110
,
00000110
00000110
00000000
00000000
00011000
00011000
00000000
00000000
,
01100000
01100000
00000000
00000000
00011000
00011000
00000000
00000000
,
00000200
00000000
00002300
00000000
00003020
00000000
00000031
00000100
,
00002000
00023000
00130000
10010000
,
10000000
00100000
01000000
00001000
00001000
01000000
00100000
10000000
,
02000000
00000000
03010000
00100000
00001000
00010000
00000010
00001000
,
00000001
00000000
00000000
00000001
00000100
00000000
00000000
00000100
00000010
00000000
00001000
00000000
00000010
00000000
00010000
00000000
,
00001000
00000000
00000000
00001000
01000000
00000000
00000000
01000000
00010000
00000000
10010000
00000000
10010000
00000000
00000000
00000000
,
00100000
10000000
00010000
00100000
00010000
01000000
00001000
00010000
,
00000010
00001000
00000001
00001000
00000100
00000000
00000100
00010000
,
00011000
00000000
00000000
00001000
01000000
00000000
00000000
01000000
00010000
00000000
00000000
00010000
10000000
00000000
00100000
00000000
,
01100000
01000000
01010000
00000000
00110000
00100000
00101000
00000000
,
00002000
00000000
00010000
00000000
00000100
00000000
00013000
00001000
,
02000000
00000000
00010000
00000000
00100000
00000000
03010000
00100000
,
10000000
00000000
00000000
00100000
00000000
00000000
00010000
00000000
00000000
00001000
00000000
00000000
00000100
00000000
00000010
00000000
,
00000001
00000100
00001000
00010000
00100000
00000000
10010000
00000000
,
00011000
00000000
00000000
00000000
;

//---------------dance-double - ----------------
#NOTES:
     dance-double:
     :
     Hard:
     10:
     0.407339,0.490035,0.487169,0.422691,0.025075,398.000000,330.000000,68.000000,59.000000,0.000000,0.000000,0.407339,0.490035,0.487169,0.422691,0.025075,398.000000,330.000000,68.000000,59.000000,0.000000,0.000000:
00000000
00000000
00000000
00000000
,
00000000
00000000
00000000
00000000
,
00000000
00000000
00000000
00000000
,
00000000
00000000
00000000
00000000
,
00000000
00000000
00000000
00000000
,
00000000
00000000
00000000
00000000
,
02010000
00000000
00000000
03001000
00010000
00000000
00011000
00000000
,
00001020
00000000
00000000
00001030
00000001
00000000
00001100
00000000
,
00000200
00000000
00020300
00000000
00031000
00000000
00001000
00100000
,
00020000
00000000
02030000
00000000
03200000
10000000
10300000
00000000
,
20100000
00000000
00000000
30010000
00100000
00000000
00110000
00000000
,
00102000
00000000
00000000
00013000
00001000
00000000
00010000
00000100
,
00001000
00000000
00001010
00000000
00001001
00000000
00001000
00000100
,
00020000
00032000
02003000
03100000
,
20020000
00000000
00000000
00000000
,
00000000
00000000
00000000
30030000
,
00100000
00000000
00000000
10000000
01000000
00000000
00110000
00000000
,
00001000
00000000
00000000
00010000
00000000
00000000
00000100
00000000
00002000
00000000
00000000
00000000
00003001
00000000
00000000
00000000
,
00000010
00000000
00001000
00000001
00000100
00000000
00000010
00001000
,
00000200
00000000
00010300
00001000
00000000
00000000
00001000
00010000
,
00000200
00020300
00032000
01003000
,
00200000
00000000
00000000
10000000
10300000
00000000
00010000
00100000
,
00002000
00000000
00013000
00000100
00001000
00000000
00000001
00001000
,
00000200
00000000
00020300
00000000
00032000
00000000
01003000
00100000
,
20000000
00000000
30010000
00100000
00002000
00000000
00013000
00000010
,
00000200
00000000
00000000
00000301
00000001
00000000
00001010
00000000
,
00011000
00000000
00001000
00100000
00010000
00000000
01000000
00100000
,
10000000
00000000
00100000
00001000
00010000
00000000
00000100
00000000
,
00001001
00001100
00011000
01010000
,
10200000
00000000
00000000
01300000
01000000
00000000
00001000
00010000
,
00000200
00000000
00010300
00001000
02000000
00000000
03001000
00010000
,
00000020
00000000
00001030
00000100
00000001
00000000
00000010
00001000
,
00001100
00000000
00011000
00000000
01010000
00000000
10000000
00010000
,
00100000
00000000
00000000
00100000
00000000
00000000
00100000
00000000
00000000
00000000
00000000
00000000
10010000
00000000
00000000
00000000
,
10000000
00100000
01000000
00010000
02000000
00000000
03100000
00000000
,
10200000
00000000
00000000
01300000
00010000
01000000
00100000
01000000
,
00002000
00000000
00000000
00010000
00013000
00000000
00011000
00000000
,
00010100
00010010
00001001
00000110
,
00001001
00000000
00001100
00000000
00000010
00001000
00001000
00000000
,
00000200
00000000
00000000
00010300
00001000
01000000
00010000
01000000
,
00002000
00000000
00000000
00010000
00013000
00000000
00000100
00001000
,
00001001
00000000
00001100
00000000
00001010
00000000
00000010
00010000
,
00001000
01001000
01010000
10010000
,
01200000
10000000
01000000
10300000
,
20100000
00010000
01000000
30010000
,
01100000
00000000
00000000
00010000
01000000
10000000
01000000
00010000
,
00100000
00000000
00000000
00001000
00000000
00000000
00020000
00000000
00000020
00000000
00030030
00000000
00001001
00000000
00000000
00000000
,
00000020
00000000
00000000
00001030
00000100
00001000
00000001
00000000
,
00001000
00000100
00020000
00000000
00000000
00031000
00001000
00000000
,
00100000
00010000
01000000
00100000
10000000
00000000
01010000
00000000
,
00100000
00001000
00010000
00000100
00000000
00001000
00000010
00001000
,
00000002
00000000
00001003
00001000
00000100
00000100
00010000
00001000
,
01000000
00010000
02000000
00000000
00000000
03100000
00100000
00000000
,
10100000
00000000
00110000
00000000
00011000
00000000
00000010
00001000
,
00001001
00000000
00011000
00000000
00100000
00010000
01000000
00000000
,
10010000
00000000
00000000
10010000
00000000
00000000
10010000
00000000
00000000
00000000
00200000
00000000
02000000
00000000
03300000
00000000
,
10010000
10010000
00000000
00000000
01000000
00010000
00000000
00000000
,
00010000
00001000
00000000
00000000
00001000
00000100
00000000
00000000
,
00000001
00000100
00000000
00000000
00001000
00000100
00000000
00000000
,
00020000
00031000
20000000
30010000
,
10000000
00010000
00000000
00000000
00010000
00001000
00000000
00000000
,
00001000
00000001
00000000
00000000
00001000
00010000
00000000
00000000
,
01000000
00000000
00010000
00000000
,
00002000
00003002
00000023
00000030
,
00000002
00000000
00000000
00000103
00000010
00001000
00000100
00000000
,
00020000
00000000
00031000
00100000
00010000
00000000
10000000
00100000
,
01010000
00000000
00110000
00000000
01010000
00000000
00100000
00001000
,
00010000
00000000
00010100
00000000
00010000
00000100
00000100
00000000
,
00001002
00000000
00000000
00000103
00000010
00001000
00000100
00001000
,
00000020
00000000
00010030
00010000
00001000
00000000
00011000
00000000
,
01001000
01010000
10010000
01010000
,
01001000
00011000
00010100
00001100
,
00001002
00000010
00000100
00002003
,
00000100
00003020
00001000
00020030
,
00031000
00000000
00000000
00100000
00000000
00000000
01000000
00000000
00000000
10000000
00000000
00000000
00100000
00000000
01000000
00000000
,
00001000
00000000
00000000
00010000
00000000
00000000
00000010
00000000
00000000
00000000
00000000
00000000
00001001
00000000
00000000
00000000
,
00011000
00000000
00000000
00000000
;

//---------------dance-double - ----------------
#NOTES:
     dance-double:
     :
     Medium:
     6:
     0.283500,0.408362,0.444183,0.279406,0.003582,277.000000,215.000000,62.000000,39.000000,0.000000,0.000000,0.283500,0.408362,0.444183,0.279406,0.003582,277.000000,215.000000,62.000000,39.000000,0.000000,0.000000:
00000000
00000000
00000000
00000000
,
00000000
00000000
00000000
00000000
,
00000000
00000000
00000000
00000000
,
00000000
00000000
00000000
00000000
,
00000000
00000000
00000000
00000000
,
00000000
00000000
00000000
00000000
,
00200000
00000000
00301000
00010000
,
00000020
00000000
00010030
00001000
,
00100000
00110000
11000000
00100000
,
00001000
00011000
00010200
00000300
,
00000020
00000000
00010030
00001000
,
02000000
00000000
03001000
00010000
,
00000010
00001010
00001001
00001000
,
00000100
00001100
00011000
00110000
,
00022000
00000000
00000000
00000000
,
00000000
00000000
00000000
00033000
,
00100000
00000000
00000000
01000000
00010000
00000000
01000000
00000000
,
10000000
11000000
00110000
00000000
,
10010000
00000000
00100000
11000000
,
00110000
00000000
00100000
00001000
,
00010000
00000020
00001030
00000002
,
00002003
00000000
00000000
00000100
00003100
00000000
00000000
00000010
,
00001000
00000000
00000100
00000000
00010000
00000000
00000000
00001000
,
00001000
00000000
00100000
00000000
00010000
00000000
00000000
01000000
,
00100000
00000000
00000000
10000000
00010000
00000000
00100000
00000000
,
00002000
00000000
00000000
00010000
00013000
00000000
00000100
00000000
,
00001100
00000000
00000000
00001000
00000100
00000000
00010000
00000000
,
00001000
00000000
01000000
00010000
01000000
00000000
00001000
00000000
,
01000000
01100000
10010000
00000000
,
00020000
00000000
00000000
00100000
00130000
00000000
00100000
00000000
,
00002000
00010000
00013000
00000100
,
00001000
00000000
00000101
00000000
00001100
00000000
00000100
00010000
,
00001000
00011000
00010100
00000000
,
00022000
00000000
00000000
00033000
,
00200000
02300000
03020000
10030000
,
02000000
00000000
03001000
00010000
,
00000200
00000000
00010300
00001000
,
01000000
11000000
00110000
00000000
,
00001000
00010000
00011000
00000000
,
00000200
00000000
00010300
00001000
,
00200000
00000000
00301000
00010000
,
00000100
00001100
00000011
00000010
,
00000011
00001100
00001001
00000100
,
00000220
00000000
00000000
00000000
,
00000000
00000000
00000330
00000000
,
00001001
00000000
00000100
00010000
,
00011000
00000000
00022000
00033000
,
00200000
00000000
00310000
01000000
,
00010000
01000000
10000000
00000000
00000000
00000000
00100000
00000000
,
10000000
00010000
00100000
00000000
,
00011000
00011000
00000000
00002000
,
00003020
00000030
00000001
00000100
,
00000001
00000100
00001000
00000000
00000000
00000000
00001001
00000000
,
00000010
00001000
00000100
00000000
,
00000001
00000100
00001000
00010000
,
00001000
00000000
00000000
00001000
00000000
00000000
00001000
00000000
00000000
00000000
00000000
00000000
00011000
00000000
00000000
00000000
,
00011000
00000000
00110000
00000000
,
01100000
00000000
11000000
00000000
,
01100000
00000000
00110000
00000000
,
00011000
00011000
00011000
00000000
,
00011000
00000000
00001100
00000000
,
00000110
00000000
00000011
00000000
,
00000020
00000000
00002030
00000000
,
00003100
00000010
00002002
00003003
,
00000020
00000000
00010030
00001000
,
00200000
00000000
00301000
00010000
,
00000010
00001010
00000101
00000010
,
00001000
00000100
00011000
00000000
,
02000000
00000000
03001000
00010000
,
00000200
00000000
00010300
00001000
,
01000000
00110000
11000000
00100000
,
01010000
10100000
00100000
00001000
,
00022000
00000000
00000000
00000000
,
00000000
00000000
00033000
00000000
,
00000100
00001000
00000010
00000001
,
00000100
00000000
00000000
00010000
00000000
00000000
00001000
00000000
,
00011000
00000000
00000000
00000000
;

//---------------dance-single - ----------------
#NOTES:
     dance-single:
     :
     Medium:
     6:
     0.274288,0.408362,0.451348,0.243584,0.003582,268.000000,205.000000,63.000000,34.000000,0.000000,0.000000,0.274288,0.408362,0.451348,0.243584,0.003582,268.000000,205.000000,63.000000,34.000000,0.000000,0.000000:
0000
0000
0000
0000
,
0000
0000
0000
0000
,
0000
0000
0000
0000
,
0000
0000
0000
0000
,
0000
0000
0000
0000
,
0000
0000
0000
0000
,
0020
0000
0130
0001
,
2000
0000
3001
0000
,
0010
0011
1100
0000
,
0100
1100
0011
0000
,
0020
0000
0130
1000
,
0002
0000
1003
0000
,
0001
0101
1010
0000
,
1000
0100
0010
0001
,
2002
0000
0000
0000
,
0000
0000
0000
3003
,
0010
0000
0000
1000
0001
0000
0100
0000
,
1000
1100
0011
0000
,
1001
0000
0010
1100
,
0011
0000
0010
0100
,
1000
1000
0001
0001
,
0200
0000
0000
0010
0310
0000
0000
0001
,
1000
0000
0010
0000
0010
0000
0000
1000
,
0001
0000
0010
0000
0010
0000
0000
0100
,
0010
0000
0000
1000
0001
0000
0010
0000
,
2000
0000
0000
0001
3001
0000
0100
0000
,
0110
0000
0010
0011
,
1100
0000
0100
0010
,
0001
0001
1000
1000
,
0002
0000
0000
0010
0013
0000
0000
0000
,
2010
0001
3001
0000
,
0012
0000
1000
0000
1003
0000
0100
0010
,
0100
0001
1001
0000
,
0220
0000
0000
0330
,
0020
0230
0302
1003
,
0020
0000
0130
0001
,
2000
0000
3001
0000
,
0010
0011
1100
0000
,
0100
1100
0011
0000
,
0020
0000
0130
1000
,
0002
0000
1003
0000
,
0001
0101
1010
0000
,
1000
0100
0010
0001
,
2002
0000
0000
0000
,
0000
0000
0000
3003
,
0010
0000
0000
1000
0001
0000
0100
0000
,
1000
1100
0011
0000
,
0020
0000
0031
0100
,
0001
0100
1000
0000
0000
0000
0010
0000
,
1000
0001
0010
0000
,
1001
1001
0000
0000
,
0020
0000
1030
0100
,
1000
0100
0001
0000
0000
0000
1001
0000
,
0010
0001
0100
0000
,
0001
0010
0100
1000
,
0001
0000
0000
0001
0000
0000
0001
0000
0000
0000
0000
0000
1001
0000
0000
0000
,
1001
0000
0011
0000
,
0110
0000
1100
0000
,
0110
0000
0011
0000
,
1001
1001
1001
0000
,
1010
0000
0101
0000
,
1100
0000
0011
0000
,
0020
0000
0230
0000
,
0301
0100
2002
3003
,
0200
0300
1001
0110
,
0020
0030
1001
0110
,
0001
0100
1000
0010
,
1001
0110
1001
0000
,
0200
0300
0110
1001
,
0020
0030
0110
1001
,
0100
0011
1100
0010
,
0101
1010
0010
0100
,
2002
0000
0000
0000
,
0000
0000
3003
0000
,
0100
1000
0010
0001
,
0100
0000
0000
1000
0000
0000
0001
0000
,
1001
0000
0000
0000
;

//---------------dance-single - ----------------
#NOTES:
     dance-single:
     :
     Easy:
     4:
     0.202646,0.272241,0.164778,0.193435,0.003582,198.000000,175.000000,23.000000,27.000000,0.000000,0.000000,0.202646,0.272241,0.164778,0.193435,0.003582,198.000000,175.000000,23.000000,27.000000,0.000000,0.000000:
0000
0000
0000
0000
,
0000
0000
0000
0000
,
0000
0000
0000
0000
,
0000
0000
0000
0000
,
0000
0000
0000
0000
,
0000
0000
0000
0000
,
0020
0000
0130
0000
,
2000
0000
3001
0000
,
0010
0001
0100
0000
,
0100
1000
0010
0000
,
0020
0000
0130
0000
,
0002
0000
1003
0000
,
0001
0100
1000
0000
,
1000
0100
0001
0000
,
2002
0000
0000
0000
,
0000
0000
0000
3003
,
0010
0000
1001
0000
,
1000
0100
0010
0000
,
1001
0000
0010
0100
,
0010
0000
0010
0100
,
1000
1000
0001
0001
,
0200
0000
0310
0000
,
1000
0010
0010
0000
,
0001
0010
0010
0000
,
0010
0000
0001
0000
,
0100
0000
1000
0000
,
1001
0000
0010
0001
,
0100
0000
0010
1000
,
0001
0001
1000
1000
,
0002
0000
0013
0000
,
0010
0001
0001
0000
,
0010
1000
1000
0000
,
0100
0001
1000
0000
,
2002
0000
3003
0000
,
0010
0001
0200
0300
,
0020
0000
0130
0000
,
2000
0000
3001
0000
,
0010
0001
0100
0000
,
0100
1000
0010
0000
,
0020
0000
0130
0000
,
0002
0000
1003
0000
,
0001
0100
1000
0000
,
1000
0100
0001
0000
,
2002
0000
0000
0000
,
0000
0000
0000
3003
,
0010
0000
0001
0100
,
1000
0100
0001
0000
,
0010
0000
0001
0100
,
0001
1001
0000
0000
,
1000
0001
0010
0000
,
1001
1001
0000
0000
,
0020
0000
1030
0100
,
1000
1001
0000
0000
,
0010
0001
0100
0000
,
0001
0010
0100
1000
,
0001
0000
0000
0001
0000
0000
0001
0000
0000
0000
0000
0000
0000
0000
0000
0000
,
1001
0000
1001
0000
,
0110
0000
0110
0000
,
1001
0000
1001
0000
,
0010
0100
1001
0000
,
0110
0000
0110
0000
,
1001
0000
1001
0000
,
0020
0000
0230
0000
,
0302
0000
2000
3003
,
0100
0000
1000
0100
,
0020
0030
0001
0100
,
1000
0100
0001
0000
,
1000
0100
0001
0000
,
0200
0300
0010
1000
,
0020
0030
0100
0001
,
0100
0001
1000
0010
,
0001
0010
1000
0100
,
2002
0000
0000
0000
,
0000
0000
3003
0000
,
0100
0000
0010
0000
,
0001
0000
0000
1000
0000
0000
0001
0000
,
1001
0000
0000
0000
;

//---------------dance-single - ----------------
#NOTES:
     dance-single:
     :
     Beginner:
     2:
     0.112581,0.163345,0.028657,0.100299,0.000000,110.000000,106.000000,4.000000,14.000000,0.000000,0.000000,0.112581,0.163345,0.028657,0.100299,0.000000,110.000000,106.000000,4.000000,14.000000,0.000000,0.000000:
0000
0000
0000
0000
,
0000
0000
0000
0000
,
0000
0000
0000
0000
,
0000
0000
0000
0000
,
0000
0000
0000
0000
,
0000
0000
0000
0000
,
0010
0000
0000
0000
,
0100
0000
0000
0000
,
0010
0000
0010
0000
,
0010
0000
0000
0000
,
0001
0000
0000
0000
,
1000
0000
0000
0000
,
0100
0000
0100
0000
,
0100
0000
0000
0000
,
0020
0000
0000
0000
,
0030
0000
0000
0000
,
0010
0000
0010
0000
,
0010
0000
0010
0000
,
0001
0000
0000
0000
,
1000
0000
0000
0000
,
0010
0000
0000
0000
,
0100
0000
0000
0000
,
1000
0000
0100
0000
,
0001
0000
0100
0000
,
0001
0000
0001
0000
,
0001
0000
0001
0000
,
1000
0000
0001
0000
,
0100
0000
0010
0000
,
1000
0000
1000
0000
,
0001
0000
0001
0000
,
0010
0000
0010
0000
,
0100
0000
0100
0000
,
0010
0000
0010
0000
,
0020
0000
0030
0000
,
0200
0000
0300
0000
,
0010
0000
0010
0000
,
0100
0000
0100
0000
,
0001
0000
0001
0000
,
1000
0000
1000
0000
,
0020
0000
0030
0000
,
0200
0000
0300
0000
,
0002
0000
0003
0000
,
2000
0000
3000
0000
,
2002
0000
0000
0000
,
3003
0000
0000
0000
,
0010
0000
0001
0000
,
0100
0000
1000
0000
,
0010
0000
0000
0000
,
0100
0000
0000
0000
,
0001
0000
0001
0000
,
0001
0000
0000
0000
,
0100
0000
0000
0000
,
0010
0000
0000
0000
,
1000
0000
1000
0000
,
0001
0000
0001
0000
,
1001
0000
0000
0000
,
0010
0000
0001
0000
,
0100
0000
1000
0000
,
0010
0000
0100
0000
,
0020
0000
0030
0000
,
0010
0000
1000
0000
,
0100
0000
0001
0000
,
0200
0000
0300
0000
,
0020
0000
0030
0000
,
0010
0000
0001
0000
,
0100
0000
0001
0000
,
0010
0000
1000
0000
,
0100
0000
1000
0000
,
0010
0000
0001
0000
,
0100
0000
1000
0000
,
0010
0000
1000
0000
,
0100
0000
0001
0000
,
2002
0000
0000
0000
,
0000
0000
3003
0000
,
0010
0000
0010
0000
,
0010
0000
0000
0000
,
1001
0000
0000
0000
;

//---------------dance-double - ----------------
#NOTES:
     dance-double:
     :
     Easy:
     4:
     0.160684,0.217793,0.078807,0.085971,0.000000,157.000000,146.000000,11.000000,12.000000,0.000000,0.000000,0.160684,0.217793,0.078807,0.085971,0.000000,157.000000,146.000000,11.000000,12.000000,0.000000,0.000000:
// measure 0
00000000
00000000
00000000
00000000
,  // measure 1
00000000
00000000
00000000
00000000
,  // measure 2
00000000
00000000
00000000
00000000
,  // measure 3
00000000
00000000
00000000
00000000
,  // measure 4
00000000
00000000
00000000
00000000
,  // measure 5
00000000
00000000
00000000
00000000
,  // measure 6
00100000
00000000
00010000
00000000
,  // measure 7
01000000
00000000
10000000
00000000
,  // measure 8
00100000
00000000
00001000
00000000
,  // measure 9
00010000
00000000
00000010
00000000
,  // measure 10
00000010
00000000
00000001
00000000
,  // measure 11
00000100
00000000
00001000
00000000
,  // measure 12
00000100
00000000
00010000
00000000
,  // measure 13
00001000
00000000
01000000
00000000
,  // measure 14
20020000
00000000
00000000
00000000
,  // measure 15
30030000
00000000
00000000
00000000
,  // measure 16
00100000
00000000
10000000
00000000
,  // measure 17
01000000
00000000
10010000
00000000
,  // measure 18
00100000
00000000
00001000
00000000
,  // measure 19
00010000
00000000
00001000
00000000
,  // measure 20
00100000
00100000
00100000
00000000
,  // measure 21
01000000
01000000
01000000
00000000
,  // measure 22
00010000
00000000
00001000
00000000
,  // measure 23
00010000
00000000
00001000
00000000
,  // measure 24
00000100
00000000
00000010
00000000
,  // measure 25
00000001
00000000
00001001
00000000
,  // measure 26
00000010
00000000
00010000
00000000
,  // measure 27
00001000
00000000
00010000
00000000
,  // measure 28
00000010
00000010
00000010
00000000
,  // measure 29
00000100
00000100
00000100
00000000
,  // measure 30
00000001
00000000
00000010
00000000
,  // measure 31
00001000
00000000
00000100
00000000
,  // measure 32
00010000
00001000
00010000
00000000
,  // measure 33
00022000
00000000
00033000
00000000
,  // measure 34
00022000
00000000
00033000
00000000
,  // measure 35
01000000
00000000
10000000
00000000
,  // measure 36
00100000
00000000
00010000
00000000
,  // measure 37
00001000
00001000
00001000
00000000
,  // measure 38
00010000
00010000
00010000
00000000
,  // measure 39
00000100
00000000
00001000
00000000
,  // measure 40
00000010
00000000
00000001
00000000
,  // measure 41
00001000
00001000
00001000
00000000
,  // measure 42
00000100
00000000
00010000
00000000
,  // measure 43
00022000
00000000
00000000
00000000
,  // measure 44
00033000
00000000
00000000
00000000
,  // measure 45
00100000
00000000
00010000
00000000
,  // measure 46
01000000
00000000
10010000
00000000
,  // measure 47
00100000
00000000
00100000
00000000
,  // measure 48
10000000
00010000
10000000
00000000
,  // measure 49
00100000
00000000
00100000
00000000
,  // measure 50
00001000
00010000
00001000
00000000
,  // measure 51
00000010
00000000
00000010
00000000
,  // measure 52
00001000
00000001
00001000
00000000
,  // measure 53
00000010
00000000
00000010
00000000
,  // measure 54
00010000
00001000
00010000
00000000
,  // measure 55
00022000
00000000
00033000
00000000
,  // measure 56
00010000
00000000
01000000
00000000
,  // measure 57
10000000
00000000
00100000
00000000
,  // measure 58
00001000
00000000
00000100
00000000
,  // measure 59
00000001
00000000
00000010
00000000
,  // measure 60
00001000
00000000
00010000
00000000
,  // measure 61
01000000
00000000
10000000
00000000
,  // measure 62
01000000
00000000
00010000
00000000
,  // measure 63
00001000
00001000
00011000
00000000
,  // measure 64
00010000
00000000
10000000
01000000
,  // measure 65
00100000
00000000
00001000
00000000
,  // measure 66
00010000
00000000
00000010
00000000
,  // measure 67
00000001
00000100
00001000
00000000
,  // measure 68
00000001
00000000
00000010
00000100
,  // measure 69
00001000
00000000
00010000
00000000
,  // measure 70
00001000
00000000
01000000
00000000
,  // measure 71
00100000
10000000
01000000
00000000
,  // measure 72
20020000
00000000
00000000
00000000
,  // measure 73
30030000
00000000
00000000
00000000
,  // measure 74
00100000
00000000
00001000
00000000
,  // measure 75
00010000
00000000
00000100
00000000
,  // measure 76
00011000
00000000
00000000
00000000
;
