#TITLE:ANCHOR;
#SUBTITLE:;
#ARTIST:BEMANI Sound Team "HuΣeR Vs. SYUNN";
#TITLETRANSLIT:;
#SUBTITLETRANSLIT:;
#ARTISTTRANSLIT:;
#GENRE:;
#CREDIT:;
#BANNER:ANCHOR.png;
#BACKGROUND:ANCHOR-bg.png;
#LYRICSPATH:;
#CDTITLE:;
#MUSIC:ANCHOR.ogg;
#OFFSET:-0.150000;
#SAMPLESTART:86.819977;
#SAMPLELENGTH:13.000000;
#SELECTABLE:YES;
#BPMS:0.000000=180.000000
,104.000000=90.000000
,120.000000=180.000000
,152.000000=90.000000
,168.000000=180.000000
;
#STOPS:
;
#BGCHANGES:0.000=ANCHOR.avi=1.000=0=0=0=StretchNoLoop====,
99999=-nosongbg-=1.000=0=0=0 // don't automatically add -songbackground-
;
#KEYSOUNDS:;
#ATTACKS:;

//---------------dance-single - ----------------
#NOTES:
     dance-single:
     :
     Hard:
     17:
     0.857212,1.586015,0.508106,0.475845,0.923462,744.000000,681.000000,63.000000,59.000000,0.000000,0.000000,0.857212,1.586015,0.508106,0.475845,0.923462,744.000000,681.000000,63.000000,59.000000,0.000000,0.000000:
0000
0000
0000
0000
,
0000
0000
0000
0000
,
0000
0000
0000
0000
,
0000
0000
0000
0000
,
0000
0000
0000
0000
,
0000
0000
0000
0000
,
1001
0000
1000
1100
0000
0010
0001
0100
,
0101
0000
0010
1010
0000
0100
0010
1000
,
1010
0000
0001
0011
0000
0100
0010
1000
,
0001
0000
0100
0000
0010
0000
1000
0000
0001
0010
0001
0100
0001
1000
0001
0000
,
1001
0000
0000
0000
1000
0000
1010
0000
0000
0000
0001
0100
0001
0000
1000
0000
,
1001
0000
0000
0000
0001
0000
0011
0000
0000
0000
0100
0010
1000
0000
0010
0000
,
0110
0000
0000
0000
1000
0000
1001
0000
0000
0000
0010
0001
0100
0000
0010
0000
,
1000
0000
0001
0000
0100
0000
0001
0000
1000
0000
1000
0001
1000
0000
0000
0000
,
0101
0000
1000
1010
0000
0001
0010
0001
,
0011
0000
1000
1100
0000
0001
0101
0001
,
1000
0001
1000
0010
1000
0010
0100
0001
0010
0001
0100
0010
1000
0001
0100
0010
,
2000
0000
3002
0000
,
0103
0000
0000
0000
,
0000
0000
0000
0000
,
0000
0000
0000
0000
,
0000
0000
0000
0000
,
0001
0100
0001
0000
1000
0001
1000
0000
0001
0010
0001
0000
1000
0010
1000
0000
,
0100
1000
0100
0000
1000
0001
1000
0000
0001
0100
0010
0000
1000
0010
0100
0000
,
0001
0010
0001
0100
0010
0100
0001
1000
0010
1000
0100
1000
0010
0100
0001
0100
,
0020
0000
0000
0000
2030
0000
0000
0000
3001
0000
1000
0001
1000
0001
1000
0001
,
0100
0000
0000
0000
0000
0000
0010
0000
0110
0000
0001
0000
0010
0100
0001
1000
0001
0100
0001
0000
0000
0000
1000
0000
1100
0000
0010
0100
0001
1000
0001
1000
,
0010
0000
0000
0000
1000
0000
0001
0000
0000
0000
0100
0000
0110
0000
0010
0000
1000
0100
1000
0100
0010
0001
0010
0001
1000
0010
0100
0010
1000
0001
0010
0001
,
1000
0000
0000
0000
0001
0000
0100
0000
0001
0000
1000
0010
1000
0001
1000
0010
1000
0100
1000
0000
0000
0000
0001
0000
0101
0000
0010
1000
0010
0100
0010
0000
,
1000
0000
0000
0000
0001
0000
0100
0000
0001
0000
1000
0010
1000
0100
1000
0001
0100
0000
0010
0000
0000
0000
2002
0000
0000
0000
3003
0000
1001
0000
0000
0000
,
0010
0000
0000
0000
0001
0000
1000
0000
0000
0001
0000
0000
1000
0100
0010
0001
,
0010
0100
1000
0000
0001
0000
0101
0000
0000
1001
0000
0000
0010
0001
0100
0001
,
0010
0001
0100
0000
0001
0000
1000
0010
0000
0010
1000
0000
0001
0000
1000
0000
,
0001
0100
0001
0100
0010
1000
0010
1000
0001
0100
0010
1000
0100
0010
0001
1000
,
0010
0000
0000
0000
1001
0000
0100
0000
0000
0000
0001
1000
0010
1000
0100
1000
,
0001
0010
0100
0000
0001
0000
1000
0000
0000
0010
1000
0100
1000
0010
0100
0010
,
1000
0000
0001
0100
0001
0000
1000
0000
0000
0000
0001
0100
0001
1000
0001
0010
,
0002
2003
3020
0230
,
0300
0000
0000
0000
0000
0000
0000
0000
0000
0000
0000
0000
0001
0000
0000
0000
0000
0000
1000
0000
0000
0020
0000
0000
0000
0000
0000
0000
0000
0000
0000
0000
0000
0000
0000
0000
1030
0000
0100
0000
0010
0000
0001
0000
0100
0000
0010
0000
,
2000
0000
0000
0000
0000
0000
0000
0000
0000
0000
0000
3001
0000
0000
0010
0000
0100
0000
0000
0020
0000
0000
0000
0000
0000
0000
0000
0000
0030
0000
0000
0000
,
1001
0000
0000
0000
0100
0000
1000
0000
1100
0000
1000
0000
0010
0000
0100
0000
0202
0000
0000
0000
0303
0000
0001
0100
0010
0000
0000
1010
0000
0000
0100
0000
,
0002
0000
0000
0000
1003
0000
0010
0000
2000
0000
0000
0002
0000
0000
3003
0000
,
0001
0100
0010
1000
0001
0010
0100
1000
,
0001
0100
0001
1000
0100
1000
0001
0010
0100
1000
0100
0001
,
0100
1000
0010
0001
0010
0100
0001
1000
,
0020
0000
0000
0000
0000
0000
1030
0001
0100
0000
0010
0000
1000
0000
0101
0000
,
2002
0000
0000
0000
3003
0000
0001
1000
0002
0000
0000
0000
1003
0010
0100
0001
,
2000
0000
0000
0000
3000
0000
0001
0010
0001
0000
1000
0000
0010
0000
0100
0000
,
0010
1000
0010
0100
0010
1000
0100
0010
0001
0100
0001
0010
0001
1000
0010
0100
,
0002
0000
2000
3003
,
0101
0000
1000
0000
0010
0000
1000
0000
0001
0000
1000
0100
0000
1000
0010
1000
,
0100
0000
1000
0000
0001
0000
0010
0000
0001
0000
0100
0010
0000
0100
0001
0100
,
0010
0000
1000
0000
0011
0000
1000
0000
0101
0000
1000
0001
0000
1000
0100
1000
,
0100
0000
1000
0000
0011
0000
1000
0000
0101
0000
0100
0001
0000
1000
0010
1000
,
0001
0000
0101
0000
0101
0000
0101
0000
1100
0000
1000
0010
0000
1000
0010
0100
,
0010
0000
0110
0000
0110
0000
0110
0000
1000
0001
0100
0001
1000
0100
0010
0001
,
1000
0010
1000
0010
0100
0001
0100
0001
1000
0100
0010
0001
1000
0010
0100
0001
,
0020
2030
0002
3003
,
0002
0000
0000
0000
0103
0000
0100
0000
0001
0100
0001
0010
0001
1000
0100
0010
,
0001
0000
0000
0000
0001
0000
0000
0000
1000
0010
0100
0001
1000
0001
0100
0010
,
1000
0000
0000
0000
0000
0000
0001
0000
0000
1000
0000
0000
0001
0000
0001
0000
0001
0000
1000
0000
1000
0000
1000
0000
,
0010
1000
0010
1000
0001
0100
0001
0010
0001
1000
0100
0010
0001
1000
0010
0100
,
0001
0000
0100
0100
0010
1000
0001
0001
,
1000
0000
0101
0000
1000
0010
0001
0000
,
0010
0001
1000
0001
1000
0010
1000
0100
,
0010
0011
0000
2002
0000
3003
1001
0000
,
0012
0000
0000
0100
0203
0000
0310
1000
,
2100
0000
0000
0000
0000
0000
0010
0000
3010
0000
0100
0000
0001
0010
0100
1000
,
0010
1000
0010
1000
0001
0010
0100
1000
,
0001
0010
0001
1000
0001
0100
0001
1000
,
0020
0000
0000
0100
0000
0000
1030
0000
,
0001
0100
0001
0100
0010
1000
0100
1000
,
0001
0100
0010
0100
0001
0000
1000
0010
0100
0001
1000
0000
0001
0010
0001
0100
,
0001
1000
0100
0010
0001
1000
0010
0100
0002
0000
1000
0000
1000
0000
1003
0000
,
2002
0000
3003
0000
0010
0000
0022
0000
0033
0000
1000
0010
1000
0001
1000
0000
,
2200
0000
3300
0000
0010
0000
0022
0000
0033
0000
0001
0100
0010
0100
0001
0000
,
2002
3003
1000
2200
3300
0100
0110
0100
,
0001
0010
0001
0100
0001
1000
0100
0010
0001
1000
0010
1000
0100
1000
0010
0100
,
0002
0003
1000
2002
3003
1000
0110
0000
,
0202
0303
1000
0202
0303
1000
0010
0100
,
0022
0033
1000
0220
0330
1000
0001
0010
,
0001
0100
0001
1000
0010
1000
0001
0010
0100
1000
0010
0100
0001
1000
0100
0001
;

//---------------dance-double - ----------------
#NOTES:
     dance-double:
     :
     Hard:
     17:
     0.789234,1.420805,0.395193,0.362933,0.806517,685.000000,636.000000,49.000000,45.000000,0.000000,0.000000,0.789234,1.420805,0.395193,0.362933,0.806517,685.000000,636.000000,49.000000,45.000000,0.000000,0.000000:
00000000
00000000
00000000
00000000
,
00000000
00000000
00000000
00000000
,
00000000
00000000
00000000
00000000
,
00000000
00000000
00000000
00000000
,
00000000
00000000
00000000
00000000
,
00000000
00000000
00000000
00000000
,
10010000
00000000
00000000
00011000
00000000
00000000
00000100
00001000
,
00001001
00000000
00000000
00011000
00000000
00000000
01000000
00010000
,
10010000
00000000
00000000
10010000
00000000
00000000
00100000
10000000
,
01000000
00000000
00100000
00000000
00010000
00000000
10000000
00000000
00010000
00100000
00010000
01000000
00100000
10000000
01000000
10000000
,
00100000
00000000
00000000
10100000
00000000
00000000
00010000
00100000
,
00001000
00000000
00000000
00000000
00000000
00000000
00011000
00000000
00000000
00000000
00010000
00000100
00001000
00000000
00000100
00000000
,
00001100
00000000
00000000
00000000
00000000
00000000
00001001
00000000
00000000
00000000
00000010
00000000
00001000
00000100
00001000
00000010
,
00001000
00000000
00000000
00000000
00000000
00000000
00001100
00000000
00000000
00000000
00000100
00010000
00000100
00001000
00000100
00010000
,
00001000
00000000
00000000
00101000
00000000
00000000
00100000
00010000
,
01010000
00000000
00000000
00000000
00000000
00000000
10100000
00000000
00000000
00000000
00010000
01000000
00100000
00000000
10000000
00000000
,
10010000
00000000
00000000
00110000
00000000
00000000
00100000
00001000
,
00022000
00000000
00000000
00033000
,
00011000
00000000
00000000
00000000
,
00000000
00000000
00000000
00000000
,
00000000
00000000
00000000
00000000
,
00000000
00000000
00000000
00000000
,
00000010
00000100
00000010
00000100
00000001
00001000
00000100
00010000
,
00001000
00010000
00001000
00010000
00001000
01000000
00010000
10000000
,
00100000
01000000
00100000
01000000
00010000
00100000
01000000
10000000
00100000
01000000
00100000
01000000
00010000
00100000
01000000
10000000
,
00200000
00000000
02300000
00000000
03002000
00020000
00033000
00000000
,
00002000
00000000
00000000
00000000
00000000
00000000
00013000
00000000
00000100
00000000
00001000
00000100
00000010
00000001
00000010
00000001
00000010
00000100
00001000
00000000
00000001
00000000
00001000
00000000
00000100
00000000
00010000
00001000
00010000
00000100
00010000
00001000
,
00010000
00000000
00000000
00000000
00001000
00000000
00100000
00000000
00010000
00000000
01000000
00100000
01000000
00010000
01000000
00100000
10000000
00000000
00010000
00000000
10000000
00000000
01000000
00000000
10000000
01000000
00100000
00010000
00100000
01000000
10000000
00000000
,
00200000
00000000
00000000
00000000
00000000
00000000
01300000
00000000
00010000
00000000
10000000
00100000
01000000
00100000
10000000
00010000
10000000
01000000
10000000
00000000
00100000
00000000
01000000
00000000
00010000
00000000
00100000
00001000
00010000
00001000
00100000
00000000
,
00001000
00000000
00000000
00000000
00010000
00000000
00000100
00000000
00001000
00000000
00000010
00001000
00000100
00001000
00000010
00000000
00001000
00000000
00000001
00000000
00000000
00000000
00002020
00000000
00000000
00000000
00003030
00000000
00000101
00000000
00000000
00000000
,
00001100
00000000
00000000
00000000
00000001
00000000
00001000
00000000
00000100
00000000
00001000
00000010
00001000
00000100
00001000
00000100
,
00001000
00000001
00000100
00000000
00000010
00000000
00010000
00000000
00000000
00011000
00000000
00000000
00001000
00000000
00100000
00000000
,
00010000
00000000
00000000
00000000
00010000
00000000
10000000
00000000
01000000
00000000
10000000
00010000
01000000
00010000
00100000
00010000
,
10000000
00100000
10000000
00000000
00010000
01000000
00010000
00000000
10000000
01000000
00100000
00010000
00100000
01000000
10000000
00000000
,
00010000
00000000
00000000
00000000
00110000
00000000
00000000
00000000
00100000
00001000
00010000
00001000
00100000
00001000
00010000
00001000
,
00100000
00000000
00000000
00000000
01000000
00000000
00010000
00000000
00000000
10010000
00000000
00000000
10000000
00100000
01000000
00010000
,
10000000
00000000
10000000
00000000
00010000
00000000
00010000
00000000
00100000
00000000
00001000
00010000
00001000
00010000
00000100
00001000
,
00000100
00000000
00001000
00000000
00000010
00000000
00000001
00000000
00001000
00000010
00000100
00000001
00001000
00000100
00000010
00000001
,
00001000
00000000
00000000
00000000
00000000
00000000
00000000
00000000
00000000
00000000
00000000
00000000
00000200
00000000
00000000
00000000
00000000
00000000
00010300
00000000
00000000
00002000
00000000
00000000
00000000
00000000
00000000
00000000
00000000
00000000
00000000
00000000
00000000
00000000
00000000
00000000
00103000
00000000
00010000
00000000
01000000
00000000
00100000
00000000
10000000
00000000
01000000
00000000
,
00200000
00000000
00000000
00000000
00000000
00000000
00000000
00000000
00000000
00000000
00000000
00301000
00000000
00000000
00001000
00000000
00020000
00000000
00000000
00000000
00000200
00000000
00000000
00000000
00000000
00000000
00000000
00000000
00030300
00000000
00000000
00000000
,
00001001
00000000
00000000
00000000
00000010
00000000
00001000
00000000
00000100
00000000
00001000
00000000
00000010
00000000
00000100
00000000
00000002
00000000
00000000
00000000
00000003
00000000
00000010
00000100
00001000
00000000
00000000
00000100
00000000
00000000
00010000
00000000
,
00002000
00003000
00020000
20030000
30200000
00000000
02000000
03300000
,
00100000
10000000
01000000
00100000
00010000
00001000
00000100
00000000
,
00000010
00001000
00000010
00000100
00000001
00000100
00000010
00001000
00000100
00010000
00001000
01000000
,
00010000
10000000
00100000
10000000
00010000
00100000
00001000
00010000
,
00000020
00000000
00000000
00000000
00000030
00000000
00001000
00010000
00000100
00000000
00010000
00000000
00001000
00000000
01000000
00000000
,
00200000
00000000
00000000
00000000
00300000
00000000
20000000
00000000
00000000
00000000
30000000
00000000
01000000
00010000
01000000
00100000
,
02000000
00000000
00000000
03020000
00000000
00130000
00001000
00010000
,
00001000
00100000
00010000
00100000
00010000
01000000
00100000
10000000
00010000
00100000
00010000
00100000
00001000
00010000
00000100
00001000
,
00000020
00000000
00000000
00000130
,
00000001
00000000
00001000
00000000
00000010
00000000
00001000
00000000
00000001
00000000
00001000
00000100
00000000
00010000
00001000
00000000
,
00100000
00000000
00010000
00000000
01000000
00000000
00010000
00000000
10000000
00000000
00100000
10000000
00000000
00010000
01000000
00000000
,
00001000
00000000
00010000
00000000
00000010
00000000
00001000
00000000
00000001
00000000
00001000
00000100
00000000
00010000
00001000
00000000
,
00100000
00000000
00010000
00000000
01000000
00000000
00100000
00000000
10000000
00000000
00010000
00100000
00000000
00010000
00100000
00000000
,
00001000
00000000
00010000
00000000
00000010
00000000
00001010
00000000
00001001
00000000
00000100
00000010
00000000
00001000
00000100
00000000
,
00010000
00000000
00001000
00000000
00100000
00000000
00110000
00000000
01010000
00000000
00100000
10000000
00000000
10000000
01000000
00000000
,
10000000
00100000
10000000
00010000
00100000
00010000
10000000
01000000
00100000
00010000
10000000
00100000
01000000
00100000
10000000
00010000
,
00200000
00000000
00302000
00000000
00023000
00002000
00000000
00033000
,
00011000
00000000
00000000
00000000
00020000
00000000
00000200
00000000
00030300
00000000
00001000
00000000
00000010
00000100
00000001
00000100
,
00000010
00000000
00001000
00000000
00000001
00000100
00000001
00000010
00000001
00000000
00002000
00000000
00003200
00000000
00020300
00000000
,
00031000
00000000
00000000
00000000
00000000
00000000
00000000
00000000
00000000
00000000
00000000
00000000
00200000
00000000
00000000
00000000
00000000
00000000
00302000
00000000
00000000
00000000
00000000
00000000
00103000
00000000
00000000
00000000
00010000
00000000
00000000
00000000
01000000
00000000
00000000
00000000
00010000
00000000
00000000
10000000
00000000
00000000
00010000
00000000
00000000
00100000
00000000
00000000
,
00010000
00000000
10000000
00000000
00100000
00000000
10000000
00000000
00010000
00100000
01000000
00100000
00010000
00000000
10000000
00000000
,
10010000
00000000
00000000
00000000
00100000
00000000
00100000
00000000
01000000
00010000
00100000
00010000
01000000
00000000
00001000
00000000
,
00010000
00000000
00001100
00000000
00001010
00000010
00000110
00000000
,
00001001
00000000
00000002
00000000
00001003
00000100
00001100
00000000
,
00000010
00001000
00000000
00002002
00000000
00003003
00001001
00000000
,
00000020
00001000
00001000
00002030
00000000
00000000
00003100
00010000
,
00002000
00000000
00100000
00000000
00100000
00000000
00103000
00010000
01000000
00010000
01000000
00010000
10000000
00100000
10000000
00100000
,
10000000
00010000
01000000
00001000
00010000
00000010
00001000
00000001
,
00001000
00000100
00010000
00001000
00100000
00010000
01000000
00100000
,
20000000
00000000
00000000
30000000
00000000
00000000
10000000
00100000
01000000
00010000
00100000
00001000
,
00010000
00000000
00000000
00000000
00001000
00000000
00000000
00000000
00010000
00000000
00000000
00000000
00000010
00000000
00000000
00000000
00001000
00000000
00000000
00000000
00000001
00000000
00000000
00000000
00001000
00000000
00000000
00000100
00000000
00000000
00000010
00000000
00000000
00000100
00000000
00000000
00001000
00000000
00000000
00000100
00000000
00000000
00000001
00000000
00000000
00000100
00000000
00000000
,
00001000
00000010
00001000
00000010
00001000
00000000
00000100
00010000
00000100
00010000
00000100
00000000
00010000
00001000
00100000
00010000
,
00100000
00010000
01000000
00010000
01000000
00010000
10000000
01000000
00100000
00010000
01000000
00100000
01000000
00000000
00010000
00000000
,
00110000
00000000
00000000
00000000
00001000
00000000
00011000
00000000
00000000
00000000
00010000
00000100
00001000
00000000
00000010
00000000
,
00001001
00000000
00000000
00000000
00001000
00000000
00001100
00000000
00000000
00000000
00000100
00010000
00001000
00000000
00010000
00000000
,
00011000
00000000
00000000
00000000
00001000
00000000
00101000
00000000
00000000
00000000
00100000
00000000
00010000
01000000
00010000
00100000
,
00010000
00000000
01000000
00000000
00100000
00000000
10000000
00000000
00010000
00100000
01000000
10000000
01000000
00100000
00010000
00000000
,
01000000
00000000
00100000
01100000
00000000
00000000
00110000
00000000
,
00101000
00000000
00000000
00000000
00010000
00000000
00011000
00000000
00000000
00000000
00001000
00010000
00000100
00000000
00001000
00000000
,
00001001
00000000
00000000
00000000
00001000
00000100
00001000
00000000
00000000
00000000
00000100
00000000
00010000
00000000
00010000
00000000
,
00001000
00000000
00100000
00000000
00010000
00000000
01000000
00000000
10000000
00100000
01000000
00100000
10000000
00010000
00100000
00001000
;

//---------------dance-double - ----------------
#NOTES:
     dance-double:
     :
     Medium:
     11:
     0.471236,0.793008,0.137108,0.290346,0.116945,409.000000,392.000000,17.000000,36.000000,0.000000,0.000000,0.471236,0.793008,0.137108,0.290346,0.116945,409.000000,392.000000,17.000000,36.000000,0.000000,0.000000:
00000000
00000000
00000000
00000000
,
00000000
00000000
00000000
00000000
,
00000000
00000000
00000000
00000000
,
00000000
00000000
00000000
00000000
,
00000000
00000000
00000000
00000000
,
00000000
00000000
00000000
00000000
,
11000000
00000000
00000000
01010000
00000000
00000000
00000000
00000000
,
00110000
00000000
00000000
00101000
00000000
00000000
00000000
00000000
,
00011000
00000000
00000000
00010010
00000000
00000000
00000000
00000000
,
00000001
00000100
00000010
00001000
00000100
00010000
00001000
00100000
,
00010000
00000000
00000000
10000000
00000000
00000000
00100000
00000000
,
01000000
00000000
00000000
00010000
00000000
00000000
00100000
00000000
,
00001000
00000000
00000000
00010000
00000000
00000000
00000010
00000000
,
00001000
00000000
00000000
00000001
00000000
00001000
00000010
00001000
,
00000100
00000000
00000000
00010000
00000000
00000000
00001000
00000000
,
00100000
00000000
00000000
00010000
00000000
00000000
10000000
00000000
,
01000000
00000000
00000000
00100000
00000000
00000000
00001000
00000000
,
00020000
00000000
00002000
00000000
,
00033000
00000000
00000000
00000000
,
00000000
00000000
00000000
00000000
,
00000000
00000000
00000000
00000000
,
00000000
00000000
00000000
00000000
,
00100000
00010000
01000000
10000000
,
00100000
10000000
00100000
10000000
00010000
01000000
00010000
01000000
,
00010000
00100000
00010000
00100000
00001000
00010000
00001000
00010000
,
00002000
00023000
00002000
00033000
,
00010000
00000000
00000000
00010000
00000100
00000000
00001000
00000010
00000100
00000001
00000000
00000001
00000100
00000000
00000010
00001000
,
00000100
00000000
00000000
00000100
00010000
00000000
00001000
00000000
00010000
00001000
00010000
00001000
00100000
00010000
00100000
00010000
,
01000000
00000000
00000000
00100000
10000000
00000000
00100000
01000000
00100000
01000000
00000000
00010000
00100000
00000000
00001000
00100000
,
00001000
00000000
00000000
00010000
00001000
00000000
00010000
00000000
00000100
00001000
00000000
00002002
00000000
00000000
00003003
00000000
,
00000010
00000000
00001001
00000000
00000100
00010000
00001000
00010000
,
00000100
00000000
00010000
00000000
00001000
00100000
00010000
00100000
,
00001000
00000000
00100000
00000000
00010000
01000000
00100000
00000000
,
10000000
01000000
00100000
01000000
10000000
01000000
00100000
00000000
,
10000000
00000000
00100000
00000000
01000000
00010000
00100000
00000000
,
00001000
00000000
00010000
00000000
00000010
00001000
00000001
00000000
,
00001000
00000000
00000100
00000000
00010000
00001000
00100000
00000000
,
00010000
01000000
00010000
01000000
00200000
00000000
00000000
00000000
,
00300000
00000000
00000000
00000000
10000000
00000000
00100000
02000000
00000000
00000000
00000000
00000000
03010000
00000000
00100000
00000000
,
00002000
00000000
00000000
00000000
00003000
00010000
00000000
00000100
00002000
00000000
00000020
00000000
00003030
00000000
00000000
00000000
,
00000001
00000000
00000100
00000000
00001000
00000000
00010000
00000000
00100000
00000000
00000000
00010000
01000000
00000000
00100000
00000000
,
10000000
00000000
01000000
00001000
00020000
00000000
00002000
00033000
,
00010000
00000100
00010000
00000000
00000100
00000000
00001000
00000000
,
00000010
00000000
00001000
00000000
00000010
00000000
00001000
00000000
00000000
00000000
00000000
00000000
00000001
00000000
00000000
00001000
00000000
00000000
00000100
00000000
00000000
00000000
00000000
00000000
,
00010000
00000100
00010000
00000100
00010000
00001000
00010000
00000000
,
00002000
00000000
00000000
00000000
00003000
00000000
00100000
00001000
00100000
00000000
00010000
00000000
01000000
00000000
00010000
00000000
,
02000000
00000000
00000000
00200000
00000000
03300000
10000000
00010000
,
02000000
00000000
00000000
03100000
00000000
10000000
01000000
10000000
,
00100000
01000000
00010000
00000000
00100000
00001000
00010000
00000000
,
00002000
00000000
00020000
00033000
,
00010000
00000000
00000000
00000000
00000100
00000000
00000000
00000000
00001000
00000000
00000000
00000001
00000000
00000000
00001000
00000000
,
00000100
00000000
00000000
00000000
00010000
00000000
00000000
00000000
00001000
00000000
00000000
00100000
00000000
00000000
00010000
00000000
,
01000000
00000000
00100000
00000000
01000000
00000000
00100000
00000000
10000000
00000000
00000000
01000000
00000000
00000000
00010000
00000000
,
00100000
00000000
00001000
00000000
00100000
00000000
00001000
00000000
00010000
00000000
00000000
00000100
00000000
00000000
00001000
00000000
,
00000010
00000100
00000010
00000100
00000001
00001000
00000001
00001000
,
00000100
00010000
00000100
00010000
00001000
00100000
00001000
00100000
,
00010000
01000000
10000000
01000000
00010000
00100000
10000000
00100000
,
00020000
02030000
00200000
03300000
,
20020000
00000000
30030000
00000000
01000000
00010000
01000000
00000000
,
00001000
00000000
00010000
00000000
00000100
00001000
00000001
00000000
,
00000010
00000000
00000001
00000000
00001000
00000100
00010000
00000000
,
00001000
00100000
00001000
00100000
00010000
00100000
01000000
10000000
,
00100000
00000000
01000000
00000000
00010000
00100000
00010000
00000000
,
01000000
00000000
00001000
00000000
00010000
00000100
00001000
00000100
,
00010000
00000000
00000100
00000000
00001000
00000010
00000100
00000001
,
00001000
00000100
00000000
00002200
00000000
00000000
00003300
00000000
,
00000020
00000000
00000000
00002000
00000000
00003030
00000100
00010000
,
00002000
00000000
00000000
00100000
00103000
00000000
00010000
00000000
,
01000000
00010000
10000000
00010000
00100000
00010000
01000000
00010000
,
00200000
00302000
00023000
00030020
,
00002030
00000000
00003000
00000000
00000001
00000100
00000001
00000100
,
00000010
00001000
00000010
00010000
00000100
00010000
00001000
00010000
,
00001000
00100000
00010000
00010000
01000000
00100000
00100000
10000000
,
01000000
00100000
00010000
00100000
00001000
00010000
00001000
00010000
,
00000100
00000000
00000000
00001100
00000000
00000000
00000001
00000100
,
00000101
00000000
00000000
00001100
00000000
00000000
00000100
00010000
,
00001000
00000000
00000000
00011000
00000000
00000000
00001000
00000000
,
00100000
00010000
00100000
00010000
01000000
00010000
10000000
00100000
,
01000000
00000000
00000000
01010000
00000000
00000000
01000000
00001000
,
00010000
00000000
00000000
00011000
00000000
00000000
00010000
00000100
,
00001000
00000000
00000000
00001001
00000000
00000000
00001000
00000000
,
00000100
00000000
00010000
00000000
00001000
00000000
00100000
00000000
00010000
00000000
01000000
00000000
00200000
00000000
00000000
00300000
;

//---------------dance-single - ----------------
#NOTES:
     dance-single:
     :
     Medium:
     11:
     0.483910,0.793008,0.209694,0.290346,0.116945,420.000000,394.000000,26.000000,36.000000,0.000000,0.000000,0.483910,0.793008,0.209694,0.290346,0.116945,420.000000,394.000000,26.000000,36.000000,0.000000,0.000000:
0000
0000
0000
0000
,
0000
0000
0000
0000
,
0000
0000
0000
0000
,
0000
0000
0000
0000
,
0000
0000
0000
0000
,
0000
0000
0000
0000
,
1100
0000
0000
0101
0000
0000
0000
0000
,
0011
0000
0000
1010
0000
0000
0000
0000
,
0101
0000
0000
1001
0000
0000
0000
0000
,
1000
0010
0100
0001
0100
0010
1000
0001
,
0100
0000
0000
1001
0000
0000
0010
0000
,
0100
0000
0000
1001
0000
0000
0010
0000
,
0001
0000
0000
1001
0000
0000
0010
0000
,
1000
0000
0000
1001
0000
0010
1000
0010
,
0100
0000
0000
1001
0000
0000
0010
0000
,
0010
0000
0000
1001
0000
0000
1000
0000
,
0100
0000
0000
0010
0000
0000
1000
0000
,
0002
0000
2000
0000
,
3003
0000
0000
0000
,
0000
0000
0000
0000
,
0000
0000
0000
0000
,
0000
0000
0000
0000
,
0010
0001
0100
1000
,
0010
1000
0010
1000
0001
0100
0001
0100
,
0001
0010
0001
0010
0001
0100
0010
1000
,
0002
0203
0020
0330
,
0001
0000
0000
0001
0100
0000
0010
1000
0010
1000
0000
0010
0100
0000
0001
1000
,
0100
0000
0000
1000
0001
0000
0100
0000
0001
1000
0001
1000
0010
0100
0010
0100
,
0001
0000
0000
0100
0001
0000
1000
0010
1000
0010
0000
0100
0010
0000
1000
0010
,
1000
0000
0000
0001
0100
0000
0001
0000
0100
0010
0000
0220
0000
0000
0330
0000
,
0010
0000
1001
0000
0100
0001
1000
0001
,
0100
0000
1001
0000
0010
0100
0001
0100
,
0010
0000
1010
0000
0001
0100
0010
0000
,
1000
0100
0010
0100
1000
0100
0010
0000
,
1000
0000
0010
0000
0100
0001
0010
0000
,
0001
0000
0100
0000
0010
1000
0001
0000
,
0100
0000
0010
0000
1000
0001
0010
0000
,
0001
0100
0001
0100
0020
0000
0000
0000
,
0030
0000
0000
0000
1000
0000
0010
0200
0000
0000
0000
0000
0301
0000
0010
0000
,
0200
0000
0000
0000
0000
1300
0000
0010
0200
0000
0002
0000
0303
0000
0000
0000
,
1000
0000
0010
0000
0001
0000
0100
0000
1000
0000
0000
0001
0100
0000
0010
0000
,
1000
0000
0100
0001
2002
0000
0000
3003
,
0001
1000
0001
0000
0010
0000
1000
0000
,
0001
0000
1000
0000
0001
0000
1000
0000
0000
0000
0000
0000
0010
0000
0000
1000
0000
0000
0100
0000
0000
0000
0000
0000
,
0001
1000
0001
0010
0100
1000
0010
0000
,
2000
0000
0000
0000
3000
0000
0010
1000
0010
0000
0000
0000
0100
0000
0000
0000
,
0200
0000
0000
0020
0000
0330
1000
0001
,
0200
0000
0000
0310
0000
1000
0100
1000
,
0010
0100
0001
0100
0010
1000
0001
1000
,
0200
0000
0020
0330
,
0001
0000
1000
0000
0001
0000
1000
0000
0001
0000
0000
0010
0000
0000
0100
0000
,
1000
0000
0001
0000
1000
0000
0001
0000
1000
0000
0000
0100
0000
0000
0010
0000
,
0001
0000
0100
0000
0001
0000
0100
0000
0001
0000
0000
0100
0000
0000
0010
0000
,
1000
0000
0010
0000
1000
0000
0010
0000
1000
0000
0000
0010
0000
0000
0100
0000
,
0001
0100
0001
0100
0010
1000
0010
1000
,
0001
0100
0001
0010
0001
0100
0001
1000
,
0010
0100
1000
0100
0001
0010
1000
0010
,
0002
0203
0020
0330
,
2002
0000
3003
0000
0100
0001
0100
0000
,
1000
0000
0001
0000
0100
1000
0001
0000
,
0010
0000
0001
0000
1000
0001
0100
0000
,
1000
0010
1000
0100
0010
0001
1000
0100
,
0010
0000
0100
0000
0001
0010
0001
0000
,
0100
0000
0001
0000
1000
0001
0100
0001
,
1000
0000
0010
0000
1000
0001
0100
0000
,
0010
0100
0000
0220
0000
0000
0330
0000
,
2000
0000
0000
3002
0000
0103
0000
0001
,
2000
0000
0000
0010
3010
0000
0001
0000
,
0100
0001
1000
0001
0010
0001
0100
0001
,
0020
0032
2003
3200
,
2300
0000
3000
0000
0001
0100
0001
0100
,
0010
1000
0001
1000
0001
1000
0001
1000
,
0010
0100
0100
0001
1000
1000
0010
1000
,
0100
0010
0001
0010
0001
0010
0100
1000
,
0001
0000
0000
1001
0000
0000
0010
0100
,
0110
0000
0000
1001
0000
0000
1000
0001
,
0100
0000
0000
1001
0000
0000
0100
0000
,
0010
0001
0010
0001
0100
0001
1000
0010
,
0100
0000
0000
0101
0000
0000
0100
1000
,
0001
0000
0000
1001
0000
0000
0001
0100
,
0010
0000
0000
1001
0000
0000
0010
0000
,
1000
0000
0001
0000
0100
0000
0010
0000
1000
0000
0001
0000
0020
0000
0000
0030
;

//---------------dance-double - ----------------
#NOTES:
     dance-double:
     :
     Easy:
     7:
     0.276520,0.395596,0.080652,0.185499,0.012098,240.000000,230.000000,10.000000,23.000000,0.000000,0.000000,0.276520,0.395596,0.080652,0.185499,0.012098,240.000000,230.000000,10.000000,23.000000,0.000000,0.000000:
00000000
00000000
00000000
00000000
,
00000000
00000000
00000000
00000000
,
00000000
00000000
00000000
00000000
,
00000000
00000000
00000000
00000000
,
00000000
00000000
00000000
00000000
,
00000000
00000000
00000000
00000000
,
00100000
00000000
00000000
00100000
00000000
00000000
00000000
00000000
,
00001000
00000000
00000000
00001000
00000000
00000000
00000000
00000000
,
00010000
00000000
00000000
00010000
00000000
00000000
00000000
00000000
,
00000100
00000000
00000000
00000100
00000000
00000000
00000000
00000000
,
00002000
00000000
00000000
00003000
,
00000002
00000000
00000000
00000003
,
00002000
00000000
00000000
00003000
,
00000100
00000000
00000000
00000100
00000000
00000000
00010000
00000000
,
00002000
00000000
00000000
00003000
,
00200000
00000000
00000000
00300000
,
00020000
00000000
00000000
00030000
,
02000000
00000000
00200000
00000000
,
03300000
00000000
00000000
00000000
,
00000000
00000000
00000000
00000000
,
00000000
00000000
00000000
00000000
,
00000000
00000000
00000000
00000000
,
10000000
01000000
00100000
00010000
,
00001000
00000100
00000010
00000001
,
00001000
00000100
00010000
00001000
,
00022000
00000000
00000000
00033000
,
00100000
00000000
00010000
00000000
10000000
00000000
00010000
01000000
,
10000000
00000000
01000000
00000000
00001000
00010000
00001000
00010000
,
00000010
00000000
00001000
00000000
00000001
00000000
00001000
00000010
,
00000001
00000000
00000000
00000000
00001000
00000000
00000000
00000000
00000100
00000100
00000000
00020000
00000000
00000000
00030000
00000000
,
00001000
00001000
00100000
00010000
,
01000000
00000000
01000000
00000000
00100000
10000000
00100000
00000000
,
01000000
01000000
00001000
00001000
,
00010000
00000010
00001000
00000001
,
00001000
00001000
00000100
00000100
,
00010000
00000000
00010000
00000000
00001000
00000000
00001000
00100000
,
00001000
00100000
00100000
00010000
,
01000000
00100000
20020000
30030000
,
00000000
00000000
00000000
00000000
10000000
00000000
00000000
00020000
00000000
00000000
00000000
00000000
00030000
00000000
00000000
00000000
,
00200000
00300000
00002000
00003000
,
00010000
00000100
00000010
00000001
,
00000100
00001000
00010000
01000000
,
10000000
00100000
10000000
00100000
,
00010000
00100000
10000000
00100000
,
00010000
01000000
00010000
01000000
,
00010000
00000000
01000000
00000000
,
00001000
00000000
00010000
00000000
,
00000100
00000000
00001000
00000000
,
00000001
00000010
00001000
00010000
,
00200000
00000000
00000000
00300000
,
10000000
00000000
00010000
00000000
,
10000000
00010000
00100000
00000000
,
00100000
00000000
00001000
00000000
,
00010000
00000100
00001000
00000000
,
00000001
00000001
00001000
00001000
,
00000100
00010000
00001000
01000000
,
00010000
00010000
10000000
10000000
,
00100000
01000000
20020000
30030000
,
00100000
00000000
00001000
00000000
,
00010000
00000000
00000100
00000000
00001000
00000000
00000001
00001000
,
00000001
00001000
00000100
00010000
,
00001000
00000000
01000000
00000000
00010000
10000000
00010000
10000000
,
00010000
00100000
00001000
00010000
,
00000010
00000000
00001000
00000000
00000001
00000000
00000100
00000001
,
00000100
00000010
00001000
00000100
,
00010000
00001000
00000000
00022000
00000000
00000000
00033000
00000000
,
00200000
00000000
00310000
00000000
,
02000000
00000000
13000000
00000000
,
00100000
00001000
00010000
00000010
,
00001000
00000001
00001000
00000000
00000100
00000000
00010000
00000000
,
00001000
00001000
00100000
00010000
,
01000000
10000000
01000000
00010000
,
00001000
00000000
00000000
00010000
00000000
00000000
00000010
00000000
,
00001000
00000100
00000010
00000001
,
00000100
00000000
00000000
00000110
00000000
00000000
00000000
00000000
,
00000001
00000000
00000000
00001001
00000000
00000000
00000000
00000000
,
00001000
00000000
00000000
00001001
00000000
00000000
00000000
00000000
,
00000010
00000100
00000010
00000100
00000010
00000100
00000010
00000000
,
00001000
00000000
00000000
00001100
00000000
00000000
00000000
00000000
,
00001000
00000000
00000000
00011000
00000000
00000000
00000000
00000000
,
00100000
00000000
00000000
00110000
00000000
00000000
00000000
00000000
,
10000000
01000000
00100000
00010000
;

//---------------dance-single - ----------------
#NOTES:
     dance-single:
     :
     Easy:
     7:
     0.291498,0.428563,0.112912,0.185499,0.012098,253.000000,239.000000,14.000000,23.000000,0.000000,0.000000,0.291498,0.428563,0.112912,0.185499,0.012098,253.000000,239.000000,14.000000,23.000000,0.000000,0.000000:
0000
0000
0000
0000
,
0000
0000
0000
0000
,
0000
0000
0000
0000
,
0000
0000
0000
0000
,
0000
0000
0000
0000
,
0000
0000
0000
0000
,
0010
0000
0000
0010
0000
0000
0000
0000
,
0001
0000
0000
0001
0000
0000
0000
0000
,
0100
0000
0000
0100
0000
0000
0000
0000
,
1000
0000
0000
1000
0000
0000
0000
0000
,
0020
0000
0000
0030
,
0200
0000
0000
0300
,
0002
0000
0000
0003
,
1000
0000
0000
1001
0000
0000
0001
0000
,
2000
0000
0000
3000
,
0020
0000
0000
0030
,
0002
0000
0000
0003
,
0200
0000
0020
0000
,
0330
0000
0000
0000
,
0000
0000
0000
0000
,
0000
0000
0000
0000
,
0000
0000
0000
0000
,
1000
0100
0010
0001
,
0001
0010
0100
1000
,
0001
0010
0100
1000
,
2002
0000
0000
3003
,
0010
0000
0001
0000
1000
0000
0001
0100
,
1000
0000
0100
0000
0001
0010
0100
1000
,
0010
0000
0001
0000
1000
0000
0001
0010
,
1000
0000
0000
0000
0010
0000
0000
0000
0100
0100
0000
0002
0000
0000
0003
0000
,
1000
0001
0010
0001
,
0100
0000
0100
0000
0010
1000
0010
0000
,
0100
0100
0001
1000
,
0001
1000
0010
0100
,
0001
0001
0100
0100
,
1000
0000
1000
0000
0010
0000
0010
0100
,
0010
0010
0010
1000
,
0100
0010
2002
3003
,
0000
0000
0000
0000
1000
0000
0000
0002
0000
0000
0000
0000
0003
0000
0000
0000
,
0020
0030
0002
0003
,
0100
0010
1000
0001
,
0100
0010
0001
0100
,
1000
0010
1000
0010
,
0001
0010
1000
0010
,
0001
0100
0001
0100
,
0001
0000
0100
0000
,
1000
0000
0010
0000
,
0001
0000
0010
0000
,
0001
0010
1000
0010
,
0002
0000
0000
0003
,
1000
0000
0001
0000
,
1000
0001
1000
0001
,
0100
0000
0010
0000
,
0100
0010
1000
0001
,
1000
1000
0001
0001
,
1000
0100
0010
0001
,
1000
1000
0001
0001
,
0010
0100
2002
3003
,
0010
0000
1001
0000
,
0110
0000
0100
0000
0100
0000
0001
1000
,
0001
0100
0010
1000
,
0010
0000
0100
0000
0001
1000
0001
1000
,
0001
0010
0001
0100
,
1000
0000
0010
0000
0001
0000
0100
0001
,
0100
0010
1000
0100
,
0001
1000
0000
2002
0000
0000
3003
0000
,
0020
0000
0031
0000
,
0200
0000
1300
0000
,
0010
0001
0100
1000
,
0010
1000
0100
0001
,
0010
0000
0010
0000
0010
0001
0100
0000
,
0010
0000
0010
0000
0010
1000
0100
0000
,
0001
0000
0000
1001
0000
0000
0100
0000
,
0010
1000
0001
0100
,
0010
0000
0000
1010
0000
0000
0001
0000
,
0100
0000
0000
0101
0000
0000
0010
0000
,
0100
0000
0000
0110
0000
0000
1000
0000
,
0001
0100
0001
0100
0001
0100
0001
0000
,
1000
0000
0000
1001
0000
0000
0010
0000
,
0100
0000
0000
0110
0000
0000
0001
0000
,
1000
0000
0000
1001
0000
0000
0001
0000
,
1000
0100
0010
0001
;

//---------------dance-single - ----------------
#NOTES:
     dance-single:
     :
     Beginner:
     5:
     0.164760,0.263731,0.064521,0.120977,0.000000,143.000000,135.000000,8.000000,15.000000,0.000000,0.000000,0.164760,0.263731,0.064521,0.120977,0.000000,143.000000,135.000000,8.000000,15.000000,0.000000,0.000000:
// measure 0
0000
0000
0000
0000
,  // measure 1
0000
0000
0000
0000
,  // measure 2
0000
0000
0000
0000
,  // measure 3
0000
0000
0000
0000
,  // measure 4
0000
0000
0000
0000
,  // measure 5
0000
0000
0000
0000
,  // measure 6
0010
0000
0000
0000
,  // measure 7
0001
0000
0000
0000
,  // measure 8
0100
0000
0000
0000
,  // measure 9
1000
0000
0000
0000
,  // measure 10
0002
0000
0003
0000
,  // measure 11
2000
0000
3000
0000
,  // measure 12
0002
0000
0003
0000
,  // measure 13
1000
0000
0001
0000
,  // measure 14
2000
0000
3000
0000
,  // measure 15
0020
0000
0030
0000
,  // measure 16
0200
0000
0300
0000
,  // measure 17
0001
0000
1000
0000
,  // measure 18
0000
0000
0000
0000
,  // measure 19
0000
0000
0000
0000
,  // measure 20
0000
0000
0000
0000
,  // measure 21
0000
0000
0000
0000
,  // measure 22
1000
0000
0001
0000
,  // measure 23
1000
0000
0001
0000
,  // measure 24
1000
1000
1000
1000
,  // measure 25
2000
0000
0000
3000
,  // measure 26
0000
0001
1000
0001
,  // measure 27
0000
0100
0001
0100
,  // measure 28
0000
0001
1000
0001
,  // measure 29
0000
0010
0200
0300
,  // measure 30
0000
0001
0000
0001
,  // measure 31
0000
0100
0000
0100
,  // measure 32
0000
1000
0000
1000
,  // measure 33
0000
0100
0000
0100
,  // measure 34
0000
0001
0000
0100
,  // measure 35
0000
1000
0000
0100
,  // measure 36
0000
0010
0000
0010
,  // measure 37
0020
0000
0000
0030
,  // measure 38
0000
1000
1000
0000
,  // measure 39
0001
0000
0100
0000
,  // measure 40
0001
0001
0001
0000
,  // measure 41
1000
1000
1000
0000
,  // measure 42
1000
0000
1000
0000
,  // measure 43
0001
0000
0001
0000
,  // measure 44
0100
0000
0100
0000
,  // measure 45
0010
0000
0010
0000
,  // measure 46
1000
0000
0010
0000
,  // measure 47
0001
0000
0010
0000
,  // measure 48
0001
0000
0100
0000
,  // measure 49
2000
0000
0000
3000
,  // measure 50
1000
0000
0000
0000
,  // measure 51
0000
0000
0000
0000
,  // measure 52
0000
0000
0000
0000
,  // measure 53
0000
0000
0000
0000
,  // measure 54
1000
0000
0001
0000
,  // measure 55
1000
0000
0001
0000
,  // measure 56
1000
1000
1000
1000
,  // measure 57
2000
0000
0000
3000
,  // measure 58
1000
0000
1001
0000
,  // measure 59
0100
0100
0100
0000
,  // measure 60
0001
0001
0001
0000
,  // measure 61
0010
0010
0010
0000
,  // measure 62
0001
0000
0100
0000
,  // measure 63
1000
0000
0010
0000
,  // measure 64
0100
0100
0100
0000
,  // measure 65
0001
0000
0002
0003
,  // measure 66
0001
0000
1000
0000
,  // measure 67
2000
3000
1000
0000
,  // measure 68
0010
0000
0100
0000
,  // measure 69
0010
0010
0010
0000
,  // measure 70
0100
0100
0100
0000
,  // measure 71
0100
0100
0100
0000
,  // measure 72
0001
0000
0000
0001
0000
0000
0001
0000
,  // measure 73
0001
0000
1001
0000
,  // measure 74
1001
0000
0000
0000
,  // measure 75
0110
0000
0000
0000
,  // measure 76
1001
0000
0000
0000
,  // measure 77
0001
0001
0001
0001
,  // measure 78
0001
0000
0000
0000
,  // measure 79
0110
0000
0000
0000
,  // measure 80
1001
0000
0000
0000
,  // measure 81
2002
0000
0000
3003
;
