#TITLE:ANALYS;
#SUBTITLE:;
#ARTIST:HAYAKO;
#TITLETRANSLIT:;
#SUBTITLETRANSLIT:;
#ARTISTTRANSLIT:;
#GENRE:;
#CREDIT:;
#BANNER:ANALYS.png;
#BACKGROUND:ANALYS-bg.png;
#LYRICSPATH:;
#CDTITLE:;
#MUSIC:ANALYS.ogg;
#OFFSET:0.001000;
#SAMPLESTART:86.822533;
#SAMPLELENGTH:12.000008;
#SELECTABLE:YES;
#BPMS:0.000000=170.000000
,128.000000=85.000000
,132.000000=170.000000
,180.000000=85.000000
,192.000000=170.000000
,200.000000=85.000000
,216.000000=170.000000
;
#STOPS:
;
#BGCHANGES:0.000=ANALYS.avi=1.000=0=0=0=StretchNoLoop====,
99999=-nosongbg-=1.000=0=0=0 // don't automatically add -songbackground-
;
#KEYSOUNDS:;
#ATTACKS:;

//---------------dance-single - ----------------
#NOTES:
     dance-single:
     :
     Hard:
     16:
     0.871141,1.272353,0.651693,0.100857,0.911595,786.000000,702.000000,84.000000,13.000000,0.000000,0.000000,0.871141,1.272353,0.651693,0.100857,0.911595,786.000000,702.000000,84.000000,13.000000,0.000000,0.000000:
0000
0000
0000
0000
,
0000
0000
0000
0000
,
0000
0000
0000
0000
,
0000
0000
0000
0000
,
1010
0000
0000
0011
0000
0000
1100
0000
,
0000
0101
0000
0000
0110
0000
0110
0000
,
2002
0000
0000
0000
,
0000
0000
0000
0000
,
0000
0000
0000
3003
,
0010
0100
0010
0000
1000
0001
1000
0001
1000
0000
0010
0000
0110
0000
0000
0000
,
1000
0000
0101
0100
0010
1000
0100
0010
,
0001
1000
0001
0100
0010
1000
0100
1000
,
0001
0100
0001
0000
0001
1000
0001
0000
0001
0010
0001
0000
0001
1000
0001
0000
,
0100
0010
1000
0000
0001
1000
0100
0000
1000
0010
0100
0010
1000
0000
0010
0000
,
2000
0000
3001
0010
0100
0010
0001
1000
,
0010
0100
0010
0000
1000
0000
0001
0000
0010
0000
0001
0000
1000
0000
0100
0000
,
1000
0010
1000
0000
1000
0001
1000
0000
1000
0100
1000
0000
1000
0010
1000
0000
,
0001
0000
0100
0010
1000
0010
0100
0000
0001
1000
0100
0000
1001
0000
0000
0000
,
0010
0000
0100
0000
1001
0000
0000
0000
0010
0000
0001
0100
0000
0100
0001
0000
,
1000
0000
0010
0000
0100
0000
0001
0000
0100
0000
0010
1000
0000
1000
0010
0000
,
0010
0100
0010
0000
0010
1000
0010
0000
0100
0001
0100
0000
0100
0010
0100
0000
,
0001
0010
0001
0000
1000
0100
1000
0000
0001
0010
0100
1000
0001
0000
1001
0000
,
1000
0000
0010
0000
0110
0000
0000
0000
0001
0000
0100
0010
0000
0010
0100
0000
,
0001
0000
1000
0000
0100
0000
1000
0000
0001
0000
0100
0010
0000
0010
0100
0000
,
0001
1000
0001
0000
0001
0010
0001
0000
0001
0100
0001
0000
1000
0001
1000
0000
,
0020
0000
0230
0000
0320
0000
0230
0000
0302
0000
2003
0000
3010
0100
0010
0100
,
0010
0100
0001
1000
0010
0100
0101
0100
,
0010
1000
0001
0100
0101
1000
0100
0010
,
0011
0010
0100
1000
0010
0100
0101
0100
,
0010
1000
0001
0100
0101
1000
0010
1000
,
1001
0001
0100
0010
1000
0001
1001
1000
,
0010
0100
0001
1000
1001
0010
0100
1000
,
0010
0000
0000
0000
0000
0000
0001
1000
0001
0000
0000
0000
0100
0000
0010
0000
1000
0000
0000
0100
0000
0000
0002
0000
1000
0000
1000
0000
1000
0000
1003
0000
,
1001
0000
0000
0000
0100
0010
0100
0000
0001
0000
1000
0100
0000
0100
0000
0001
,
1001
0000
0000
0000
0010
0100
0010
0000
1000
0000
0001
0100
0000
0100
0000
1000
,
1001
0000
0000
0000
0010
0100
0010
0000
1001
0000
0000
0000
0100
0010
0100
0000
,
1100
0101
1100
0011
,
1100
1100
1100
1100
,
0011
0011
0011
0011
,
1001
0000
0000
0000
0100
0001
0100
0000
1001
0000
0000
0000
0100
1000
0100
0000
,
1001
0000
0000
0000
0010
0001
0010
0000
1001
0000
0000
0000
0010
1000
0010
0000
,
1000
0000
0001
0000
1000
0100
1000
0100
1000
0000
0001
0000
0100
0001
0100
0001
,
0010
0000
0001
0000
1000
0100
1000
0010
1000
0000
0001
0000
0100
0001
0100
0010
,
0100
0000
0000
0000
1010
0000
0101
0000
1001
0000
0000
0011
0000
0000
1100
0000
,
0000
0011
0000
0000
1001
0000
0010
0100
0010
0000
1000
0000
1001
0000
0000
0000
,
1000
0100
0010
0001
1000
0100
0010
0001
0000
0000
0010
0000
0000
0010
1000
0000
0000
1000
0001
0000
0000
0001
0010
0000
0000
0010
0100
0000
0000
0100
1000
0000
,
0001
0000
0100
0000
0010
0000
1000
0000
0000
0010
0001
0000
0000
0001
0100
0000
0000
0100
1000
0000
0000
1000
0010
0000
0000
0010
0100
0000
0001
0000
1000
0000
,
0010
0100
0010
0100
0001
1000
0001
1000
0001
0000
0100
0000
0000
0100
0001
0000
0000
0001
1000
0000
0000
1000
0010
0000
0000
0010
0100
0000
0000
0100
0001
0000
,
1000
0100
1000
0100
0010
0001
0010
0001
1000
0100
0010
0001
1000
0100
0010
0001
,
1000
0100
1000
0100
0010
0001
0010
0001
0100
0000
0010
0000
1001
0000
1001
0000
,
0000
0010
1000
0010
0200
0000
0000
0000
0301
0000
1000
0000
0000
0001
0010
0000
0001
0000
1000
0000
0000
0001
0000
1000
0001
1000
0010
1000
0100
0000
1000
0000
,
0001
0000
0100
0000
0000
0001
1000
0000
0001
0000
0100
0000
0000
0001
1000
0000
0001
0000
0100
0000
0000
0001
0000
0010
0001
0100
0001
1000
0001
0000
0100
0000
,
0010
0000
1000
0000
0000
0001
0100
0000
0010
0000
1000
0000
0000
0001
0100
0000
0010
0000
0100
0000
0000
0001
0100
0000
0001
1000
0001
0010
0001
0000
0100
0000
,
0010
1000
0010
0000
0100
0001
0100
0000
0001
1000
0001
0000
0100
0010
0100
0000
0001
0000
1000
0000
0010
0000
0100
0000
0001
0000
1000
0000
1001
0000
0000
0000
,
1000
0000
0000
1000
0010
0000
0000
0010
0100
0000
0000
0100
0001
0000
0000
0001
,
1000
0000
0000
1000
0010
0000
0000
0010
0100
0000
0001
0100
0001
0000
1000
0001
,
1000
0000
0000
0001
1000
0000
0000
1000
0010
0000
0000
0010
0100
0000
0000
0100
,
0001
0000
0000
0001
1000
0000
0000
1000
0100
0000
0100
1000
0100
0000
1000
0010
,
1000
0000
0000
0010
0100
0000
0000
0100
0001
0000
0000
0001
0010
0000
0000
0010
,
0001
0000
0001
0000
0100
0000
0010
1000
0100
0000
1000
0010
0100
0000
0001
0100
,
0001
0000
1000
0010
1000
0000
0001
0000
1000
0000
0010
0100
0010
0000
1000
0000
,
0001
0010
0001
0000
1000
0100
1000
0000
0010
0100
0001
0000
1000
0010
0100
0000
,
0001
0000
0100
0000
0001
0100
0001
0000
1000
0000
0010
0000
1000
0010
1000
0000
,
0001
0100
0001
0000
1000
0010
1000
0000
0001
0000
0010
0000
0100
0010
0100
0000
,
0001
0000
1000
0000
0100
1000
0100
0000
0001
0000
0100
0000
0001
0100
0001
0000
,
1000
0010
1000
0000
0010
0100
0010
0000
0100
0000
0001
0000
1000
0001
1000
0000
,
0010
0000
0100
0000
0001
0010
0001
0000
1000
0000
0010
0000
1000
0100
1000
0000
,
0001
0000
0100
0000
0010
1000
0010
0000
0100
0001
0100
0000
0010
1000
0010
0000
,
0100
0000
0000
0000
1001
0000
1100
0000
0011
0000
0000
0101
0000
0000
1100
0000
,
0000
1001
0000
0000
0011
0000
0000
1100
0000
0000
0101
0000
0000
1001
0000
0000
,
0110
0000
0000
1001
0000
0000
0010
0000
1000
0000
0010
0000
1001
0000
0000
0000
,
1010
0100
0100
1001
0010
0010
1001
0100
,
0100
0011
1000
1000
0011
0000
1100
0000
,
0101
0010
0010
1001
0100
0100
1001
0001
,
0001
1100
0010
0010
1001
0000
1100
0000
,
0011
0100
0100
1010
0001
0001
1100
0001
,
0001
0101
0010
0010
1100
0000
0011
0000
,
2000
0001
0010
3002
,
0100
1000
0010
0103
,
1000
0100
1000
0000
0001
0100
0001
0000
1000
0010
0100
0000
0001
0100
0010
0000
,
1001
0000
0000
0000
;

//---------------dance-single - ----------------
#NOTES:
     dance-single:
     :
     Medium:
     12:
     0.492095,0.713759,0.349121,0.279297,0.252143,444.000000,399.000000,45.000000,36.000000,0.000000,0.000000,0.492095,0.713759,0.349121,0.279297,0.252143,444.000000,399.000000,45.000000,36.000000,0.000000,0.000000:
// measure 0
0000
0000
0000
0000
,  // measure 1
0000
0000
0000
0000
,  // measure 2
0000
0000
0000
0000
,  // measure 3
0000
0000
0000
0000
,  // measure 4
0110
0000
0000
0101
0000
0000
0110
0000
,  // measure 5
0000
1010
0000
0000
0010
0000
0100
0000
,  // measure 6
2002
0000
0000
0000
,  // measure 7
0000
0000
0000
0000
,  // measure 8
0000
0000
0000
3003
,  // measure 9
0010
0000
0100
0000
0001
0010
0001
0000
,  // measure 10
1000
0000
0101
0000
0010
1000
0100
0010
,  // measure 11
0001
1000
0001
0000
0010
1000
0100
0000
,  // measure 12
0001
1000
0000
1100
0000
0011
0000
1001
,  // measure 13
0000
0110
0000
1000
0001
0100
0010
0100
,  // measure 14
0002
0000
1003
0010
0100
0010
1000
0000
,  // measure 15
0010
0001
1000
0001
0010
0001
1000
0000
,  // measure 16
1000
0010
1000
0001
1000
0100
1000
0000
,  // measure 17
0001
0100
0010
0000
1000
0001
0100
0000
,  // measure 18
0010
0000
0100
0000
0001
0000
0000
0000
0010
0000
0000
0010
0000
0000
1000
0000
,  // measure 19
0001
0000
1000
0000
0000
0000
0001
0000
0100
0000
0000
0100
0000
0000
0000
0000
,  // measure 20
0010
1000
0010
1000
0010
1000
0100
1000
,  // measure 21
0001
0010
0001
0100
0001
0010
0001
0000
,  // measure 22
1000
0000
0010
0000
0100
0000
0000
0000
0001
0000
0000
0100
0000
0000
0010
0000
,  // measure 23
0100
0000
0001
0000
0000
0000
1000
0000
0001
0000
0000
0010
0000
0000
0000
0000
,  // measure 24
0001
0100
0001
0100
0010
1000
0010
1000
,  // measure 25
0002
2003
3002
0003
,  // measure 26
2020
0000
3030
0202
,  // measure 27
0000
0303
0220
0330
,  // measure 28
2002
0000
3003
2200
,  // measure 29
0000
3300
0022
0033
,  // measure 30
2200
0000
3300
0022
,  // measure 31
0000
0033
0220
0330
,  // measure 32
2000
0000
3002
0000
,  // measure 33
0103
0000
1000
0001
1000
0000
0110
0000
,  // measure 34
1001
0000
0001
1000
0001
0000
0110
0000
,  // measure 35
1001
0010
1001
0100
,  // measure 36
1010
0101
1001
0000
,  // measure 37
1100
0100
0100
0100
,  // measure 38
0011
0001
0001
0001
,  // measure 39
1000
0001
1000
0000
0001
1000
0100
0000
,  // measure 40
1000
0010
1000
0001
1000
0100
0010
0000
,  // measure 41
1000
0001
1000
0010
1000
0001
0100
0001
,  // measure 42
0010
0001
0100
0001
0010
0001
0100
0010
,  // measure 43
1000
0000
0000
0000
0001
0000
0010
0000
1000
0000
0000
0010
0000
0000
0100
0000
,  // measure 44
0000
0001
0000
0000
1000
0000
0000
0001
0000
0000
1000
0000
0001
0000
0000
0000
,  // measure 45
0200
0000
0000
0000
0301
0000
1001
0000
1000
0100
0001
0000
0010
0000
0100
0000
,  // measure 46
0002
0000
0000
0000
0013
0000
0001
0000
0100
0010
1000
0000
0010
0000
0001
0000
,  // measure 47
0020
0000
0000
0000
0031
0000
0100
0000
0010
0100
1000
0000
0010
0000
0100
0000
,  // measure 48
0002
0000
0103
0010
2000
0000
3010
0001
,  // measure 49
0200
0000
0310
0001
2000
0000
3001
0000
,  // measure 50
0010
0000
0200
0000
0301
1000
0000
0001
1000
0001
0000
0100
0001
0000
0010
0000
,  // measure 51
0001
1000
0000
0010
0001
0010
0000
1000
0100
1000
0000
0001
0100
0000
0010
0000
,  // measure 52
1000
0010
0000
1000
0010
0100
0000
0010
0100
0001
0000
1000
0001
0000
0100
0000
,  // measure 53
0010
0000
0001
1000
0001
0000
0100
0000
0001
0010
0100
0000
0010
0100
1000
0000
,  // measure 54
0001
0000
0000
0001
0010
0000
0000
0000
0010
0000
0000
0010
0100
0000
0000
0000
,  // measure 55
0100
0000
0000
0100
0001
0000
0000
0001
1000
0000
0000
1000
0001
0000
0000
0000
,  // measure 56
0001
0000
0000
0001
0010
0000
0000
0000
0010
0000
0000
0010
1000
0000
0000
0000
,  // measure 57
1000
0000
0000
1000
0001
0000
0000
0001
0100
0000
0000
0100
0001
0000
0000
0000
,  // measure 58
0001
0000
0000
0001
1000
0000
0000
0000
1000
0000
0000
1000
0010
0000
0000
0000
,  // measure 59
0010
0000
0000
0010
0100
0000
0000
0100
0001
0000
0000
0001
1000
0000
0000
0000
,  // measure 60
1000
0000
0000
1000
0010
0000
0000
0010
1000
0000
0000
1000
0001
0000
0000
0000
,  // measure 61
0001
0000
0000
0001
1000
0000
0000
1000
0100
0000
0000
0100
0010
0000
0000
0000
,  // measure 62
0001
0100
0001
0000
1000
0010
1000
0000
,  // measure 63
0001
0000
0000
0001
1000
0000
0000
1000
0010
0000
0000
0010
0100
0000
0000
0000
,  // measure 64
0001
0000
1000
0000
0100
0000
0000
0000
0001
0000
0100
0000
0001
0000
0000
0001
,  // measure 65
1000
0000
0000
1000
0010
0000
0000
0010
0100
0000
0000
0100
0001
0000
0000
0000
,  // measure 66
0010
0001
0100
0000
0001
1000
0010
0000
,  // measure 67
0001
0000
0000
0001
0100
0000
0000
0100
0010
0000
0000
0010
1000
0000
0000
0000
,  // measure 68
1001
0000
0000
0000
0010
0000
0100
0000
0001
0000
0000
0010
0000
0000
0100
0000
,  // measure 69
0000
1000
0000
0000
0100
0000
0000
0010
0000
0000
0001
0000
0000
0100
0000
0000
,  // measure 70
0010
0000
0000
1000
0000
0000
0010
0000
1000
0000
0010
0000
0100
0000
0000
0000
,  // measure 71
1001
0000
0000
1010
0000
0000
0101
0000
,  // measure 72
0000
1001
0000
0000
0100
0000
0100
0000
,  // measure 73
0011
0000
0000
1100
0000
0000
0110
0000
,  // measure 74
0000
1001
0000
0000
0010
0000
0010
0000
,  // measure 75
1100
0000
0000
0011
0000
0000
1010
0000
,  // measure 76
0000
0101
0000
0000
0010
0000
0100
0000
,  // measure 77
2002
0000
0000
0000
,  // measure 78
0000
0000
0000
3003
,  // measure 79
0010
1000
0100
0000
0010
0001
0100
0000
,  // measure 80
1001
0000
0000
0000
;

//---------------dance-single - ----------------
#NOTES:
     dance-single:
     :
     Easy:
     7:
     0.336930,0.403429,0.279297,0.333605,0.000000,304.000000,268.000000,36.000000,43.000000,0.000000,0.000000,0.336930,0.403429,0.279297,0.333605,0.000000,304.000000,268.000000,36.000000,43.000000,0.000000,0.000000:
// measure 0
0000
0000
0000
0000
,  // measure 1
0000
0000
0000
0000
,  // measure 2
0000
0000
0000
0000
,  // measure 3
0000
0000
0000
0000
,  // measure 4
0010
0000
0000
0001
0000
0000
0100
0000
,  // measure 5
0000
1000
0000
0000
0010
0000
0100
0000
,  // measure 6
2002
0000
0000
0000
,  // measure 7
0000
0000
0000
0000
,  // measure 8
0000
0000
0000
3003
,  // measure 9
0220
0330
0001
1001
,  // measure 10
1000
0000
0101
0000
0010
1000
0010
0000
,  // measure 11
0001
1000
0010
0110
,  // measure 12
0001
1000
0000
0100
0000
0010
0000
0001
,  // measure 13
0000
0100
0000
1000
0001
0000
0110
0000
,  // measure 14
0002
0000
1003
0000
0100
0010
0100
0000
,  // measure 15
1000
0000
0001
0000
0100
0001
0100
0000
,  // measure 16
1000
0010
0000
0001
0000
0100
0000
1000
,  // measure 17
0000
0001
0010
0000
1000
0001
0100
0000
,  // measure 18
0010
0100
0001
0000
0010
0000
0010
0000
,  // measure 19
0010
0001
0100
0000
0100
0000
0100
0000
,  // measure 20
0010
1000
0000
0100
0000
1000
0000
0001
,  // measure 21
0000
1000
0000
0010
0000
1000
0001
0000
,  // measure 22
1000
0010
0100
0000
0100
0000
0100
0000
,  // measure 23
0001
0010
0001
0000
0100
0000
0100
0000
,  // measure 24
0001
1000
0001
0000
0010
0000
0010
0000
,  // measure 25
0002
2003
3002
0003
,  // measure 26
2002
0000
3003
0020
,  // measure 27
0000
0030
0200
0300
,  // measure 28
2002
0000
3003
0200
,  // measure 29
0000
0300
0020
0030
,  // measure 30
2200
0000
3300
0022
,  // measure 31
0000
0033
2002
3003
,  // measure 32
2000
0000
3002
0000
,  // measure 33
0103
0000
0000
0000
,  // measure 34
1001
0000
0000
0000
,  // measure 35
1001
0000
0110
0000
,  // measure 36
0110
0101
1001
0000
,  // measure 37
1001
0001
0001
0001
,  // measure 38
1000
1000
1000
1000
,  // measure 39
0001
0001
1000
1000
,  // measure 40
0001
1000
0001
0000
1000
0001
1000
0000
,  // measure 41
1000
1001
1000
0100
,  // measure 42
0010
1001
0010
0100
,  // measure 43
1000
0000
0001
0000
0010
0000
0000
1001
,  // measure 44
0000
0100
0010
1000
,  // measure 45
0002
0000
1003
0001
0000
0001
0010
0000
,  // measure 46
2000
0000
3010
0001
0000
1000
0010
0000
,  // measure 47
0200
0000
0301
0100
0000
1000
0001
0000
,  // measure 48
0020
0030
0200
0300
,  // measure 49
0001
1000
0002
0003
,  // measure 50
0010
0000
0001
1000
0000
1000
0001
0000
,  // measure 51
0100
0000
0001
0010
0000
0100
1000
0000
,  // measure 52
1001
0000
1000
0100
0000
0010
0001
0000
,  // measure 53
0010
0001
1000
0000
0001
0010
0100
0000
,  // measure 54
0002
0100
0100
0100
,  // measure 55
0203
0010
0320
1000
,  // measure 56
2030
0100
3200
1000
,  // measure 57
1000
2300
0010
3010
,  // measure 58
0200
0001
0001
0301
,  // measure 59
0002
1000
2003
0010
,  // measure 60
3020
0100
0100
0130
,  // measure 61
0002
1000
1000
1003
,  // measure 62
0100
1001
0001
1000
,  // measure 63
0100
1001
1000
0001
,  // measure 64
0010
1001
0001
0100
,  // measure 65
0010
1001
1000
0100
,  // measure 66
0010
0001
0010
0000
0001
0000
0100
0000
,  // measure 67
0010
1000
0010
0000
1000
0000
0100
0000
,  // measure 68
1001
0000
0010
0100
0001
0000
0000
0110
,  // measure 69
0000
0000
1100
0000
0000
0011
0000
0000
,  // measure 70
0110
0000
0000
1001
0000
0000
0000
0000
,  // measure 71
0001
0000
0000
0010
0000
0000
0100
0000
,  // measure 72
0000
1001
0000
0000
0100
0000
0100
0000
,  // measure 73
1000
0000
0000
0100
0000
0000
0010
0000
,  // measure 74
0000
1001
0000
0000
0010
0000
0010
0000
,  // measure 75
0100
0000
0000
0001
0000
0000
0010
0000
,  // measure 76
0000
1000
0000
0000
0010
0000
0100
0000
,  // measure 77
2002
0000
0000
0000
,  // measure 78
0000
0000
0000
3003
,  // measure 79
0010
0100
0010
0100
,  // measure 80
1001
0000
0000
0000
;

//---------------dance-single - ----------------
#NOTES:
     dance-single:
     :
     Beginner:
     5:
     0.176223,0.341363,0.124132,0.325847,0.000000,159.000000,143.000000,16.000000,42.000000,0.000000,0.000000,0.176223,0.341363,0.124132,0.325847,0.000000,159.000000,143.000000,16.000000,42.000000,0.000000,0.000000:
// measure 0
0000
0000
0000
0000
,  // measure 1
0000
0000
0000
0000
,  // measure 2
0000
0000
0000
0000
,  // measure 3
0000
0000
0000
0000
,  // measure 4
0002
0000
0003
2000
,  // measure 5
0000
3000
0010
0000
,  // measure 6
2002
0000
0000
0000
,  // measure 7
0000
0000
0000
0000
,  // measure 8
3003
0000
0000
0000
,  // measure 9
0010
0000
0100
0000
,  // measure 10
0001
0000
1000
0000
,  // measure 11
0001
0001
0001
0000
,  // measure 12
1000
0000
0001
0000
,  // measure 13
1000
1000
1000
0000
,  // measure 14
0010
0000
0100
0000
,  // measure 15
0001
0001
0001
0000
,  // measure 16
0100
0000
0010
0000
,  // measure 17
1000
1000
2000
3000
,  // measure 18
0000
0001
0000
1001
,  // measure 19
0000
1000
0000
1001
,  // measure 20
0000
0010
0010
0010
,  // measure 21
0000
0100
0100
0100
,  // measure 22
0000
1000
0000
1001
,  // measure 23
0000
0001
0000
1001
,  // measure 24
0000
0010
0100
0010
,  // measure 25
0000
0100
0020
0030
,  // measure 26
2000
0000
3000
2000
,  // measure 27
0000
3000
1000
0000
,  // measure 28
0002
0000
0003
0002
,  // measure 29
0000
0003
0001
0000
,  // measure 30
0200
0000
0300
0200
,  // measure 31
0000
0300
0100
0000
,  // measure 32
0010
0000
0100
0000
,  // measure 33
1001
0000
0000
0000
,  // measure 34
0110
0000
0000
0000
,  // measure 35
1001
0000
0110
0000
,  // measure 36
1001
1001
1001
0000
,  // measure 37
0010
0010
0020
0030
,  // measure 38
0100
0100
0200
0300
,  // measure 39
0001
0000
1000
0000
,  // measure 40
0001
0001
0001
0000
,  // measure 41
1000
1000
1000
0000
,  // measure 42
0001
0001
0001
0000
,  // measure 43
0100
0000
0010
0000
,  // measure 44
0000
0000
0000
0000
,  // measure 45
0002
0003
0000
1000
,  // measure 46
0100
1000
0000
0001
,  // measure 47
0100
0001
0000
1000
,  // measure 48
0020
0000
0000
0030
,  // measure 49
0200
0000
0000
0300
,  // measure 50
0001
0100
0000
1001
,  // measure 51
0000
0010
1000
0100
,  // measure 52
0000
0010
0001
0100
,  // measure 53
0002
0003
2000
3000
,  // measure 54
0020
0000
0000
0000
,  // measure 55
0000
0030
0002
0003
,  // measure 56
0200
0300
0020
0000
,  // measure 57
0000
0030
2000
3000
,  // measure 58
0002
0000
0000
0000
,  // measure 59
0003
1000
1000
1000
,  // measure 60
0002
0000
0000
0003
,  // measure 61
0200
0000
0000
0300
,  // measure 62
0020
0000
0000
0000
,  // measure 63
0000
0030
1000
0000
,  // measure 64
0002
0000
2003
0000
,  // measure 65
0000
3000
0020
0030
,  // measure 66
0200
0000
0000
0000
,  // measure 67
0300
0001
1000
0001
,  // measure 68
1000
0000
1001
0000
,  // measure 69
0000
0010
0000
0000
,  // measure 70
0100
0000
0001
0000
,  // measure 71
2000
0000
3000
0002
,  // measure 72
0000
0003
0100
0100
,  // measure 73
0002
0000
0003
2000
,  // measure 74
0000
3000
0010
0010
,  // measure 75
2000
0000
3000
0002
,  // measure 76
0000
0003
0100
0000
,  // measure 77
2002
0000
0000
0000
,  // measure 78
0000
0000
0000
3003
,  // measure 79
0020
0030
0200
0300
,  // measure 80
1001
0000
0000
0000
;
