#VERSION:0.83;
#TITLE:ACE FOR ACES;
#SUBTITLE:("GROOVE RADAR" Special);
#ARTIST:TAG×U1;
#TITLETRANSLIT:;
#SUBTITLETRANSLIT:;
#ARTISTTRANSLIT:;
#GENRE:KONAMI originals;
#ORIGIN:;
#CREDIT:;
#BANNER:ACE FOR ACES (GROOVE RADAR Special).png;
#BACKGROUND:ACE FOR ACES (GROOVE RADAR Special)-bg.png;
#PREVIEWVID:;
#JACKET:ACE FOR ACES (GROOVE RADAR Special)-jacket.png;
#CDIMAGE:;
#DISCIMAGE:;
#LYRICSPATH:;
#CDTITLE:;
#MUSIC:ACE FOR ACES (GROOVE RADAR Special).ogg;
#OFFSET:0.000000;
#SAMPLESTART:73.650002;
#SAMPLELENGTH:15.000000;
#SELECTABLE:YES;
#DISPLAYBPM:200.000000;
#BPMS:0.000=200.000;
#STOPS:;
#DELAYS:;
#WARPS:;
#TIMESIGNATURES:0.000=4=4;
#TICKCOUNTS:0.000=4;
#COMBOS:0.000=1;
#SPEEDS:0.000=1.000=0.000=0;
#SCROLLS:0.000=1.000;
#FAKES:;
#LABELS:0.000=Song Start;
#BGCHANGES:;
#KEYSOUNDS:;
#ATTACKS:
;

//---------------dance-single - ----------------
#NOTEDATA:;
#CHARTNAME:;
#STEPSTYPE:dance-single;
#DESCRIPTION:;
#CHARTSTYLE:;
#DIFFICULTY:Challenge;
#METER:19;
#RADARVALUES:1.140997,2.504186,0.786120,0.738953,0.825426,1016.000000,916.000000,100.000000,94.000000,0.000000,0.000000,0.000000,0.000000,0.000000,1.140997,2.504186,0.786120,0.738953,0.825426,1016.000000,916.000000,100.000000,94.000000,0.000000,0.000000,0.000000,0.000000,0.000000;
#CREDIT:;
#OFFSET:0.000000;
#BPMS:0.000000=100.000000
,1.000000=200.000000
,33.000000=800.000000
,37.000000=400.000000
,39.000000=200.000000
,71.000000=150.000000
,71.750000=400.000000
,99.750000=200.000000
,101.750000=400.000000
,125.750000=200.000000
,128.750000=150.000000
,129.500000=50.000000
,137.500000=100.000000
,138.000000=200.000000
,138.500000=400.000000
,140.500000=200.000000
,141.000000=100.000000
,142.000000=200.000000
,142.500000=400.000000
,144.500000=200.000000
,145.000000=100.000000
,146.000000=200.000000
,146.500000=400.000000
,148.500000=200.000000
,149.000000=100.000000
,150.000000=200.000000
,150.500000=400.000000
,152.500000=200.000000
,153.000000=100.000000
,154.000000=200.000000
,154.500000=400.000000
,156.500000=200.000000
,157.000000=100.000000
,158.000000=200.000000
,158.500000=400.000000
,160.500000=200.000000
,161.000000=100.000000
,162.000000=200.000000
,162.500000=400.000000
,164.500000=200.000000
,165.000000=100.000000
,166.000000=200.000000
,166.500000=400.000000
,168.500000=200.000000
,169.000000=100.000000
,169.500000=600.000000
,183.000000=400.000000
,184.000000=200.000000
,185.000000=100.000000
,186.000000=200.000000
,218.000000=50.000000
,219.000000=400.000000
,435.000000=200.000000
,437.000000=100.000000
,438.000000=400.000000
,509.000000=800.000000
,513.000000=400.000000
,522.000000=800.000000
;
#STOPS:0.000000=11.400000
,39.875000=0.300000
,502.000000=0.300000
,503.000000=0.150000
,504.000000=0.150000
,505.000000=0.150000
,513.000000=0.150000
,515.000000=0.150000
,516.000000=0.150000
,517.000000=0.150000
,518.000000=0.150000
;
#DELAYS:;
#WARPS:;
#TIMESIGNATURES:0.000000=4=4
;
#TICKCOUNTS:0.000000=4
;
#COMBOS:0.000000=1
;
#SPEEDS:0.000000=1.000000=0.000000=0
;
#SCROLLS:0.000000=1.000000
;
#FAKES:;
#LABELS:0.000000=Song Start
;
#DISPLAYBPM:50.000000:400.000000;
#NOTES:
// measure 0
0000
0000
1000
0100
1100
0000
0001
0100
,  // measure 1
0101
0000
0010
0100
0110
0000
1000
0100
,  // measure 2
1100
0000
0001
0100
0110
0000
1000
0010
,  // measure 3
0110
0000
0000
0000
0001
0000
0010
0000
0100
0000
1000
0000
0001
0100
0010
0100
,  // measure 4
0001
0000
1000
0000
0001
0100
0001
0000
0101
0000
1000
0000
0010
0100
0010
0000
,  // measure 5
0110
0000
0001
0000
1000
0001
1000
0000
1001
0000
0010
0000
1000
0010
1000
0000
,  // measure 6
1001
0000
1000
0000
0010
1000
0010
1000
0001
0100
0001
0100
0010
1000
0100
1000
,  // measure 7
0010
0000
1000
0000
0001
0010
0001
0010
0100
1000
0100
1000
0001
0100
0010
0100
,  // measure 8
0001
2002
0000
0000
,  // measure 9
0000
0000
0000
0000
,  // measure 10
3003
0000
0000
0010
1000
0000
0010
0000
0210
0000
0010
0000
0310
0000
0000
0000
,  // measure 11
0021
0001
0031
1000
2001
0001
3001
0000
,  // measure 12
0010
0001
0101
0001
1000
0100
1100
1000
,  // measure 13
0010
0100
0101
0100
1010
1000
1100
1000
,  // measure 14
0001
0000
0000
0001
0100
0000
0010
0000
2010
0000
0010
0000
3010
0000
0000
0000
,  // measure 15
2100
0100
3100
0010
0210
0010
0310
0000
,  // measure 16
0001
0100
0101
0100
0010
1000
1010
1000
,  // measure 17
0100
0000
0010
0000
0011
0000
0001
0000
0110
0000
0010
0000
1010
0000
0000
1000
,  // measure 18
0000
0010
0000
0100
0000
0010
0000
1000
0000
0001
0000
1000
0000
0100
0000
0010
,  // measure 19
0000
0001
0000
0010
0000
0100
0000
1000
0000
0000
0000
0001
0000
0000
0000
0100
,  // measure 20
0000
0010
0000
1000
0000
0010
0000
1000
0000
0100
0000
0001
0000
0100
0000
1000
,  // measure 21
0000
0001
0000
0010
0000
1000
0000
0010
0000
0001
0000
1000
0000
0010
0000
0100
,  // measure 22
0000
0001
0000
0100
0000
1000
0000
0100
0000
0001
0000
1000
0000
0010
0000
0100
,  // measure 23
0000
0010
0000
0100
0000
0001
0000
1000
0000
0000
0000
0011
0000
0000
0000
1000
,  // measure 24
0000
0100
0000
1100
0000
0000
0000
0201
0000
0000
0000
0301
0000
0000
0000
1000
,  // measure 25
0001
0000
0100
0010
0000
1001
0000
0010
0000
1000
0000
0001
0000
1000
0000
0010
,  // measure 26
0000
1000
0000
0100
0000
0010
0000
0001
0000
0100
0000
0001
0000
0100
0000
1000
,  // measure 27
0000
0100
0000
0001
0000
0010
0000
1000
0000
0010
0000
0001
0000
1000
0000
0100
,  // measure 28
0000
0001
0000
0100
0000
0010
0000
1000
0000
0010
0000
0100
0000
0001
0000
1000
,  // measure 29
0000
0010
0000
0100
0000
0001
0000
1000
0000
0000
0000
0010
0000
0000
0000
0100
,  // measure 30
0000
0010
0000
0110
0000
0000
0000
0001
0000
0100
0000
0000
0000
0010
0000
1000
,  // measure 31
0000
0000
0000
1001
0000
0000
0000
2000
0000
0001
0000
0001
0001
0000
0000
0010
,  // measure 32
0000
0000
0000
0000
0010
0000
0000
0000
0020
0000
0000
0000
0000
0000
0000
0000
0000
0000
0000
0000
0000
3030
0000
0000
1001
0000
0000
0000
0100
0000
0000
0000
0010
0000
0000
0000
0001
0000
0000
0000
1000
0000
0000
0000
0010
0000
0000
0000
0100
0000
0000
0000
0001
0000
0000
0000
1000
0000
0010
0000
1000
0000
0010
0000
,  // measure 33
0100
0000
0000
0000
0000
0000
0001
0000
0000
0000
0000
0000
0100
0000
0000
0000
0000
0000
0001
0000
0000
0000
0000
0000
1000
0000
0000
0000
0000
0000
0000
0000
0000
0000
0000
0000
0100
0000
0000
0000
0000
0000
0000
0000
0000
0000
0000
0000
0001
0000
0000
0000
0010
0000
0000
0000
0100
0000
0000
0000
1000
0000
0000
0000
0000
0000
0000
0000
0000
0000
0000
0000
0002
0000
0000
0000
0000
0000
0000
0000
0000
0000
0000
0000
0100
0000
0000
0000
0000
0000
0000
0000
0000
0000
0000
0000
0203
0000
0000
0000
0000
0000
0000
0000
0000
0000
0000
0000
0010
0000
0000
0000
0000
0000
0000
0000
0000
0000
0000
0000
0320
0000
0000
0000
0000
0000
0000
0000
0000
0000
0000
0000
1000
0000
0000
0000
0000
0000
0000
0000
0000
0000
0000
0000
2030
0000
0000
0000
0000
0000
0000
0000
0000
0000
0000
0000
0001
0000
0000
0000
0000
0000
0000
0000
0000
0000
0000
0000
3001
0000
0000
0000
0000
0000
0000
0000
0000
0000
0000
0000
1001
0000
0000
0000
0000
0000
0000
0000
0000
0000
0000
0000
,  // measure 34
1100
0000
0011
0000
1000
0010
0100
0001
1000
0000
0010
0000
1001
0000
0000
0000
0100
0000
0000
0000
0010
0000
0000
0000
0000
0000
0000
0000
0120
0000
0000
0000
,  // measure 35
0000
0000
1030
0000
0001
1000
0010
0000
1000
0000
0010
0000
0000
0000
0102
0000
,  // measure 36
0000
1000
1003
0120
2000
0000
3000
0200
,  // measure 37
0000
0000
0330
0000
1000
0100
0010
0000
0100
0000
0010
0000
0000
0000
0120
0000
,  // measure 38
0000
0000
1030
1001
0110
0110
0000
0220
,  // measure 39
0000
0000
0330
0000
1000
0001
1001
0000
1100
0000
1100
0000
0000
0000
2200
0000
,  // measure 40
0000
0000
3300
0000
0010
0100
0001
1000
0001
0000
0010
0000
0000
0000
0001
0000
,  // measure 41
1000
0000
0001
0000
1000
0100
0020
0000
0000
0000
0030
0000
0000
0000
0001
0000
,  // measure 42
0000
0100
0000
0000
0010
0000
1000
0100
0010
0002
0000
0000
0000
0000
0000
0000
0000
0000
0000
0000
0000
0003
0000
0000
,  // measure 43
0000
0000
0001
0000
0000
2000
0000
0000
0002
0000
0000
0000
0000
0000
0000
0000
,  // measure 44
0000
0000
0003
0000
3001
0000
0000
2000
0000
0000
0001
0000
0000
0000
0000
0000
,  // measure 45
0000
0000
0000
0000
0000
0000
3001
0000
0000
2000
0000
0000
0001
0000
0000
0000
,  // measure 46
3000
0000
0001
1000
0001
0000
0110
0000
1000
0000
0100
0010
0000
0100
0001
0000
,  // measure 47
1000
0100
0010
0001
0000
0100
0010
0000
1000
0001
0100
0010
0000
1000
0100
0000
,  // measure 48
0010
0000
0001
0000
0101
0000
1001
0000
0001
0010
0100
1000
0000
0010
0100
0000
,  // measure 49
1000
0100
0010
0001
0000
0100
0010
0000
0001
0100
0010
1000
0000
0001
0100
0000
,  // measure 50
0001
0010
0001
0000
1000
0100
1000
0000
0001
0010
0001
0100
0001
1000
0001
0000
,  // measure 51
1000
0100
1000
0010
1000
0001
1000
0000
0001
0010
0100
1000
0100
0010
0001
0000
,  // measure 52
1000
0001
1000
0000
0010
0100
0010
0000
1000
0100
1000
0001
0100
0001
1000
0100
,  // measure 53
0010
0001
0100
0010
1000
0100
0010
0001
1000
0001
1000
0010
0100
0010
1000
0001
,  // measure 54
0100
0000
0000
0000
0010
0000
0000
0000
0100
0000
0000
0000
0001
0000
0000
0000
1000
0000
0000
0000
0100
0000
0000
0000
0010
0000
0000
0000
0001
0000
0000
0000
0000
0000
0000
0000
0000
0000
1000
0100
0010
0000
0001
0000
0100
0000
0010
0000
1000
0000
0000
0000
0000
0000
0000
0000
0001
0000
0000
0000
0000
0000
0000
0000
,  // measure 55
0100
0001
1000
0001
0010
0001
1000
0001
,  // measure 56
0100
0000
0001
0010
0100
1000
0010
0100
,  // measure 57
0001
0100
0010
1000
0002
0000
1000
0000
,  // measure 58
0100
0000
1003
0010
0100
0001
1000
0100
,  // measure 59
0010
0001
0100
0000
0001
0010
0100
1000
,  // measure 60
0100
0010
0001
0000
1000
0000
0001
0010
,  // measure 61
0100
0010
1000
0000
2001
0000
0100
0000
,  // measure 62
3001
0000
1000
0010
0100
0001
1000
0000
,  // measure 63
1001
1001
1001
0000
0100
0000
0010
0000
,  // measure 64
1000
0100
0010
0000
0011
0000
0101
0000
,  // measure 65
0001
0100
0010
1000
0100
0000
0010
0001
,  // measure 66
0200
0000
0010
0010
0310
0000
2001
0000
,  // measure 67
3010
0100
0001
0000
1001
0000
0010
0100
,  // measure 68
0001
1100
0012
0100
,  // measure 69
0100
0000
0103
0000
1001
1001
1001
0000
,  // measure 70
0010
1000
0100
0010
0001
0000
1000
0010
,  // measure 71
1000
0100
0010
0001
0100
0001
0010
0001
,  // measure 72
0100
0010
1000
0100
0001
0100
1000
1000
,  // measure 73
0001
0100
1000
0100
0002
0000
0100
0000
,  // measure 74
1003
0000
1000
0100
0010
0001
1000
0100
,  // measure 75
0001
0100
1000
0000
1001
0000
0001
0010
,  // measure 76
1000
0010
0001
0000
1001
0000
1100
0000
,  // measure 77
0010
0001
0000
0100
0020
0000
1000
0000
,  // measure 78
0100
0000
1030
0001
0100
0001
2000
0000
,  // measure 79
3010
0100
0002
0000
1000
0000
2003
0000
,  // measure 80
3010
0100
0001
0000
1100
0000
0012
0000
,  // measure 81
0100
0103
2010
0100
,  // measure 82
3100
0012
0100
1003
,  // measure 83
0010
0100
0001
0100
1000
0000
1001
0000
,  // measure 84
0010
1000
0100
0001
0100
1000
0010
0000
,  // measure 85
0110
1010
1001
0002
,  // measure 86
0010
0000
0100
0000
1003
0000
0010
0100
,  // measure 87
0010
0100
0001
0010
0100
1000
0010
0100
,  // measure 88
0010
0100
0001
0010
0100
1000
0010
0100
,  // measure 89
0001
1000
0100
0010
0100
1000
0001
1000
,  // measure 90
0010
1000
0100
0010
0001
0100
1000
0100
,  // measure 91
0001
0010
1000
0010
0001
1000
0100
0010
,  // measure 92
0001
0100
0010
1000
0001
0010
0001
0100
,  // measure 93
0010
0100
0001
1000
0100
0010
0001
0100
,  // measure 94
0001
0100
0010
1000
0100
0000
2000
0000
,  // measure 95
3200
0320
0032
0023
,  // measure 96
0230
0320
0230
0302
,  // measure 97
0023
0230
2300
3200
,  // measure 98
0320
0230
0320
2030
,  // measure 99
3002
0203
0302
2003
,  // measure 100
3020
0230
0301
0102
,  // measure 101
1003
0102
1003
2010
,  // measure 102
3001
0000
2010
0000
3001
0000
1000
0100
,  // measure 103
0010
0001
0010
0100
1000
0000
0001
0000
,  // measure 104
1001
0000
1001
0000
1001
0000
0001
0010
,  // measure 105
0100
1000
0100
0010
0001
0000
1001
0000
,  // measure 106
1001
0000
1001
0000
1001
0000
0010
0100
,  // measure 107
0001
0100
0010
1000
0100
0000
0010
0001
,  // measure 108
1000
0100
0010
0001
0100
0010
2000
0000
,  // measure 109
0000
0000
0000
0000
3001
0001
0001
0001
1000
0000
0010
0000
1000
0000
0010
0000
,  // measure 110
1000
0100
0010
0001
0100
0010
0100
0010
,  // measure 111
0001
0100
0010
1000
0001
0010
0001
0010
,  // measure 112
1000
0100
0010
0001
1000
0010
1000
0010
,  // measure 113
0001
0100
0010
0100
0001
1000
0010
1000
,  // measure 114
0100
1000
0010
1000
0001
0010
0100
1000
,  // measure 115
0001
0100
0010
1000
0001
0010
0001
0000
,  // measure 116
1000
0100
1000
0000
0010
0100
0010
0000
,  // measure 117
1000
0100
0010
0000
1000
0001
1000
0001
,  // measure 118
1000
0100
0010
0000
0001
0100
0001
0100
,  // measure 119
0010
1000
0100
0000
0001
0010
0001
0010
,  // measure 120
0100
1000
0010
0000
1000
0100
1000
0100
,  // measure 121
0010
0001
0100
0000
0001
1000
0010
1000
,  // measure 122
0100
0010
0001
0100
0010
1000
0101
1000
,  // measure 123
0010
0100
0001
1000
0100
0010
0001
0100
,  // measure 124
0010
1000
0001
0000
0100
0010
0100
0020
,  // measure 125
0100
0100
0130
0000
2002
3003
2200
3300
,  // measure 126
0022
0033
2200
3300
0001
0010
0100
1000
,  // measure 127
0010
2002
0000
0000
,  // measure 128
3003
0000
0000
0000
1010
0000
2020
3030
,  // measure 129
0202
0303
2200
3300
0022
0033
1000
0100
,  // measure 130
0010
0001
0100
0010
2002
0000
0000
0000
,  // measure 131
0000
0000
0000
0000
,  // measure 132
0000
0000
0000
0000
,  // measure 133
0000
0000
0000
0000
,  // measure 134
0000
0000
0000
0000
,  // measure 135
0000
0000
0000
0000
,  // measure 136
0000
0000
0000
0000
,  // measure 137
0000
0000
0000
0000
,  // measure 138
0000
0000
3003
0000
;
