#TITLE:86;
#SUBTITLE:;
#ARTIST:DASU feat. グミ&鏡音レン;
#TITLETRANSLIT:;
#SUBTITLETRANSLIT:;
#ARTISTTRANSLIT:DASU feat. GUMI & KAGAMINE LEN;
#GENRE:;
#CREDIT:Toxsa Dalton;
#BANNER:86.png;
#BACKGROUND:86-bg.png;
#LYRICSPATH:;
#CDTITLE:;
#MUSIC:86.ogg;
#OFFSET:2.140000;
#SAMPLESTART:40.524548;
#SAMPLELENGTH:14.461079;
#LASTBEATHINT:3.144535;
#SELECTABLE:YES;
#BPMS:0.000000=167.000000
;
#STOPS:19.000000=1.078000,
114.000000=0.359000,
179.500000=0.359000
;
#BGCHANGES:;
#KEYSOUNDS:;
#ATTACKS:;

//---------------dance-single - ----------------
#NOTES:
     dance-single:
     :
     Hard:
     13:
     0.672420,0.688430,0.264165,0.328205,0.144090,588.000000,555.000000,33.000000,41.000000,0.000000,0.000000,0.672420,0.688430,0.264165,0.328205,0.144090,588.000000,555.000000,33.000000,41.000000,0.000000,0.000000:
0000
0000
0000
0000
,
0000
0000
0000
0000
,
0000
0000
0000
0000
,
0000
0000
0000
0000
,
0000
0000
0000
0000
,
0001
0000
0000
0000
0001
0000
1000
0000
0100
0000
0000
0100
1000
0000
0010
0000
,
0200
0000
0000
0000
0301
0000
1000
0000
0010
0000
1000
0100
1000
0000
0010
0000
,
0200
0000
0301
1000
0010
1000
0010
1000
,
0002
0000
0103
0010
1000
0100
0010
0001
,
2000
0000
0000
0000
3010
0000
0100
0000
0001
0000
0000
0001
0100
0000
0010
0000
,
0200
0000
0000
0000
0301
0000
1000
0000
0001
0000
0100
0001
0100
0000
0010
0000
,
2000
0000
3001
0010
0100
0010
0001
1000
,
0002
0000
1003
0000
0010
0100
0010
0100
,
0001
0000
1000
0000
0010
0000
1000
0000
0100
0000
0000
0100
1000
0000
0010
0000
,
0200
0000
0000
0000
0301
0000
1000
0000
0010
0000
0010
0100
0010
0000
0100
0000
,
0002
0000
1003
0100
0010
0001
1000
0001
,
2000
0000
3010
0100
0001
0100
0010
1000
,
0002
0000
0000
0000
0013
0000
0001
0000
0100
0000
0000
0100
0010
0000
1000
0000
,
0002
0000
0000
0000
0103
0000
0010
0000
1000
0000
0001
0000
1000
0010
1000
0000
,
0002
0000
0103
0010
1000
0010
0100
0010
,
2000
0000
3001
1000
0010
0100
0010
0100
,
0001
0000
0010
0000
0001
0000
1000
0000
0010
0000
1000
0000
0001
0000
1000
0001
,
1000
0010
0100
0010
0200
0000
0301
1000
,
0010
0100
0010
0100
0001
1000
0001
1000
,
1010
0000
0101
0000
1000
0010
0100
0001
,
1001
0000
0000
0000
0001
0000
0100
0000
0001
0000
0100
0000
0001
0000
1000
0001
,
1000
0010
1000
0100
0010
0001
0010
0001
,
1000
0010
1000
0100
1000
0001
0100
0010
,
0200
0000
0000
0000
0310
0000
1000
0000
0002
0003
0000
0000
0000
0000
0000
0000
,
1000
0000
1001
0000
1000
0100
0010
0001
,
1000
0000
0001
1000
0001
0000
0101
0000
,
1010
0000
0010
0100
0000
0001
0100
0010
,
1000
0000
0101
0000
1000
0100
0010
0001
,
2000
0000
0010
0000
3001
1000
0010
1000
,
0001
0100
0010
0100
0001
1000
0100
0010
,
0002
0000
0000
0000
0103
0000
0010
0000
1000
0000
0010
1000
0010
0000
1000
0000
,
0000
1001
0000
1000
0100
0010
0001
1000
,
0010
0000
0000
0010
1000
0000
0000
1000
0001
0000
1000
0000
0100
0000
0010
0000
,
0001
0000
1000
0010
0100
0010
1000
0001
,
0200
0000
0310
1000
0000
1001
0000
1100
,
0000
1000
0010
0010
0100
0001
1000
0100
,
0020
0000
0031
0000
1000
0010
1000
0001
,
0200
0000
0310
1000
1001
0000
0110
0000
,
0020
0000
1030
0001
2000
0000
3010
0100
,
0000
0002
2000
0000
3003
0010
1000
0001
,
1000
0000
0010
1000
0010
0000
1000
0000
0001
0000
0000
0001
1000
0000
0010
0000
,
1000
0000
0100
0000
0010
0000
0001
0000
1000
0000
0010
1000
0010
0000
1000
0000
,
0001
0000
0100
0001
0100
0000
0001
0000
1000
0000
0001
0000
1001
0000
0000
0000
,
0110
0000
0010
1000
0002
0000
2003
0000
,
3010
0000
1000
0010
1000
0000
0001
0000
1000
0000
0000
1000
0001
0000
1000
0000
,
0100
0000
0010
0000
0001
0000
0100
0000
0010
0000
1000
0010
1000
0000
0010
0000
,
0100
0001
1000
0001
1000
0100
1100
0000
,
0101
0000
0001
0001
1000
0010
1000
0100
,
1000
0000
0000
0000
0010
0000
1000
0000
1001
0000
0000
0001
0000
0000
0100
0000
,
0010
0000
0000
0000
0000
0000
1000
0000
0001
0000
1000
0010
1000
0000
0001
0000
,
1001
0000
1000
0100
0010
0001
0000
1000
,
1001
0000
0000
0010
1000
0001
0100
0001
,
1000
0000
0100
0000
1000
0000
0001
0000
0100
0000
0000
0100
0000
0000
0001
0000
,
1000
0000
0000
0000
0000
0000
0001
0000
1000
0000
0010
0100
0010
0000
1000
0000
,
1001
0000
0010
1000
0100
0010
0001
0000
,
2002
3003
0020
0230
,
0301
0000
0010
0000
0001
0000
1000
0000
0100
0000
1000
0000
0010
0000
0100
0010
,
0100
0000
0001
0000
1000
0000
0010
0000
1000
0000
0001
1000
0010
0000
1000
0000
,
0001
0010
0001
1000
0010
0100
0001
1000
,
1010
0000
0101
0000
1000
0010
0100
0010
,
1010
0000
0000
0000
0001
0000
0100
0000
0010
0000
1000
0000
0001
0000
0000
0001
,
0100
0000
0010
0000
1000
0000
0010
0000
0100
0000
0010
1000
0010
0000
1000
0010
,
1000
0001
0100
0010
1000
1000
0001
0100
,
0010
0000
0000
0010
0000
0000
1000
0000
1001
0000
0000
0000
0110
0000
0000
0000
,
1000
0000
0000
1000
0001
0000
0000
0001
1000
0000
0100
0000
0010
0000
0001
0000
,
1000
0000
0001
0010
0100
1000
0001
1000
,
0010
0000
0010
0100
0000
0001
0100
0010
,
1000
0000
0101
0000
1000
0100
0010
0001
,
2000
0000
0010
0000
3001
1000
0010
1000
,
0001
0100
0010
0100
0001
1000
0100
0010
,
0002
0000
0000
0000
0103
0000
0010
0000
1000
0000
0010
1000
0010
0000
1000
0000
,
0000
1001
0000
1000
0100
0010
0001
1000
,
0010
0000
0000
0010
1000
0000
0000
1000
0001
0000
1000
0000
0100
0000
0010
0000
,
0001
0000
0000
0001
1000
0000
0100
0000
0010
0000
0100
0000
1000
0000
0001
0000
,
0200
0000
0310
1000
0000
1001
0000
1100
,
0000
1000
0010
0010
0100
0001
1000
0100
,
0020
0000
0031
0000
1000
0010
0100
0001
,
2000
0000
3001
0100
1001
0000
0110
0000
,
0020
0000
1030
0001
2000
0000
3010
0100
,
0000
0001
1000
0001
1000
0100
0010
0001
,
2002
0000
0000
0000
,
3003
0000
0000
0000
;

//---------------dance-single - ----------------
#NOTES:
     dance-single:
     :
     Medium:
     11:
     0.532904,0.550744,0.368230,0.248155,0.000000,466.000000,420.000000,46.000000,31.000000,0.000000,0.000000,0.532904,0.550744,0.368230,0.248155,0.000000,466.000000,420.000000,46.000000,31.000000,0.000000,0.000000:
0000
0000
0000
0000
,
0000
0000
0000
0000
,
0000
0000
0000
0000
,
0000
0000
0000
0000
,
0000
0000
0000
0000
,
0010
0000
1000
0000
0001
0000
1000
0001
,
2000
0000
3000
0000
0010
0100
0001
0100
,
0010
0000
1000
0100
0001
0000
0100
0000
,
0002
0000
0003
0000
1000
0010
1000
0000
,
0001
0000
0100
0010
0100
0000
0010
0000
,
2002
0000
3003
0000
0001
0100
0010
0100
,
0001
0000
1000
0010
0100
0000
0101
0000
,
2002
0000
3003
0000
0010
0100
0010
0100
,
0010
0000
1000
0100
0001
0000
0100
0000
,
2002
0000
3003
0000
0001
0100
0010
0100
,
0001
0000
0001
1000
0010
0000
0100
0000
,
2002
0000
3003
0000
0010
1000
0010
1000
,
0001
0000
1000
0010
0100
0000
0001
0100
,
0002
0000
0003
0000
1000
0010
0100
0010
,
1000
0000
0001
0001
1000
0000
0010
0000
,
2002
3003
0100
1001
,
0001
0010
0001
0000
1000
0100
1000
0000
,
0010
0100
0010
0100
0010
0000
1001
0000
,
1000
0100
1000
0010
1000
0001
1000
0010
,
1000
0000
0101
0000
1000
0001
1000
0001
,
1000
0000
0010
1000
0010
0100
0010
1000
,
0001
0100
0010
1000
0001
0000
1001
0000
,
0001
0010
0001
0100
0001
1000
0001
1000
,
0010
0100
1001
0000
,
0010
0000
0100
0000
0001
0100
0001
0000
,
0100
0000
0010
1000
0010
0000
0100
0000
,
1000
0000
0010
0000
0100
0001
0100
0000
,
0010
0000
0000
0001
1000
0001
0100
0000
,
2002
0000
3003
0000
1000
0001
0000
0001
,
1000
0010
1000
0001
1000
0000
0010
0100
,
0010
0000
1000
0001
1000
0000
0001
0100
,
0000
0100
0001
0000
1001
0000
0110
0000
,
1001
0000
1100
0000
0001
1000
0010
0100
,
0001
0000
1000
0010
0100
0000
1001
0000
,
0001
0000
0001
0100
0000
0010
0100
0001
,
1000
0000
0020
0000
0130
0000
0001
1000
,
0002
0000
0100
0000
0103
0001
0100
0000
,
0010
0000
1000
0100
0010
0000
0001
0000
,
1000
0000
0001
0100
0010
0000
1000
0010
,
0000
0010
0100
0000
1001
0000
1001
0000
,
0000
0000
0001
1000
0010
0000
0001
1000
,
0010
0100
0001
1000
0010
0000
1000
0001
,
0100
0000
0001
0100
0010
1000
0100
0000
,
1001
0000
0000
0010
1000
0001
0100
0010
,
1000
0000
0001
0100
0010
0000
1000
0001
,
1000
0100
1000
0010
1000
0000
0001
0100
,
0001
0000
1000
0001
0100
0001
0010
0000
,
1001
0000
0010
1001
,
1000
0000
0001
0100
1000
0000
0001
0000
,
1001
0000
0010
1000
,
0100
0000
1000
0100
0001
0000
0100
0000
,
1001
0000
0010
0100
,
1001
0000
0001
0010
1000
0000
0001
0000
,
0010
0000
0001
0100
,
1001
0000
0010
0100
0001
0000
1000
0000
,
2002
3003
0020
0230
,
0301
0000
1000
0000
0010
0100
0010
0000
,
1000
0100
1000
0010
1000
0001
1000
0000
,
0001
0010
0001
0100
0001
1000
0001
0000
,
1010
0000
0101
0000
0100
0010
0100
0010
,
0100
0000
0001
0010
0001
0100
0001
0000
,
1000
0100
0010
0001
0100
0010
0100
0000
,
0001
0100
0001
0100
0010
1000
0010
0000
,
0100
1001
0220
0330
,
0010
0000
1010
0000
0001
1000
0010
1000
,
0001
1100
0001
0100
,
0010
0000
1000
0001
1000
0010
1000
0100
,
1000
0001
0110
1001
,
0202
0000
0303
0000
0010
1000
0100
0010
,
0001
0100
1001
0010
,
1100
0000
0001
0100
0001
0000
1000
0010
,
0000
0010
0200
0000
0001
0000
0310
0000
,
1001
0000
1100
0000
0001
0100
0010
0100
,
0001
0000
0010
1000
0001
0000
0110
0000
,
1001
0000
1000
0100
0000
0001
0100
0010
,
0000
0010
0000
1000
0001
1000
0100
1000
,
0002
0000
0100
0000
0103
0000
0010
1000
,
0001
1100
0101
1100
,
0020
0000
0130
0001
0100
0000
0010
1000
,
0000
0001
2000
0000
0001
0000
3001
0000
,
2002
0000
0000
0000
,
3003
0000
0000
0000
;

//---------------dance-single - ----------------
#NOTES:
     dance-single:
     :
     Easy:
     7:
     0.395675,0.516322,0.488305,0.352220,0.000000,346.000000,285.000000,61.000000,44.000000,0.000000,0.000000,0.395675,0.516322,0.488305,0.352220,0.000000,346.000000,285.000000,61.000000,44.000000,0.000000,0.000000:
0000
0000
0000
0000
,
0000
0000
0000
0000
,
0000
0000
0000
0000
,
0000
0000
0000
0000
,
0000
0000
0000
0000
,
0010
0100
0001
1000
,
2002
0000
3003
0000
0010
0100
0010
0000
,
1000
0100
0010
0001
,
2002
0000
3003
0000
0001
0100
0001
0000
,
0100
0010
1000
0001
,
2002
0000
3003
0000
0010
1000
0010
0000
,
1000
0100
0010
0001
,
2002
3003
0110
1001
,
0001
0100
0001
0000
1000
0000
0010
0000
,
0200
0300
1001
1001
,
1000
0000
0010
0100
0010
0000
1000
0000
,
0020
0030
1001
1001
,
0100
0000
0010
1000
0010
0000
0100
0000
,
2002
3003
0110
0110
,
1000
0001
1000
0100
,
2002
3003
0110
1001
,
0001
0001
1000
1000
,
0010
0100
1001
0000
,
1000
1000
0001
0001
,
1001
1001
0110
0110
,
1001
0010
0010
1001
,
0001
0100
2002
3003
,
1000
0100
0010
0001
,
0100
0010
1001
0000
,
0010
1000
0001
0001
,
1000
0100
0010
0001
,
0010
0001
0100
1000
,
0020
0030
1000
0001
,
0200
0000
0310
0000
0000
0001
0000
0000
,
0001
1000
0100
0010
,
0001
0100
0001
1000
,
2002
3003
0010
0100
,
1001
1001
1000
0100
,
1000
0001
0001
1000
,
0010
0100
0001
1000
,
2002
3003
0010
0100
,
2002
3003
1000
0100
,
0010
0001
0100
0010
,
1001
0000
0010
0100
,
2002
3003
0220
0330
,
0001
0001
1000
1000
,
0010
0100
0010
0100
,
0001
0001
1000
1000
,
1001
0000
0110
0110
,
0001
1000
0100
0010
,
0001
1000
0010
0100
,
0001
0001
1000
1000
,
1001
0000
0110
0110
,
0001
0000
1000
0000
,
1001
0000
0010
0100
,
1001
0000
0001
0000
,
0110
0000
0001
1000
,
1001
0000
0100
0000
,
1001
0000
0010
0100
,
0110
0000
0001
0000
,
1001
0000
1000
0100
,
1000
1000
0001
0001
,
1000
0100
1001
1001
,
0001
0010
0100
1000
,
0010
0010
0100
0010
,
1001
0100
0100
0010
,
1000
0100
2002
3003
,
0001
0100
0010
1000
,
0001
0001
2002
3003
,
0010
1000
0001
1000
,
0010
0100
0001
1000
,
0010
1000
0100
0001
,
0020
0030
1000
0001
,
0200
0000
0310
0000
0000
1000
0000
0000
,
0010
1000
0100
0010
,
0001
1000
0010
0100
,
2002
3003
0001
0100
,
1001
1001
0010
0100
,
1000
0001
1001
1001
,
0010
0100
0001
1000
,
2002
3003
0010
0100
,
2002
3003
1000
0001
,
0100
0010
1000
0100
,
1001
0000
0010
0100
,
2002
3003
0100
0010
,
2002
0000
0000
0000
,
3003
0000
0000
0000
;

//---------------dance-single - ----------------
#NOTES:
     dance-single:
     :
     Beginner:
     5:
     0.218422,0.275372,0.136085,0.144090,0.000000,191.000000,174.000000,17.000000,18.000000,0.000000,0.000000,0.218422,0.275372,0.136085,0.144090,0.000000,191.000000,174.000000,17.000000,18.000000,0.000000,0.000000:
// measure 0
0000
0000
0000
0000
,  // measure 1
0000
0000
0000
0000
,  // measure 2
0000
0000
0000
0000
,  // measure 3
0000
0000
0000
0000
,  // measure 4
0000
0000
0000
0000
,  // measure 5
0010
0000
0100
0000
,  // measure 6
0001
0000
1000
1000
,  // measure 7
1000
0000
0001
0000
,  // measure 8
1000
0000
0010
0010
,  // measure 9
0010
0000
0100
0000
,  // measure 10
0001
0000
1000
1000
,  // measure 11
1000
0000
0001
0000
,  // measure 12
0100
0000
0010
0000
,  // measure 13
1000
0000
0001
0000
,  // measure 14
1001
0000
1000
1000
,  // measure 15
1000
0000
0010
0000
,  // measure 16
0100
0000
0010
0010
,  // measure 17
0010
0000
0100
0000
,  // measure 18
0001
0000
1000
1000
,  // measure 19
1000
0000
0001
0000
,  // measure 20
1001
0000
0010
0000
,  // measure 21
1000
1000
1000
0000
,  // measure 22
1000
0000
0001
0000
,  // measure 23
0100
0100
0100
0000
,  // measure 24
0010
0000
0100
0000
,  // measure 25
0001
0000
1000
0000
,  // measure 26
0001
0001
0001
0000
,  // measure 27
1000
0000
0010
0000
,  // measure 28
0100
0100
0100
0000
,  // measure 29
0000
0000
0001
0000
,  // measure 30
1000
0000
0001
0000
,  // measure 31
1000
0000
0010
0000
,  // measure 32
0200
0000
0300
0000
,  // measure 33
0020
0000
0030
0000
,  // measure 34
0001
0001
0001
0000
,  // measure 35
1000
0000
0010
0000
,  // measure 36
0200
0000
0300
0000
,  // measure 37
1001
0000
0010
0010
,  // measure 38
0010
0000
0100
0000
,  // measure 39
0001
0000
1000
0000
,  // measure 40
2002
0000
3003
0000
,  // measure 41
0010
0000
0100
0100
,  // measure 42
0100
0000
0001
0000
,  // measure 43
1000
0000
0001
0000
,  // measure 44
2002
0000
0000
3003
,  // measure 45
0000
0000
0100
0000
,  // measure 46
0100
0100
0100
0000
,  // measure 47
0010
0000
0010
0010
,  // measure 48
0010
0000
1001
0000
,  // measure 49
1000
0000
0001
0000
,  // measure 50
1000
1000
1000
0000
,  // measure 51
0001
0000
0100
0100
,  // measure 52
0100
0000
1001
0000
,  // measure 53
0010
0000
0100
0000
,  // measure 54
1001
0000
0000
0000
,  // measure 55
0100
0000
0010
0000
,  // measure 56
1001
0000
0000
0000
,  // measure 57
1000
0000
0001
0000
,  // measure 58
1001
0000
0000
0000
,  // measure 59
0001
0000
1000
0000
,  // measure 60
1001
0000
0000
0000
,  // measure 61
0100
0100
0100
0000
,  // measure 62
0010
0010
0010
0000
,  // measure 63
1000
1000
1000
0000
,  // measure 64
0001
0001
0001
0001
,  // measure 65
0001
0000
1000
0000
,  // measure 66
0100
0100
0100
0000
,  // measure 67
0010
0010
0010
0000
,  // measure 68
1000
0000
0001
0000
,  // measure 69
1000
0000
0001
0001
,  // measure 70
0001
0000
1000
0000
,  // measure 71
0010
0000
0100
0000
,  // measure 72
1001
0000
0010
0010
,  // measure 73
0020
0030
0000
0100
,  // measure 74
0100
0000
0100
0000
,  // measure 75
0001
0000
1000
0000
,  // measure 76
2002
0000
3003
0000
,  // measure 77
0010
0000
0100
0100
,  // measure 78
0100
0000
0001
0000
,  // measure 79
1000
0000
0001
0001
,  // measure 80
0001
0000
1000
0000
,  // measure 81
2002
0000
3003
0000
,  // measure 82
0220
0000
0330
0000
,  // measure 83
0010
0000
0100
0000
,  // measure 84
2002
0000
3003
0000
,  // measure 85
2002
0000
0000
0000
,  // measure 86
3003
0000
0000
0000
;
