#VERSION:0.83;
#TITLE:86 -ANOTHER-;
#SUBTITLE:;
#ARTIST:DASU feat. グミ&鏡音レン;
#TITLETRANSLIT:;
#SUBTITLETRANSLIT:;
#ARTISTTRANSLIT:DASU feat. GUMI & KAGAMINE LEN;
#GENRE:;
#ORIGIN:;
#CREDIT:Toxsa Dalton;
#BANNER:86 -ANOTHER-.png;
#BACKGROUND:86 -ANOTHER--bg.png;
#PREVIEWVID:;
#JACKET:86 -ANOTHER--jacket.png;
#CDIMAGE:;
#DISCIMAGE:;
#LYRICSPATH:;
#CDTITLE:;
#MUSIC:86 -ANOTHER-.ogg;
#OFFSET:1.765000;
#SAMPLESTART:24.104538;
#SAMPLELENGTH:14.461079;
#SELECTABLE:YES;
#DISPLAYBPM:83.000000:167.000000;
#BPMS:0.000=83.500,
18.000=334.000,
20.000=668.000,
34.000=700.000,
36.000=668.000,
50.000=697.000,
54.000=670.000,
84.000=84.000,
85.000=80.000,
85.167=83.000,
85.500=87.000,
86.000=83.500,
116.000=41.700,
116.500=83.500,
117.000=167.000,
118.000=334.000,
120.000=167.000,
121.000=83.500,
121.500=167.000,
122.500=334.000,
124.500=167.000,
125.500=83.500,
126.000=167.000,
127.000=334.000,
129.000=167.000,
130.000=83.000,
130.500=168.000,
131.500=334.000,
133.500=167.000,
134.500=83.500,
135.000=167.000,
136.000=334.000,
138.000=167.000,
139.000=83.500,
139.500=167.000,
140.500=334.000,
142.500=167.000,
143.500=83.500,
144.000=167.000,
145.000=334.000,
147.000=167.000,
147.500=83.500,
148.000=167.000,
149.000=334.000,
151.000=167.000,
152.500=83.500,
153.000=167.000,
154.000=334.000,
156.000=167.000,
157.000=83.500,
157.500=167.000,
158.500=334.000,
160.500=167.000,
161.500=83.500,
162.000=167.000,
163.000=334.000,
165.000=167.000,
166.000=83.000,
166.500=168.000,
167.500=334.000,
169.500=167.000,
170.500=83.500,
171.000=167.000,
172.000=334.000,
174.000=167.000,
175.000=83.500,
175.500=167.000,
176.500=334.000,
178.500=167.000,
179.500=83.500,
180.000=167.000,
181.000=334.000,
183.000=167.000,
183.500=83.500,
184.000=167.000,
185.000=334.000,
188.000=167.000;
#STOPS:18.000=0.539,
19.000=0.269,
19.500=0.269,
20.000=0.135,
20.500=0.135,
21.000=0.135,
21.500=0.135,
22.000=0.135,
22.500=0.135,
23.000=0.135,
23.500=0.135,
24.000=0.135,
24.500=0.135,
25.000=0.135,
25.500=0.135,
26.000=0.135,
26.500=0.135,
27.000=0.135,
27.500=0.135,
28.000=0.135,
28.500=0.135,
29.000=0.135,
29.500=0.135,
30.000=0.135,
30.500=0.135,
31.000=0.135,
31.500=0.135,
32.000=0.135,
32.500=0.135,
33.000=0.135,
33.500=0.135,
34.000=0.135,
34.500=0.135,
35.000=0.135,
35.500=0.135,
36.000=0.135,
36.500=0.135,
37.000=0.135,
37.500=0.135,
38.000=0.135,
38.500=0.135,
39.000=0.135,
39.500=0.135,
40.000=0.135,
40.500=0.135,
41.000=0.135,
41.500=0.135,
42.000=0.135,
42.500=0.135,
43.000=0.135,
43.500=0.135,
44.000=0.135,
44.500=0.135,
45.000=0.135,
45.500=0.135,
46.000=0.135,
46.500=0.135,
47.000=0.135,
47.500=0.135,
48.000=0.135,
48.500=0.135,
49.000=0.135,
49.500=0.135,
50.000=0.135,
50.500=0.135,
51.000=0.135,
51.500=0.135,
52.000=0.135,
52.500=0.135,
53.000=0.135,
53.500=0.135,
54.000=0.135,
54.500=0.135,
55.000=0.135,
55.500=0.135,
56.000=0.135,
56.500=0.135,
57.000=0.135,
57.500=0.135,
58.000=0.135,
58.500=0.135,
59.000=0.135,
59.500=0.135,
60.000=0.135,
60.500=0.135,
61.000=0.135,
61.500=0.135,
62.000=0.135,
62.500=0.135,
63.000=0.135,
63.500=0.135,
64.000=0.135,
64.500=0.135,
65.000=0.135,
65.500=0.135,
66.000=0.135,
66.500=0.135,
67.000=0.135,
67.500=0.135,
68.000=0.135,
68.500=0.135,
69.000=0.135,
69.500=0.135,
70.000=0.135,
70.500=0.135,
71.000=0.135,
71.500=0.135,
72.000=0.135,
72.500=0.135,
73.000=0.135,
73.500=0.135,
74.000=0.135,
74.500=0.135,
75.000=0.135,
75.500=0.135,
76.000=0.135,
76.500=0.135,
77.000=0.135,
77.500=0.135,
78.000=0.135,
78.500=0.135,
79.000=0.135,
79.500=0.135,
80.000=0.135,
80.500=0.135,
81.000=0.135,
81.500=0.135,
82.000=0.135,
82.500=0.135,
83.000=0.135,
83.500=0.135,
84.000=1.437,
316.500=2.830;
#DELAYS:;
#WARPS:;
#TIMESIGNATURES:0.000=4=4;
#TICKCOUNTS:0.000=4;
#COMBOS:0.000=1;
#SPEEDS:0.000=1.000=0.000=0;
#SCROLLS:0.000=1.000;
#FAKES:;
#LABELS:0.000=Song Start;
#BGCHANGES:;
#KEYSOUNDS:;
#ATTACKS:
;

//---------------dance-single - ----------------
#NOTEDATA:;
#CHARTNAME:;
#STEPSTYPE:dance-single;
#DESCRIPTION:;
#CHARTSTYLE:;
#DIFFICULTY:Challenge;
#METER:15;
#RADARVALUES:0.727237,0.829618,0.314423,0.441689,0.422974,680.000000,638.000000,42.000000,59.000000,0.000000,0.000000,0.000000,0.000000,0.000000,0.727237,0.829618,0.314423,0.441689,0.422974,680.000000,638.000000,42.000000,59.000000,0.000000,0.000000,0.000000,0.000000,0.000000;
#CREDIT:;
#DISPLAYBPM:83.000000:167.000000;
#NOTES:
// measure 0
0000
0000
0000
0000
,  // measure 1
0000
0000
0000
0000
,  // measure 2
0000
0000
0000
0000
,  // measure 3
0020
0000
1030
0001
1000
0001
1000
0100
1000
0100
0010
0001
0010
0001
1000
0100
,  // measure 4
0020
0000
1030
0001
1000
0001
1000
0100
0010
0000
0000
0000
1100
0000
0011
0000
,  // measure 5
1000
0001
1000
0100
1000
0010
1000
0001
,  // measure 6
1000
0010
1000
0100
0010
0001
0100
0001
,  // measure 7
1000
0010
1000
0100
0010
0001
0100
0010
,  // measure 8
1000
0001
1000
0010
2000
3100
0020
0031
,  // measure 9
1000
0010
1000
0010
0100
0001
0100
0001
,  // measure 10
1000
0100
0001
0100
1000
0010
0001
0100
,  // measure 11
1000
0010
1000
0010
0001
0100
0001
0100
,  // measure 12
0001
0010
0100
1000
0020
0130
0002
0103
,  // measure 13
0002
0013
0002
0103
0002
1003
0002
0103
,  // measure 14
0002
0013
0002
1003
0010
0100
0010
0001
,  // measure 15
2000
3010
2000
3100
2000
3010
2000
3001
,  // measure 16
2000
3100
0020
0031
1000
0100
0010
0001
,  // measure 17
0200
0310
0200
0301
0200
0310
0200
0301
,  // measure 18
0200
0310
0200
0301
1000
0100
0010
0001
,  // measure 19
2000
3001
2000
3010
2000
3100
2000
3010
,  // measure 20
1000
0100
0010
0001
0100
0010
1000
0001
,  // measure 21
0200
0300
0010
0000
1000
0100
0010
0001
1000
0000
0001
0010
0100
0000
1000
0000
,  // measure 22
0001
0000
1000
0100
0000
0001
0000
0010
1000
0000
0100
0000
0001
0010
0100
1000
,  // measure 23
0020
0000
0000
0000
0100
0000
0000
0000
1030
0000
0010
0000
0000
0000
1000
0000
0100
0000
0010
0000
0001
0000
0010
0000
0100
0000
0000
1000
0000
0000
0001
0000
,  // measure 24
0010
0000
1000
0010
0100
0000
0001
0010
0000
0200
0000
0000
0301
0010
0100
1000
,  // measure 25
0001
0000
0001
0000
1000
0100
0010
0001
1000
0000
0001
0010
0100
0000
1001
0000
,  // measure 26
0110
0000
0001
0010
0000
1000
0100
0010
0000
1000
0001
0010
0001
0010
0100
0000
,  // measure 27
2002
0000
3003
0000
0001
0010
0100
0000
1001
0000
0100
0010
0001
0000
1000
0000
,  // measure 28
0011
0000
1000
0010
0100
0000
0001
0010
0000
0200
0000
0000
0310
1000
0001
0010
,  // measure 29
2002
3003
1000
0000
0110
0000
0000
0000
1001
0000
0000
0000
0010
0000
0000
0000
,  // measure 30
1000
1000
1000
0001
0001
0002
0000
0000
,  // measure 31
0000
0000
2003
0000
0000
0000
3010
0000
1000
0000
1000
0001
1000
0000
0000
0000
,  // measure 32
0000
0000
0001
2000
0001
3001
0000
1000
,  // measure 33
0000
0100
0000
0010
0000
2002
3003
0000
,  // measure 34
0010
0000
2000
0000
0000
3001
1000
0001
,  // measure 35
0000
1000
0000
0000
1000
0000
0001
1000
,  // measure 36
0000
0010
0200
0000
0000
0000
0301
2000
,  // measure 37
3020
0000
1030
0000
0001
0000
0100
0010
,  // measure 38
1000
0001
2000
0000
3001
0000
0010
0000
,  // measure 39
0100
0000
2000
0001
0001
3001
0000
0000
,  // measure 40
0000
1001
0000
1000
0001
0001
0000
0000
,  // measure 41
1000
0000
0001
0100
0000
0001
1000
0010
,  // measure 42
0000
0000
0000
1100
0000
0022
0033
0000
,  // measure 43
1000
0000
0001
0000
1000
0000
0100
0010
,  // measure 44
1000
0001
0000
0000
0000
1000
0000
1001
,  // measure 45
0001
1000
0100
0000
0000
0000
1000
0001
,  // measure 46
2000
3001
0010
0100
,  // measure 47
1000
0000
0001
0000
1001
0000
0000
1000
0010
0000
0000
0010
0100
0000
0001
0100
,  // measure 48
0010
0000
1000
0000
0001
0000
0010
0000
0100
0000
1000
0000
0001
0000
1000
0010
,  // measure 49
1000
0000
0001
0000
1000
0000
0100
0000
0010
0000
0001
0100
0001
0000
1000
0000
,  // measure 50
0010
0100
0010
0000
1000
0000
0001
0000
0010
0000
0100
0000
0001
0010
0001
0010
,  // measure 51
0001
0010
0001
0000
2002
0000
0000
3003
1001
0000
0000
0000
0010
0000
1000
0000
,  // measure 52
0010
0000
0100
0000
0001
0000
0100
0000
0010
0000
1000
0000
1010
0000
0000
0101
,  // measure 53
0000
0000
1000
0000
1010
0000
0010
0000
0100
0000
0001
0100
0001
0000
0100
0000
,  // measure 54
0010
1000
0010
0000
0100
0000
0001
1000
0001
0000
1000
0000
0001
0010
0001
0000
,  // measure 55
1000
0100
0010
0000
0001
0000
1000
0000
0001
0010
0100
0000
1000
0000
0001
0010
,  // measure 56
0001
0000
1000
0000
0010
0000
0100
0001
0100
0000
0010
0000
1010
0000
0010
0100
,  // measure 57
0001
0000
0100
0000
0110
0000
1000
0001
1000
0000
0110
0000
0110
0000
0001
0010
,  // measure 58
0001
0000
1000
0000
0001
0000
0010
0100
1000
0000
0001
0000
1000
0000
1001
0000
,  // measure 59
0001
0000
0100
0000
0220
0000
0330
0000
0110
0000
0000
0000
1010
0000
1000
0010
,  // measure 60
1000
0000
0001
0000
0101
0000
0100
0000
0110
0000
0110
0000
0101
0000
0001
1000
,  // measure 61
0001
0000
1000
0000
0020
0000
0100
0000
0130
0000
0001
0000
0101
0000
0100
0001
,  // measure 62
1000
0000
0001
0000
1000
0000
2200
0000
0000
3300
1100
0000
1000
0010
1000
0010
,  // measure 63
1000
0001
1000
0001
1000
0000
0001
0000
0010
0000
0001
0000
1000
0100
0010
0000
,  // measure 64
0100
0000
0001
0000
0010
0000
0100
0000
1000
0000
0001
0000
0100
0010
0000
1000
,  // measure 65
0010
0000
1000
0000
0001
0100
0001
0000
1000
0000
0010
0000
1000
0100
1000
0000
,  // measure 66
0010
0000
0100
0000
0001
0000
0010
0000
0100
0000
1000
0000
0010
0100
0010
0100
,  // measure 67
0001
1000
0001
1000
0001
0000
1000
0000
0010
0000
0100
0000
0001
0000
0010
0100
,  // measure 68
1000
0000
0001
0000
1000
0000
0100
0000
0010
0000
0001
0000
0100
0010
0000
0100
,  // measure 69
0010
0000
1000
0010
1000
0000
0001
0000
0010
0000
0100
0000
1000
0000
0100
0000
,  // measure 70
0010
0000
0001
0000
1000
0010
1000
0000
0001
0000
1000
0000
0001
0010
0001
0010
,  // measure 71
0100
1000
0100
1000
0010
0000
1000
0000
0001
0000
1000
0000
0010
0100
0010
0100
,  // measure 72
0010
0000
1000
0000
0001
0000
1000
0000
0100
0000
0010
0000
0001
0100
0001
0100
,  // measure 73
0001
0000
1000
0000
0010
0000
1000
0000
0100
0000
0010
0000
0001
0100
0001
0100
,  // measure 74
0001
0000
1000
0000
0001
0000
0010
0000
0100
0000
1000
0000
0010
0100
0010
0100
,  // measure 75
0001
1000
0001
1000
0010
0000
1000
0000
0100
0000
0010
0000
0001
0100
0001
0100
,  // measure 76
0001
0100
0001
0000
1000
0000
0100
0000
0010
0000
0001
0000
1000
0010
1000
0010
,  // measure 77
1000
0010
1000
0000
0001
0000
0010
0100
1000
0100
0010
0000
0001
0000
1000
0100
,  // measure 78
0010
0100
1000
0000
0001
0000
1100
0000
0001
0000
1010
0000
0011
0000
0110
0000
,  // measure 79
1100
0000
0000
0000
2002
3003
0000
0000
0000
0000
0000
0000
0000
0000
0000
0000
0000
0000
0000
0000
0000
0000
0000
0000
0000
0000
0000
0000
0000
0000
0000
0000
;
