#TITLE:255;
#SUBTITLE:;
#ARTIST:255;
#TITLETRANSLIT:;
#SUBTITLETRANSLIT:;
#ARTISTTRANSLIT:;
#GENRE:;
#CREDIT:;
#BANNER:255.png;
#BACKGROUND:255-bg.png;
#LYRICSPATH:;
#CDTITLE:;
#MUSIC:255.ogg;
#OFFSET:0.955000;
#SAMPLESTART:46.100014;
#SAMPLELENGTH:12.000000;
#SELECTABLE:YES;
#BPMS:0.000000=255.000000
;
#STOPS:
;
#BGCHANGES:;
#KEYSOUNDS:;
#ATTACKS:;

//---------------dance-single - ----------------
#NOTES:
     dance-single:
     :
     Hard:
     15:
     0.868632,0.881406,0.570572,0.246964,0.000000,714.000000,647.000000,67.000000,29.000000,0.000000,0.000000,0.868632,0.881406,0.570572,0.246964,0.000000,714.000000,647.000000,67.000000,29.000000,0.000000,0.000000:
0000
0000
0000
0000
,
0000
0000
0000
0000
,
0001
0100
0001
1000
0010
1000
0001
0100
,
0001
1000
0010
1000
0001
0001
0001
0000
,
1000
0100
1000
0010
1000
0010
1000
0100
,
1000
0010
1000
0010
0100
0100
0100
0000
,
0001
0100
0001
1000
0001
1000
0001
0100
,
0001
1000
0001
1000
0010
0010
0010
0000
,
1000
0001
1000
0010
1000
0010
1000
0001
,
1000
0010
0100
0010
1000
1000
0001
0000
,
1000
0010
0100
0010
1000
0010
0100
0010
,
1000
0100
0010
0001
1000
0001
1000
0000
,
0001
0100
0010
0100
0001
0100
0010
0100
,
0001
0010
0100
1000
0010
0010
0010
0000
,
0001
1000
0010
0100
0010
1000
0001
1000
,
0010
0100
0010
1000
0100
0010
0001
0000
,
1000
0001
1000
0001
0100
0010
0100
0002
,
2000
0000
0000
3003
,
1100
0000
0001
0000
0100
0001
1000
0000
,
0010
0000
0100
0000
0001
0100
1000
0000
,
0101
0000
1000
0000
0100
1000
0001
0000
,
0010
0000
0100
0000
1000
0100
0001
0000
,
0010
0000
0010
0000
1001
0000
0001
0100
,
0010
1010
0101
0000
,
1000
0000
0100
0000
0001
0010
1000
0000
,
0100
0001
1000
1001
,
0010
1000
0010
0100
0001
0100
0010
1000
,
0010
0100
0001
0100
0010
1000
0001
1000
,
0001
0010
0001
1000
0010
1000
0001
0010
,
0001
1000
0010
1000
0001
0100
0001
0000
,
1000
0001
0000
1100
0000
0011
0000
0100
,
0010
1000
0000
0101
0000
1010
0000
0010
,
0110
0000
1001
0000
1100
0000
0010
0001
,
0200
0000
0020
0330
,
1000
0010
1000
0001
0100
0001
1000
0010
,
1000
0001
0010
0001
0100
0010
0100
0000
,
0001
0100
0001
1000
0010
1000
0001
0100
,
0001
1000
0010
0100
0001
0001
1000
0000
,
0010
1000
0010
0100
0001
0100
0010
0100
,
0010
1000
0001
1000
0010
0100
0001
0000
,
1001
0000
1001
0000
1001
0000
0100
0100
,
0002
0000
0023
0000
0130
0001
1000
0000
,
0010
1000
0100
1000
0010
1000
0100
1000
,
0010
0100
0001
0100
0010
0000
1000
0000
,
0001
0100
0010
0100
0001
1000
0010
1000
,
0001
0100
0010
1000
0001
0000
0001
0000
,
1000
0010
0100
0010
1000
0001
0100
0000
,
0001
0100
0010
1000
0010
0100
0001
0000
,
1010
0000
0101
0000
1010
0000
0001
0100
,
2000
0000
0000
3000
,
0010
0000
0000
0001
0000
0000
0100
0000
,
0110
1001
0110
1001
,
0010
1000
0001
0000
0100
0001
1000
0000
,
0001
0010
0001
0010
0001
1000
0010
0000
,
1000
0001
0100
0000
0001
1000
0100
0000
,
1000
0010
1000
0010
0100
0001
0010
0000
,
0001
0100
0010
1000
0010
1000
0001
0100
,
0010
1000
2002
3003
,
0020
0000
0031
0000
1000
0010
0100
0000
,
0001
0100
0020
0000
1030
0001
0100
0000
,
2000
0000
3010
0000
0100
0001
0010
0000
,
0001
1000
0020
0000
1030
0100
1000
0000
,
0010
0010
1000
0001
1000
0001
1000
0000
,
0100
0100
0001
1000
0001
1000
0001
0000
,
0010
0000
0011
0000
1100
0000
0001
0100
,
0020
0000
2000
3030
,
1001
0000
1001
0000
1001
0000
0100
0100
,
0001
0000
1001
0000
0010
0100
0010
0000
,
1001
0000
1100
0000
0101
0000
0100
0100
,
0001
0000
1010
0000
0001
1000
0010
0000
,
1001
1100
0101
0000
,
0101
0011
1010
0000
,
0110
0000
1001
0000
1100
0000
0001
0100
,
0010
1100
0101
1100
,
0001
0100
0001
1000
0010
1000
0001
0100
,
0001
1000
0010
1000
0001
0010
0100
0000
,
1000
0010
1000
0001
0100
0001
1000
0010
,
1000
0001
0100
0010
1000
1000
0001
0000
,
1000
0100
1100
0000
0001
0010
0011
0000
,
0100
0010
0110
0000
0001
1000
0100
0000
,
1000
0001
1000
0001
0100
0010
0100
0010
,
2000
0000
0002
3003
,
0010
0000
0010
0000
1000
0200
0000
0320
,
0000
0030
0001
0100
,
0001
0000
0001
0000
0100
0020
0000
2030
,
0000
0000
3001
0000
0100
0000
0010
1000
,
0100
0000
0100
0000
1000
0002
0000
0203
,
0000
0300
0001
1000
,
0010
0000
0010
0000
1000
0100
0010
0001
,
1000
0000
0001
0000
1001
0000
0010
0001
,
0100
0010
0100
0010
1000
0100
1000
0100
,
0010
0001
0010
0001
0100
0010
0100
0010
,
1000
0001
1000
0001
1000
0010
1000
0010
,
0100
0001
0100
0001
1000
0100
0010
0001
,
1000
0010
1000
0010
0001
0010
0001
0010
,
1000
0010
0001
0010
1000
0000
1001
0000
,
0010
0000
0000
0000
0001
0010
1000
0000
,
0000
0000
0001
0100
1000
0100
0001
0000
,
1010
0000
1010
0000
0001
0100
0010
1000
,
0020
0000
0130
0000
0001
1000
0010
0000
,
1100
0000
0101
0000
0010
1000
0100
1000
,
0020
0000
0230
0000
0301
0000
1000
0001
,
0100
0000
0100
0000
0001
0010
0100
1000
,
0020
0130
0101
1100
,
0011
0000
1010
0000
0001
0100
0010
1000
,
1001
0110
1001
0010
,
0100
0001
0001
0000
0001
0000
0001
0000
,
0100
1000
1000
0000
1000
0000
1000
0000
,
0100
0001
0001
0000
0001
0001
0001
0000
,
0100
1000
1000
0000
1000
1000
1000
0000
,
0010
0000
0001
0000
0100
0000
1000
0010
,
0001
0100
1000
0001
,
1001
0000
0110
0000
0001
0100
0010
1000
,
1001
0000
0000
0110
0000
0000
2002
0000
,
0000
0000
0000
0000
,
3003
0000
0000
0000
;

//---------------dance-single - ----------------
#NOTES:
     dance-single:
     :
     Medium:
     13:
     0.692229,0.832439,0.417284,0.068128,0.000000,569.000000,520.000000,49.000000,8.000000,0.000000,0.000000,0.692229,0.832439,0.417284,0.068128,0.000000,569.000000,520.000000,49.000000,8.000000,0.000000,0.000000:
0000
0000
0000
0000
,
0000
0000
0000
0000
,
1000
0000
0001
0100
0000
0001
0100
0000
,
0001
0100
0000
0001
0100
0000
0010
0000
,
1000
0000
0100
1000
0000
0100
1000
0000
,
0100
1000
0000
0100
1000
0000
0001
0000
,
0100
0000
0010
0100
0000
0010
0100
0000
,
0010
0100
0000
0010
0100
0000
0001
0000
,
1000
0000
0001
0100
0000
0001
0100
0000
,
0001
0100
0000
0001
0100
0000
0010
0000
,
1000
0000
0100
1000
0000
0100
1000
0000
,
0001
0100
0000
0001
0100
0000
0010
0000
,
1000
0000
0010
1000
0000
0010
1000
0000
,
0001
0010
0000
0001
0010
0000
0001
0000
,
0100
0000
0010
0100
0000
0010
0100
0000
,
0001
1000
0000
0001
1000
0000
0010
0000
,
0100
0000
0001
1000
0000
0001
1000
0000
,
0001
0010
0100
1000
,
1100
0001
0100
1000
,
0010
0100
0010
0100
,
0101
1000
0100
0001
,
0010
0100
0010
0100
,
0000
0010
0010
1001
,
0001
0010
1000
0100
,
0010
0100
1000
0000
,
0001
1000
0100
0010
,
0001
1000
0001
0000
1000
0100
0000
0100
,
0000
0100
0000
1000
0010
0000
0100
0000
,
0001
0010
0001
0000
0001
0100
0000
0100
,
0000
0100
0000
0010
1000
0000
0001
0000
,
1000
0001
0000
0100
0000
0100
0000
0000
,
0001
1000
0000
0100
0000
0100
0000
0000
,
1000
0000
0001
0000
0100
0000
0010
0100
,
0020
0000
0030
0000
,
0001
0000
0000
0010
0000
0000
0100
0000
,
0000
1000
0000
0100
0001
0001
0100
0000
,
1000
0000
0000
0010
0000
0000
0100
0000
,
0000
0001
0000
0100
1000
1000
0100
0000
,
0001
0000
0000
0010
0000
0000
0100
0000
,
0000
1000
0000
0100
0001
0001
0100
0000
,
1001
0000
1001
0000
1001
0000
0100
0100
,
0001
1000
1001
1001
,
0010
0000
0001
0100
0000
0001
0100
0000
,
0001
1000
0000
0001
0100
0000
1001
0000
,
1000
0000
0001
0010
0000
0001
0010
0000
,
0100
1000
0000
0100
1000
0000
0010
0000
,
0100
0000
0001
1000
0001
1000
0001
0000
,
0100
0000
1000
0001
1000
0001
1000
0000
,
0001
0010
0001
0000
1000
0100
1000
0000
,
2002
0000
0000
3003
,
0020
0000
0030
0000
,
0010
0001
0100
1000
,
0001
1000
0001
0000
1000
0001
1000
0000
,
1000
0100
1000
0100
1000
0100
1000
0000
,
0001
0100
0001
0000
0100
0001
0100
0000
,
0001
0010
0001
0010
0001
0010
0001
0000
,
0100
0010
0100
0010
0100
0010
0100
0000
,
0001
0000
0100
0010
0100
0000
0001
0000
,
1000
0010
1000
0000
0001
0000
0100
0000
,
0001
0010
0001
0000
0100
0000
0010
0000
,
1000
0001
1000
0000
0100
0010
0100
0000
,
0001
1000
0001
0000
1000
0000
0001
0000
,
1000
0100
0000
1100
0000
1100
0000
0000
,
0001
0100
0000
0101
0000
0101
0000
0000
,
0110
0000
1001
0000
0110
0000
0001
1000
,
0002
0000
0003
0000
,
0001
1100
0101
1100
,
0001
0100
0100
0100
,
1100
0101
1100
0101
,
0100
0010
0100
0010
,
1010
0011
1010
0000
,
0011
1010
0011
0000
,
1001
0000
1001
0000
1001
0000
0100
0100
,
0001
1000
0100
0010
,
0001
0000
0010
0001
0000
0100
0001
0000
,
0010
0001
0000
0100
0010
0000
1000
0000
,
0001
0000
0100
0001
0000
1000
0001
0000
,
0010
0001
0000
1000
0100
0000
0010
0000
,
0001
0101
1000
1100
,
0010
0110
1000
1001
,
1000
0001
1000
0001
1000
0001
1000
0001
,
2000
0000
0000
3000
,
0010
0000
0010
0000
0001
0100
0000
1000
,
0000
0000
1000
0100
,
0010
0000
0001
0000
0100
0001
0000
1000
,
0000
0000
0001
0000
1001
0000
1000
0010
,
1000
0000
0001
0000
0100
0010
0000
1001
,
0000
0000
0001
0100
,
1000
0000
0100
0000
0001
1000
0010
1000
,
0001
0000
1001
0000
1001
0000
0001
1000
,
0010
0000
1000
0000
0001
0100
0001
0000
,
1000
0010
1000
0000
0001
0010
0001
0000
,
1000
0001
0010
0000
0001
1000
0010
0000
,
1000
0100
1000
0000
0001
0100
0001
0000
,
1000
0001
1000
0001
1000
0001
1000
0001
,
1000
0001
1000
0001
1000
0001
1000
0001
,
0010
0000
0001
0001
,
0000
1000
1000
1000
,
0001
0000
0100
0000
0010
1000
0000
1000
,
0010
0100
0001
1001
,
0010
0000
0100
0000
0001
0010
0000
0010
,
0001
0100
0110
0010
,
1000
0000
0101
0000
0001
1000
0000
1000
,
0010
0100
0101
0001
,
1000
0000
0010
0000
1000
0001
1000
0001
,
0100
0010
1001
0100
,
0100
1000
0001
0000
0001
0000
0001
0000
,
0100
0001
1000
0000
1000
0000
1000
0000
,
0100
0001
0001
1000
0001
1000
0001
0000
,
0100
1000
1000
0001
1000
0001
1000
0000
,
0001
0000
0010
0000
1000
0001
1000
0000
,
0010
0000
0001
0000
1000
0100
1000
0000
,
0001
0000
1001
0000
0010
0100
0010
0100
,
0010
0000
0000
0110
0000
0000
2002
0000
,
0000
0000
0000
0000
,
3003
0000
0000
0000
;

//---------------dance-single - ----------------
#NOTES:
     dance-single:
     :
     Easy:
     9:
     0.496361,0.783472,0.527992,0.212900,0.000000,408.000000,346.000000,62.000000,25.000000,0.000000,0.000000,0.496361,0.783472,0.527992,0.212900,0.000000,408.000000,346.000000,62.000000,25.000000,0.000000,0.000000:
0000
0000
0000
0000
,
0000
0000
0000
0000
,
0000
0000
0000
0000
,
0000
0000
0000
0000
,
0000
0000
0000
0000
,
0000
0000
0000
0000
,
0010
0000
0001
0000
,
0100
0000
1000
0000
,
0010
0000
0100
0000
,
0001
0000
1001
0000
,
0010
0100
0010
0100
,
0010
0010
1000
1001
,
0100
0010
0100
0010
,
0001
0001
1000
1001
,
0010
0010
1000
0001
,
0100
0100
0001
1000
,
0010
1000
0001
0100
,
2002
0000
3003
0000
,
0001
0001
1000
0010
,
0100
0100
0010
0010
,
1000
1000
0001
0100
,
0010
0010
0100
0100
,
0010
0010
0010
0001
,
0001
1000
1000
1000
,
0001
0001
0100
0000
,
1000
0100
0010
0001
,
1000
1000
0000
1001
,
0000
0010
0001
0100
,
0001
0001
0000
1001
,
0000
0010
1000
0100
,
0010
0010
1010
0000
,
0010
0010
0011
0000
,
0100
0100
0100
0100
,
2002
0000
0000
3003
,
0010
0000
0000
0001
0000
0000
0100
0000
,
0000
1000
0000
0000
0001
0000
1000
0000
,
0010
0000
0000
1000
0000
0000
0100
0000
,
0000
0001
0000
0000
1000
0000
0010
0000
,
1000
0000
0000
0010
0000
0000
0001
0000
,
0000
0100
0000
0000
1000
0000
0010
0000
,
0110
0110
0110
0000
,
2002
0000
3003
0000
,
0001
0010
0100
1000
,
0001
1000
1001
1001
,
1000
0100
0010
0001
,
1000
0001
1001
1001
,
0010
0100
1001
0000
,
0100
0010
1001
0000
,
0110
0110
0110
0000
,
2002
0000
3003
0000
,
0020
0000
0030
0000
,
0001
1000
0001
1000
,
0010
0010
1000
0001
,
0100
0100
0001
1000
,
0010
0001
0100
1000
,
0010
1000
0100
0001
,
0100
0010
1000
0001
,
0100
0100
2002
3003
,
0010
0001
0100
0100
,
0010
1000
0100
0100
,
0001
1000
0100
0110
,
1000
0001
0100
0110
,
1001
1001
0010
0000
,
1001
1001
0100
0000
,
0001
0010
0100
1000
,
2002
0000
3003
0000
,
1001
1001
1001
0000
,
0200
0000
0310
0000
,
1001
1001
1001
0000
,
0020
0000
0130
0000
,
1001
1001
1001
0000
,
1001
1001
1001
0000
,
1001
1001
1001
1001
,
1001
1001
1001
0000
,
0010
0001
1000
0001
,
0010
0100
1000
0001
,
0010
1000
0010
0001
,
1000
0100
0010
0001
,
0000
0101
0000
1010
,
0000
1100
0000
0011
,
0000
0100
0010
0100
,
1001
0000
0000
0000
,
0010
0001
0100
0000
,
0010
0000
1000
0000
,
0010
1000
0100
0000
,
0010
0000
0001
0000
,
1000
0100
0001
0000
,
0010
0000
0100
0000
,
0001
0100
1000
0000
,
0010
0000
0100
0000
,
0001
1000
0001
1000
,
0010
0100
0010
0100
,
0001
0010
0001
0010
,
0100
1000
0100
1000
,
0001
0101
1000
1100
,
0010
0110
1000
1001
,
0010
0000
1000
1000
,
0000
0001
0001
0001
,
0010
1000
0001
0100
,
0020
0030
1000
0001
,
1000
0100
0010
0001
,
0200
0300
0002
0003
,
1000
0100
0001
0100
,
2000
3000
0001
0010
,
1000
0010
0001
0100
,
2002
3003
0220
0330
,
0001
0100
0001
0000
,
1000
0100
1000
0000
,
0001
0000
0100
0000
0001
0100
0001
0000
,
1000
0000
0100
0000
1000
0100
1000
0000
,
0001
0100
1000
0000
,
1000
0010
0001
0000
,
0001
0100
1000
0010
,
0001
0000
0000
1000
0000
0000
2002
0000
,
0000
0000
0000
0000
,
3003
0000
0000
0000
;

//---------------dance-single - ----------------
#NOTES:
     dance-single:
     :
     Beginner:
     7:
     0.304143,0.391736,0.110708,0.119224,0.000000,250.000000,237.000000,13.000000,14.000000,0.000000,0.000000,0.304143,0.391736,0.110708,0.119224,0.000000,250.000000,237.000000,13.000000,14.000000,0.000000,0.000000:
0000
0000
0000
0000
,
0000
0000
0000
0000
,
0000
0000
0000
0000
,
0000
0000
0000
0000
,
0000
0000
0000
0000
,
0000
0000
0000
0000
,
1000
0000
0001
0000
,
1000
0000
0100
0100
,
0100
0000
0001
0000
,
1000
0000
0001
0001
,
0001
0000
0100
0000
,
0010
0000
1000
1000
,
1000
0000
0010
0000
,
0100
0000
0001
0001
,
0001
0000
1000
0000
,
0001
0000
1000
1000
,
1000
0000
0010
0000
,
2002
0000
3003
0000
,
0010
0000
0001
0000
,
0100
0100
0100
0000
,
0010
0000
1000
0000
,
0100
0100
0100
0000
,
0010
0000
1001
0000
,
0100
0000
1001
0000
,
0010
0000
1001
0000
,
0100
0100
0100
0000
,
0001
0000
1000
0000
,
0200
0000
0300
0000
,
1000
0000
0001
0000
,
0200
0000
0300
0000
,
0010
0010
0010
0000
,
0100
0100
0100
0000
,
0001
1000
0001
1000
,
0001
0000
0000
0000
,
0020
0000
0030
0000
,
0001
0000
1000
0000
,
0200
0000
0300
0000
,
1000
0000
0001
0000
,
0020
0000
0030
0000
,
0200
0000
0300
0000
,
0001
0001
0001
0000
,
1001
0000
0000
0000
,
0001
0000
0110
0000
,
1000
0000
0001
0000
,
1000
0000
0110
0000
,
0001
0000
0100
0000
,
0010
0100
0010
0000
,
0100
0010
0100
0000
,
0010
0010
0010
0000
,
1001
0000
0000
0000
,
0002
0000
0000
0000
,
0003
0000
0000
0000
,
0100
0000
0001
0000
,
1000
0000
0001
0000
,
0010
0000
0001
0000
,
1000
0000
0100
0000
,
0010
0000
0001
0000
,
0200
0000
0300
0000
,
0001
0000
1000
0000
,
0001
1000
0001
0000
,
1000
0000
0001
0000
,
1000
0001
1000
0000
,
0010
0010
0010
0000
,
0100
0100
0100
0000
,
0010
0010
0010
0010
,
0010
0000
0000
0000
,
1000
1000
1000
0000
,
1001
0000
0000
0000
,
0001
0001
0001
0000
,
1001
0000
0000
0000
,
0010
0010
0010
0000
,
0100
0100
0100
0000
,
0010
0010
0010
0010
,
0010
0010
0010
0000
,
1000
0000
0001
0000
,
0200
0000
0300
0000
,
0001
0000
1000
0000
,
0200
0000
0300
0000
,
0000
0010
0000
0001
,
0000
0100
0000
1000
,
0000
0010
0000
0100
,
0010
0000
0000
0000
,
0001
0000
0100
0000
,
1000
0000
0000
0000
,
1000
0000
0010
0000
,
0001
0000
0001
0000
,
0010
0000
1000
0000
,
0100
0000
0000
0000
,
0001
0000
0100
0000
,
1000
0000
0010
0000
,
0100
0100
0100
0000
,
0001
0000
1000
0000
,
0001
0100
0001
0000
,
1000
0000
0010
0000
,
0100
0010
0100
0010
,
0100
0010
0100
0010
,
0000
0000
1000
1000
,
0000
0001
0001
0001
,
0001
0000
1000
0000
,
0010
0100
0010
0000
,
1000
0000
0001
0000
,
0100
0010
0100
0000
,
0001
1000
0001
0000
,
1000
0100
1000
0000
,
0001
0010
0001
0010
,
0001
0000
0100
0000
,
0010
0000
1001
0000
,
1000
0000
0001
0000
,
0100
0000
1001
0000
,
0001
0000
1000
0000
,
0010
0000
1000
0000
,
0001
0000
0100
0000
,
0010
0000
1000
0001
,
1000
0000
0000
2002
,
0000
0000
0000
0000
,
3003
0000
0000
0000
;

//---------------dance-double - ----------------
#NOTES:
     dance-double:
     :
     Easy:
     9:
     0.487845,0.783472,0.391736,0.178836,0.000000,401.000000,355.000000,46.000000,21.000000,0.000000,0.000000,0.487845,0.783472,0.391736,0.178836,0.000000,401.000000,355.000000,46.000000,21.000000,0.000000,0.000000:
00000000
00000000
00000000
00000000
,
00000000
00000000
00000000
00000000
,
00000000
00000000
00000000
00000000
,
00000000
00000000
00000000
00000000
,
00000000
00000000
00000000
00000000
,
00000000
00000000
00000000
00000000
,
10000000
00100000
00010000
00100000
,
10000000
00100000
00010000
00000000
,
00100000
00001000
00010000
00001000
,
00100000
00001000
00010000
00000000
,
00000100
00001000
00000100
00001000
,
00000001
00001000
00000100
00000000
,
00010000
00000100
00010000
00000100
,
00010000
00001000
00100000
00000000
,
00010000
10000000
01000000
00000000
,
10000000
00010000
01000000
00000000
,
00100000
10000000
01000000
00100000
,
00020000
00000000
10030000
00000000
,
00100000
10000000
00010000
00010000
,
00100000
00001000
00010000
00010000
,
00000010
00001000
00000001
00000001
,
00001000
00000100
00000010
00000001
,
00000100
00000001
00001000
00001000
,
00000100
00010000
00001000
01000000
,
00010000
10000000
00100000
00100000
,
20020000
00000000
30030000
00000000
,
10000000
00100000
01000000
00010000
,
01000000
01000000
00001000
00001000
,
00010000
00000100
00001000
00000001
,
00000100
00000100
00000010
00000010
,
00002002
00003003
00001000
00000100
,
00020000
00030000
00001000
01000000
,
00010000
00010000
10000000
10000000
,
20020000
00000000
30030000
00000000
,
00100000
00010000
01000000
10000000
,
00100000
00100000
10000000
00010000
,
00100000
00100000
00001000
00010000
,
00000100
00000100
00001000
00000001
,
00000010
00000010
00001000
00000100
,
00000001
00000100
00001000
00000000
,
00001001
00001001
00001001
00000000
,
00002000
00003000
00000200
00000300
,
00010000
00001000
00010000
00001000
,
00100000
00010000
01000000
10000000
,
00100000
10000000
00010000
10000000
,
00010000
00100000
00001000
00010000
,
00000010
00000010
00001000
00000000
,
00000001
00000001
00000100
00000000
,
00000010
00010000
00001000
00000000
,
00022000
00000000
00033000
00000000
,
00002000
00000000
00003000
00000000
,
00100000
00010000
01000000
10000000
,
00100000
00100000
01000000
00010000
,
10000000
00100000
01000000
00001000
,
00010000
00000100
00001000
00000001
,
00001000
00000100
00001000
00000010
,
00001000
00001000
00000100
00000100
,
00010000
00001000
01000000
00100000
,
10000000
10000000
00010000
10010000
,
00100000
10000000
00010000
01000000
,
00001000
00001000
00010000
00011000
,
00010000
00000100
00001000
00000001
,
00001000
00001100
00001100
00000000
,
00000001
00000101
00000101
00000000
,
00001000
00000100
00010000
00001000
,
00022000
00000000
00033000
00000000
,
00011000
00011000
00011000
00000000
,
00100000
00010000
01000000
00000000
,
10010000
10010000
10010000
00000000
,
01000000
00001000
00010000
00000000
,
00011000
00011000
00011000
00000000
,
00001001
00001001
00001001
00000000
,
00011000
00011000
00011000
00011000
,
00011000
00011000
00011000
00000000
,
00010000
00001000
00100000
00010000
,
10000000
00010000
10010000
00000000
,
00100000
10000000
00010000
00100000
,
00001000
00010000
00011000
00000000
,
00010000
00010100
00000000
00001010
,
00000000
00000101
00000000
00001000
,
00000100
00000010
00000001
00001000
,
00001001
00000000
00000000
00000000
,
00000100
00010000
00001000
00000000
,
01000000
00000000
00010000
00000000
,
10000000
01000000
00010000
00000000
,
00001000
00000100
00000001
00000000
,
00000010
00001000
00000100
00000000
,
00010000
00000000
01000000
00000000
,
00010000
01000000
10000000
00000000
,
00010000
00100000
00001000
00010000
,
00000010
00001000
00000100
00000000
,
00000001
00000000
00001000
00000000
,
00000100
00010000
00001000
00000000
,
01000000
00000000
00100000
00000000
,
10000000
01000000
00100000
00010000
,
01000000
00100000
00001000
00010000
,
00001000
00000000
01000000
01000000
,
00000000
00010000
00010000
00010000
,
10000000
01000000
00100000
00001000
,
00010000
00000100
00001000
00000010
,
00000100
00000001
00000010
00001000
,
00000100
00000100
00010000
00010000
,
00001000
01000000
00100000
10000000
,
00010000
01000000
00001000
00010000
,
00000010
00001000
00000001
00000100
,
00002002
00003003
00000220
00000330
,
00000001
00000100
00001000
00000000
,
00011000
00000000
10010000
00000000
,
10000000
01000000
00010000
00000000
,
00011000
00000000
00001001
00000000
,
00000010
00001000
00000100
00000000
,
00100000
00010000
01000000
00000000
,
00100000
00001000
00010000
00000010
,
00010000
00000000
00000000
00001000
00000000
00000000
00022000
00000000
,
00000000
00000000
00000000
00000000
,
00033000
00000000
00000000
00000000
;

//---------------dance-double - ----------------
#NOTES:
     dance-double:
     :
     Medium:
     13:
     0.699529,0.832439,0.442832,0.127740,0.000000,575.000000,523.000000,52.000000,15.000000,0.000000,0.000000,0.699529,0.832439,0.442832,0.127740,0.000000,575.000000,523.000000,52.000000,15.000000,0.000000,0.000000:
00000000
00000000
00000000
00000000
,
00000000
00000000
00000000
00000000
,
10000000
00000000
00010000
10000000
00000000
00010000
10000000
00000000
,
00010000
10000000
00000000
00100000
01000000
00000000
00001000
00000000
,
00010000
00000000
00000100
00010000
00000000
00000100
00010000
00000000
,
00000100
00010000
00000000
00000100
00010000
00000000
00000010
00000000
,
00001000
00000000
00000010
00001000
00000000
00000010
00001000
00000000
,
00000010
00001000
00000000
00000001
00000100
00000000
00000010
00000000
,
00001000
00000000
00000100
00001000
00000000
00000100
00001000
00000000
,
00000100
00001000
00000000
00000100
00010000
00000000
00001000
00000000
,
00100000
00000000
00010000
01000000
00000000
00010000
10000000
00000000
,
00010000
00100000
00000000
00010000
01000000
00000000
00001000
00000000
,
00010000
00000000
00000100
00001000
00000000
00000010
00001000
00000000
,
00000001
00001000
00000000
00000010
00001000
00000000
00000100
00000000
,
00010000
00000000
00001000
00100000
00000000
00001000
00010000
00000000
,
00001000
00100000
00000000
00010000
00100000
00000000
00010000
00000000
,
01000000
00100000
10000000
01000000
,
20020000
00000000
00000000
30030000
,
00100000
00010000
01000000
00001000
,
00010000
00000000
00001000
00000000
00010000
00001000
00010000
00000000
,
00000100
00001000
00000010
00000100
,
00000001
00000000
00001000
00000000
00000100
00001000
00000100
00000000
,
00010000
00001000
00100000
00010000
,
01000000
00000000
00100000
00000000
10000000
00010000
10000000
00000000
,
00100000
01000000
00001000
00010000
,
00000100
00000000
00001000
00000000
00000001
00000100
00000001
00000000
,
00001000
00000000
00001001
00000000
00000000
00000010
00000000
00001010
,
00000000
00001010
00000000
00000010
00001000
00000000
00000100
00000000
,
00010000
00000000
00010100
00000000
00000000
00010000
00000000
00011000
,
00000000
00011000
00000000
00001000
01000000
00000000
00100000
00000000
,
10000000
00010000
00000000
01100000
00000000
01100000
00000000
00000000
,
00010000
00100000
00000000
00101000
00000000
00101000
00000000
00000000
,
00001000
00010000
00000100
00000000
00001000
00000000
00000010
00000100
,
00000002
00000000
00000003
00000000
,
00000010
00000000
00000001
00001000
00000000
00000010
00001000
00000000
,
00000100
00001000
00000000
00000100
00010000
00000000
00001000
00000000
,
00100000
00000000
00010000
01000000
00000000
00010000
10000000
00000000
,
00010000
00100000
00000000
00001000
00010000
00000000
00000100
00000000
,
00001000
00000000
00000010
00001000
00000000
00000001
00001000
00000000
,
00000100
00001000
00000000
00000100
00010000
00000000
00001000
00000000
,
00100000
00000000
00010000
00000000
01000000
00000000
00100000
10000000
,
01000000
00000000
10010000
01100000
,
00100000
10000000
00010000
00100000
,
00001000
00000000
00010000
00000000
00000010
00001000
00000010
00000000
,
00010000
00001000
00100000
00010000
,
01000000
00000000
00100000
00000000
10000000
00010000
10000000
00000000
,
00100000
01000000
00100000
01000000
00100000
01000000
00100000
00000000
,
10000000
00010000
10000000
00010000
10000000
00010000
10000000
00000000
,
10000000
00100000
00001000
00000100
,
00000002
00000000
00000003
00000000
,
00000020
00000000
00000030
00000000
,
00000001
00000100
00001000
00010000
,
01000000
00000000
00100000
10000000
00100000
01000000
00100000
10000000
,
00100000
01000000
00001000
00010000
,
00000100
00000000
00001000
00000010
00001000
00000001
00001000
00000100
,
00010000
00001000
01000000
00100000
,
10000000
01000000
10000000
00100000
10000000
00010000
10000000
00100000
,
10000000
00100000
01000000
00001000
,
00010000
00001000
00010000
00000100
00010000
00001000
00010000
00000000
,
00001000
00100000
00001000
01000000
00001000
00100000
00001000
00000000
,
00010000
00000100
00010000
00000010
00010000
00000010
00010000
00000000
,
00000010
00001000
00000010
00000100
00000010
00000000
00001010
00000000
,
00000001
00000100
00000000
00001010
00000000
00001010
00000000
00000000
,
00000100
00010000
00000000
00011000
00000000
00011000
00000000
00000000
,
00101000
00000000
00011000
00000000
00101000
00000000
00100000
00010000
,
02000000
00000000
03000000
00000000
,
10100000
00000000
00110000
00000000
10100000
00000000
00100000
10000000
,
00010000
00100000
00001000
00010000
,
00000010
00000000
00001010
00000000
00000011
00000000
00000010
00000001
,
00001000
00000100
00010000
00001000
,
00011000
00101000
01001000
00000000
,
00011000
00010100
00010010
00000000
,
00011000
01001000
00011000
01001000
,
01010000
01100000
10010000
00000000
,
10000000
00100000
10000000
00100000
01000000
00010000
01000000
00010000
,
10000000
00100000
10000000
00100000
10000000
00000000
00010000
00000000
,
00100000
00001000
00100000
00001000
00010000
00000100
00010000
00000100
,
00010000
00001000
00010000
00001000
00010000
00000000
00000010
00000000
,
00001000
00001010
00000001
00000101
,
00001000
00001100
00010000
00011000
,
00100000
00110000
01010000
10010000
,
02200000
00000000
00000000
03300000
,
10000000
00000000
00010000
00000000
00100000
00001000
00000000
00002000
,
00000000
00013000
00000100
00001000
,
00000001
00000000
00000010
00000000
00000001
00000100
00000000
00000020
,
00000000
00001030
00000100
00010000
,
00001000
00000000
00100000
00000000
00010000
10000000
00000000
20000000
,
00000000
30100000
01000000
00010000
,
10000000
00100000
01000000
00001000
,
00010000
00000000
00000100
00000000
00001000
00000000
00000001
00001000
,
00000001
00000000
00001000
00000000
00000100
00010000
00000000
00020000
,
00000000
00031000
00100000
00010000
,
01000000
00000000
00100000
00000000
10000000
00010000
00000000
02000000
,
00000000
03100000
10000000
00010000
,
00100000
00001000
00100000
00001000
00010000
00001000
00010000
00001000
,
00010000
00000010
00001000
00000010
00000100
00000010
00001000
00000010
,
00001000
00000000
00000001
00000001
,
00000000
00000100
00000100
00000100
,
00000010
00000000
00001010
00000000
00001000
00000100
00010000
00000100
,
00001000
00000100
00010000
00001000
,
00100000
00000000
00110000
00000000
00010000
01000000
00100000
01000000
,
00010000
01000000
10100000
01000000
,
00010000
00000000
00100000
00000000
00001000
00010000
00000100
00010000
,
00001000
00010000
00000100
00001000
,
00000010
00000000
00000100
00000000
00000001
00000010
00000100
00001000
,
00000010
00000100
00001001
00000100
,
00001000
00000000
00000100
00000000
00010000
00000100
00001000
00000100
,
00010000
00000000
00001000
00000000
00100000
00010000
01000000
00010000
,
00100000
00000000
00010000
00000000
10000000
00100000
10000000
01000000
,
10000000
00000000
00010000
00000000
00100000
00001000
00010000
00000000
,
00001000
00000000
00010000
00000000
00000100
00001000
00000010
00000100
,
00000001
00000000
00000100
00000000
00000010
00001000
00000100
00000000
,
00010000
00000000
00001000
00000000
00100000
00010000
10000000
00010000
,
00100000
00000000
00000000
00001000
00000000
00000000
00022000
00000000
,
00000000
00000000
00000000
00000000
,
00033000
00000000
00000000
00000000
;

//---------------dance-double - ----------------
#NOTES:
     dance-double:
     :
     Hard:
     15:
     0.845517,0.832439,0.553540,0.102192,0.000000,695.000000,630.000000,65.000000,12.000000,0.000000,0.000000,0.845517,0.832439,0.553540,0.102192,0.000000,695.000000,630.000000,65.000000,12.000000,0.000000,0.000000:
// measure 0
00000000
00000000
00000000
00000000
,  // measure 1
00000000
00000000
00000000
00000000
,  // measure 2
10000000
00100000
10000000
00010000
00100000
00010000
10000000
00100000
,  // measure 3
10000000
00010000
00100000
00010000
01000000
00000000
00010000
00000000
,  // measure 4
00100000
00001000
00100000
00001000
00010000
00001000
00100000
00001000
,  // measure 5
00100000
00001000
00010000
00001000
00010000
00000000
00000100
00000000
,  // measure 6
00001000
00000010
00001000
00000001
00000100
00000001
00001000
00000010
,  // measure 7
00001000
00000001
00000100
00000001
00001000
00000000
00000100
00000000
,  // measure 8
00010000
00001000
00010000
00000100
00010000
00000100
00010000
00001000
,  // measure 9
00010000
00001000
00010000
00001000
01000000
00000000
00010000
00000000
,  // measure 10
10000000
01000000
10000000
00010000
01000000
00010000
10000000
00100000
,  // measure 11
10000000
00010000
00100000
00010000
00100000
00000000
00001000
00000000
,  // measure 12
00010000
00001000
00010000
00000100
00001000
00000100
00010000
00001000
,  // measure 13
00010000
00000100
00001000
00000010
00000100
00000000
00000001
00000000
,  // measure 14
00001000
00000100
00001000
00000100
00000010
00000001
00000010
00000001
,  // measure 15
00001000
00000100
00000010
00000001
00000100
00000010
00000100
00000010
,  // measure 16
00001000
00000100
00010000
00000100
00001000
00000100
00010000
00000100
,  // measure 17
00020000
00001000
00001000
00031000
,  // measure 18
00011000
00000000
01000000
00000000
00010000
01000000
00100000
00000000
,  // measure 19
10000000
00000000
01010000
00000000
10000000
00100000
01000000
00000000
,  // measure 20
00001000
00000000
00011000
00000000
00010000
00000100
00001000
00000000
,  // measure 21
00000010
00000000
00001001
00000000
00000010
00001000
00000100
00000000
,  // measure 22
00010000
00000000
00011000
00000000
00001000
00100000
00010000
01000000
,  // measure 23
00100000
00000000
10100000
00000000
10000000
00100000
01000000
00010000
,  // measure 24
00100000
00000000
00110000
00000000
00100000
00001000
00010000
00000000
,  // measure 25
00000100
00001000
00000010
00000000
00000100
00000000
00001001
00000000
,  // measure 26
00000010
00001000
00000010
00000100
00000100
00000000
00000010
00000000
,  // measure 27
00001000
00000100
00010000
00000100
00000100
00000000
00010000
00000000
,  // measure 28
00001000
00100000
00010000
01000000
00010000
00000000
10010000
00000000
,  // measure 29
00100000
00001000
00100000
00010000
01000000
00000000
10010000
00000000
,  // measure 30
00100000
10000000
00000000
10010000
00000000
10010000
00000000
00000000
,  // measure 31
00100000
00001000
00000000
00011000
00000000
00011000
00000000
00000000
,  // measure 32
00010000
00000100
00001000
00000000
00000010
00001000
00000100
00001000
,  // measure 33
00000020
00000000
00000200
00000330
,  // measure 34
00000001
00000100
00000001
00001000
00000100
00001000
00000001
00000010
,  // measure 35
00000001
00001000
00000010
00001000
00000001
00000001
00000001
00000000
,  // measure 36
00001000
00000100
00010000
00000100
00010000
00001000
00010000
00001000
,  // measure 37
00100000
00001000
00100000
00010000
01000000
01000000
01000000
00000000
,  // measure 38
00100000
10000000
00100000
01000000
00010000
01000000
00100000
10000000
,  // measure 39
00100000
01000000
00010000
01000000
00100000
00100000
00100000
00000000
,  // measure 40
11000000
00000000
00110000
00000000
01100000
00000000
01000000
01000000
,  // measure 41
00010000
00100000
00001000
00010000
,  // measure 42
00000100
00001000
00000100
00001000
00000010
00001000
00000100
00001000
,  // measure 43
00000100
00001000
00000010
00001000
00000001
00000001
00000001
00000000
,  // measure 44
00001000
00000100
00001000
00000100
00010000
00000100
00001000
00000100
,  // measure 45
00001000
00000100
00010000
00000100
00010000
00001000
00010000
00000000
,  // measure 46
00001000
01000000
00010000
10000000
00100000
01000000
00010000
00000000
,  // measure 47
00100000
00001000
00010000
00001000
00100000
00001000
00010000
00000000
,  // measure 48
00000100
00001000
00000010
00000100
00000001
00001000
00000100
00000010
,  // measure 49
00000002
00000000
00000000
00001003
,  // measure 50
00000020
00000100
00000000
00000130
,  // measure 51
00000001
00000100
00001000
00010000
,  // measure 52
01000000
00000000
00010000
01000000
00100000
00000000
10000000
01000000
,  // measure 53
00010000
00100000
00110000
11000000
,  // measure 54
00100000
00000000
00001000
00010000
00000100
00000000
00000100
00001000
,  // measure 55
00000010
00001001
00001100
00000101
,  // measure 56
00000010
00001000
00000010
00000000
00000100
00000001
00000100
00000000
,  // measure 57
00000010
00001000
00000100
00010000
,  // measure 58
00001000
00100000
00001000
00100000
00001000
00010000
00001000
00000000
,  // measure 59
00010000
00000100
00001000
00000000
00000010
00000000
00001001
00000000
,  // measure 60
00001000
00000100
00001000
00000010
00001000
00000001
00001000
00000000
,  // measure 61
00000100
00010000
00001000
00000000
00100000
00000000
00010000
00000000
,  // measure 62
01000000
00100000
00000000
10100000
00000000
01010000
00000000
00100000
,  // measure 63
00001000
00010000
00000000
00011000
00000000
00001100
00000000
00001000
,  // measure 64
00000010
00000100
00000001
00000000
00000100
00000010
00001000
00000100
,  // measure 65
00000020
00000000
00000000
00000030
,  // measure 66
00000101
00000000
00001100
00000000
00000101
00000000
00000100
00000100
,  // measure 67
00000001
00000000
00001000
00000100
00010000
00001000
00100000
00000000
,  // measure 68
00110000
00000000
10100000
00000000
00110000
00000000
01000000
01000000
,  // measure 69
00010000
00000000
00100000
00001000
00010000
00000100
00001000
00000000
,  // measure 70
00001001
00001001
00001001
00000000
,  // measure 71
00011000
00011000
00011000
00000000
,  // measure 72
10010000
10010000
10010000
10010000
,  // measure 73
10010000
10010000
10010000
00000000
,  // measure 74
00100000
10000000
01000000
10000000
00100000
01000000
00010000
00100000
,  // measure 75
00010000
01000000
00100000
10000000
01000000
00100000
00010000
00000000
,  // measure 76
00100000
00001000
00010000
00001000
00100000
00001000
00010000
00000100
,  // measure 77
00001000
00000010
00001000
00000100
00001000
00000010
00000100
00000000
,  // measure 78
00000001
00000100
00000110
00000000
00001000
00000100
00001100
00000000
,  // measure 79
00000100
00010000
00011000
00000000
00010000
00001000
00101000
00000000
,  // measure 80
00100000
00010000
01000000
00100000
10000000
01000000
00100000
00010000
,  // measure 81
00020000
00000000
00030000
01000000
,  // measure 82
00001000
00000000
00001000
00000000
00010000
00001000
00000000
00020000
,  // measure 83
00000000
00030000
00000100
00001000
,  // measure 84
00000010
00000000
00000100
00000000
00000001
00001000
00000000
00002000
,  // measure 85
00000000
00000000
00003010
00000000
00000100
00000000
00000001
00001000
,  // measure 86
00000100
00000000
00000100
00000000
00010000
00001000
00000000
00200000
,  // measure 87
00000000
00300000
00010000
01000000
,  // measure 88
00100000
00000000
10000000
00000000
00100000
01000000
00010000
01000000
,  // measure 89
00100000
00000000
10000000
00000000
00010000
00000000
00100000
00001000
,  // measure 90
00010000
00000000
00011000
00000000
00010000
00000100
00001000
00000010
,  // measure 91
00000100
00000000
00001001
00000000
00001000
00000100
00010000
00001000
,  // measure 92
00100000
00000000
00110000
00000000
00010000
01000000
00100000
10000000
,  // measure 93
01000000
00110000
00101000
00110000
,  // measure 94
00001000
00100000
00001000
00010000
00001000
00010000
00000100
00001000
,  // measure 95
00000100
00001000
00000010
00000100
00000001
00001000
00000010
00000100
,  // measure 96
00000001
00000000
00000000
00000000
00001000
00000100
00000001
00000000
,  // measure 97
00000000
00000000
00001000
00000100
00010000
00000100
00001000
00000000
,  // measure 98
00000100
00000000
00010000
00000000
00001000
00100000
00010000
00000000
,  // measure 99
01000000
10010000
00100000
00110000
,  // measure 100
00100000
00000000
00011000
00000000
00010000
00000100
00001000
00000000
,  // measure 101
00001000
00000101
00001000
00001100
,  // measure 102
00001000
00000010
00001000
00000000
00000100
00010000
00001000
00010000
,  // measure 103
00000100
00000000
00010000
00001000
00100000
00010000
01000000
00000000
,  // measure 104
00100000
00000000
10100000
00000000
00100000
01000000
00100000
10000000
,  // measure 105
00100000
01100000
10010000
00100000
,  // measure 106
00001000
00010000
00010000
00000000
00010000
00010000
00010000
00000000
,  // measure 107
00000100
00001000
00001000
00000000
00001000
00001000
00001000
00000000
,  // measure 108
00000001
00000100
00000100
00000000
00001000
00000000
00000100
00000000
,  // measure 109
00010000
00001000
00001000
00000000
00100000
00000000
00010000
00000000
,  // measure 110
10000000
01000000
00010000
00001000
,  // measure 111
00000100
00000001
00001000
00000100
,  // measure 112
00010000
00000000
00001000
00000000
00100000
00010000
01000000
00010000
,  // measure 113
00100000
00000000
00000000
00001000
00000000
00000000
00022000
00000000
,  // measure 114
00000000
00000000
00000000
00000000
,  // measure 115
00033000
00000000
00000000
00000000
;
