#TITLE:forever under construction;
#SUBTITLE:;
#ARTIST:Tomoyuki Uchida;
#TITLETRANSLIT:;
#SUBTITLETRANSLIT:;
#ARTISTTRANSLIT:;
#GENRE:;
#CREDIT:;
#MENUCOLOR:;
#METERTYPE:DDR;
#BANNER:forever under construction.png;
#BACKGROUND:forever under construction-bg.png;
#LYRICSPATH:;
#CDTITLE:;
#MUSIC:forever under construction.ogg;
#OFFSET:-0.036;
#SAMPLESTART:72.908;
#SAMPLELENGTH:20.000;
#SELECTABLE:YES;
#LISTSORT:;
#BPMS:0.000=170.000;
#STOPS:;
#BGCHANGES:;
#ATTACKS:;

//---------------dance-single - ----------------
#NOTES:
     dance-single:
     :
     Hard:
     16:
     0.861,1.000,0.120,0.214,0.950:
0000
0000
0000
0000
,
0000
0000
0000
0000
,
0000
0000
0000
0000
,
0000
0000
0000
0000
,
0000
0000
0000
0000
,
0000
0000
0000
0000
,
0100
0000
0001
1000
0001
0000
0100
0000
0100
0000
0010
1000
0000
0010
0000
0000
,
0100
0001
0100
0001
0100
0000
0001
0000
1000
0000
1000
0010
2000
0000
0000
0000
,
3001
0000
0010
0000
0100
0000
1000
0000
0001
0010
0001
0010
0100
1000
0100
1000
,
0001
0100
0001
0100
0010
1000
0010
1000
0020
0000
0000
0000
0230
0000
0000
0000
,
0301
0000
1000
0001
0000
1000
0001
0000
1000
0000
0010
1000
0000
0010
1000
0000
,
0001
0000
0100
0001
0000
0001
0100
0000
0010
0000
1000
0010
0000
0010
1000
0000
,
0001
0000
0100
0001
0000
0001
0100
0000
0001
0000
1000
0001
0000
1000
0001
0000
,
0002
0000
0000
0003
1000
0000
0100
0000
0001
0010
0100
1000
0010
0000
0100
0000
,
0001
0000
0100
0010
0000
0100
0010
0000
1000
0000
0010
0100
0000
0010
0100
0000
,
0001
0000
0100
0010
0000
0100
0010
0000
1000
0000
0010
0100
0000
0010
0100
0000
,
0001
0000
1000
0100
0000
1000
0100
0000
0001
0000
1000
0010
0000
1000
0010
0000
,
0200
0000
0301
0001
1000
1000
1001
0000
,
0100
0000
0000
0100
0001
0000
1000
0000
0010
0000
0000
0010
1000
0000
0001
0000
,
1000
0000
0000
1000
0010
0000
0100
0000
0001
0000
0000
0001
0100
0000
0010
0000
,
2000
0000
0000
0000
3000
0000
0001
0100
0001
0000
1000
0001
0000
1000
0000
0001
,
1000
0000
0010
0100
0010
0000
0100
0010
1000
0000
0001
0100
0000
0100
0001
0000
,
1000
0000
0000
1000
0001
0000
0100
0000
0001
0000
0000
0001
1000
0000
0100
0000
,
1000
0000
0000
1000
0001
0000
0010
0000
0001
0000
0000
0001
1000
0000
0010
0000
,
0200
0000
0000
0000
0300
0000
1000
0001
1000
0000
0010
0100
0000
0010
0000
1000
,
0100
1000
0100
1000
0001
0100
0001
0100
0010
0000
0100
0010
0100
0000
0001
1000
,
0001
0000
1000
0100
0000
1000
0010
0000
1000
0000
0001
0100
0000
0001
0010
0000
,
0001
0000
1000
0100
0000
1000
0010
0000
0100
0000
0001
0100
0000
0010
0100
0000
,
0001
0000
0000
0001
0100
0000
0010
0100
0010
0000
1000
0010
0000
0100
0000
0010
,
1000
0000
0010
0100
0010
0000
0100
0001
0100
0000
0001
0010
0000
0001
0100
0001
,
0100
0000
0010
0100
0000
0001
0100
0000
0001
0000
1000
0001
0000
1000
0010
0000
,
0100
0000
1000
0100
0000
1000
0010
0000
0100
0000
0001
0010
0000
0001
0100
0000
,
0001
0000
0100
0001
0000
0100
0010
0100
0010
0000
1000
0100
0000
1000
0010
0000
,
0100
0000
0001
0000
0010
0000
1000
0100
1000
0100
1000
0010
1000
0000
0001
0000
,
2000
0000
0000
0010
0000
0000
0010
0000
0000
0010
0000
0000
3010
0000
0100
0000
,
0002
0000
0000
0010
0000
0000
0010
0000
0000
0000
0013
0000
0001
0000
0100
0000
,
0020
0000
1000
1000
0000
0130
0001
0100
,
0020
0000
0000
1000
0000
0000
1000
0000
0000
1000
0000
0000
1030
0000
0010
0000
,
0100
0000
0000
0100
0000
0000
0001
0000
0000
1000
0000
0000
0100
0010
0100
0000
,
0010
0000
0000
0010
0000
0000
1000
0000
0000
0001
0000
0000
0100
0010
0100
0000
,
0001
0000
0000
0001
0000
0000
1000
0000
0000
1000
0000
0000
0001
0100
0001
0000
,
1000
0000
0000
1000
0000
0000
0010
0000
0000
0100
0000
0000
0001
1000
0100
0000
,
1000
0000
0000
1000
0010
0000
1000
0000
0000
0100
0000
0000
1001
0000
0000
0000
,
0001
0000
0000
0001
0100
0000
0001
0000
0000
0010
0000
0000
1001
0000
0000
0000
,
0100
0000
0000
0100
0010
0000
0100
0000
0000
0010
0000
0000
1001
0000
0000
0000
,
0010
0000
0000
0010
0100
0000
0010
0000
0000
1000
0000
0000
0101
0000
0000
0000
,
1000
0000
0010
1000
0010
0000
0100
0000
0001
0100
0001
0000
1000
0000
0010
0000
,
0100
0000
0001
0100
0001
0000
1000
0000
0010
0100
0010
0000
1000
0000
0001
0000
,
0100
0001
0100
0001
1000
0010
1000
0010
0100
0001
0100
0001
1000
0010
1000
0010
,
1000
0100
1000
0010
0100
0010
0100
0001
1000
0010
1000
0001
0100
0010
0100
0001
,
1000
0001
0000
0100
0010
0000
1000
0001
0000
0100
0010
0000
1000
0100
0010
0001
,
0100
0010
0000
1000
0001
0000
0110
0000
0000
0000
1000
0000
1001
0000
0001
0000
,
1000
0010
1000
0001
1000
0010
1000
0000
0001
0100
0001
1000
0001
0000
0200
0000
,
0301
0020
1030
0200
0301
2000
3100
0020
,
0031
0000
0100
0001
0100
0010
0100
0000
0001
1000
0001
0100
0010
0000
2000
0000
,
3001
0000
0200
0000
0310
0000
1000
0000
0001
0100
0001
0010
0001
0000
2000
0000
,
3001
0000
0100
0001
0000
0100
0001
0000
1000
0000
0010
0000
0100
0000
0001
0000
,
1000
0000
0010
1000
0010
0000
1000
0000
0001
0000
0100
0000
0010
0000
0200
0000
,
0000
0000
0301
0000
1000
0001
1000
0000
0001
0100
0001
0000
1000
0001
1000
0000
,
0010
1000
0010
0000
0100
0010
0100
0000
0001
0100
0001
0000
1000
0000
0001
0000
,
1000
0100
1000
0100
1000
0000
0010
0000
0100
0001
0100
0001
0100
0000
0010
0000
,
1000
0001
1000
0000
0010
0000
0100
0000
0001
1000
0001
0000
0100
0000
0010
0000
,
1000
0010
1000
0000
0010
0000
0100
0000
0001
0010
0001
0000
0100
0000
0010
0000
,
1000
0100
1000
0010
1000
0000
0010
0000
0100
0001
0100
0001
0010
0000
0001
0000
,
0100
0010
1000
0001
0100
0000
0001
0000
0100
0001
0010
0001
1000
0000
0110
0000
,
0000
0000
1001
0000
0000
0000
1001
0000
0000
0000
0001
0100
0010
0000
1000
0000
,
0001
0000
1000
0100
0000
0010
0001
0000
1001
0000
0001
0010
0000
0100
1000
0000
,
0000
0110
0110
1000
0001
0010
0100
2000
,
0002
0000
3000
0000
0100
0000
0103
0000
0000
0000
1000
0001
0000
0001
0000
0000
,
1000
0010
1000
0010
1000
0000
0001
0000
0100
0000
0010
0000
1000
0001
1000
0001
,
1000
0000
0010
0100
0000
0200
0000
0000
0301
0000
0010
0000
0001
0100
0001
0100
,
0001
0000
1000
0001
1000
0000
0010
0100
0010
0000
0010
0000
1000
0100
1000
0000
,
0001
0000
0001
0000
0100
0000
0100
0000
0010
0000
0010
0000
1000
0001
1000
0001
,
1000
0000
0010
0100
0010
0000
0100
0010
1000
0100
1000
0000
0001
0100
0001
0100
,
0001
0000
1000
0001
0000
0100
0010
0100
0010
0000
0001
1000
0000
0010
0100
0010
,
0100
0000
0000
0001
0000
0000
1000
0000
0000
0010
0000
0000
1000
0000
0001
0000
1000
0000
0001
0000
0000
0000
0000
0000
,
2002
0000
0000
0000
,
0000
0000
0000
0000
,
3003
0000
0000
0000
;

//---------------dance-single - ----------------
#NOTES:
     dance-single:
     :
     Medium:
     11:
     0.432,0.467,0.051,0.291,0.154:
0000
0000
0000
0000
,
0000
0000
0000
0000
,
0000
0000
0000
0000
,
0000
0000
0000
0000
,
0000
0000
0000
0000
,
0000
0000
0000
0000
,
0010
0000
0010
0000
1000
1000
1000
0000
,
0010
0000
0010
0000
0001
0001
0001
0000
,
1000
0100
0001
0000
0001
0100
1000
0000
,
0020
0000
0000
0030
2000
0000
3002
0000
,
0103
0000
0000
0100
0000
0000
0000
0000
1000
0000
0000
0001
0000
0000
1000
0000
,
0010
0000
0000
0010
0000
0000
0000
0000
1000
0000
0000
0001
0000
0000
1000
0000
,
0100
0000
0000
0100
0000
0000
0000
0000
0001
0000
0000
1000
0000
0000
0001
0000
,
0010
0000
0100
0000
0001
0001
1000
0000
,
0010
0000
0000
0010
0000
0000
0000
0000
1000
0000
0000
0100
0000
0000
1000
0000
,
0010
0000
0000
0010
0000
0000
0000
0000
0100
0000
0000
0001
0000
0000
0100
0000
,
0100
0000
0000
0100
0000
0000
0000
0000
0010
0000
0000
1000
0000
0000
0100
0000
,
0001
0000
1000
1000
0010
0000
0100
0000
,
0001
0000
0000
0001
0000
0000
0000
0000
1000
0000
0000
1000
0000
0000
0000
0000
,
0010
0000
0000
0010
0000
0000
0000
0000
0100
0000
0000
0100
0000
0000
0001
0000
,
1000
0000
0010
0000
,
1000
0000
0100
0000
0010
0000
0001
0100
,
0001
0000
0000
0001
0000
0000
0000
0000
1000
0000
0000
1000
0000
0000
0000
0000
,
0010
0000
0000
0010
0000
0000
0000
0000
0100
0000
0000
0100
0000
0000
0001
0000
,
1000
0000
0000
0010
0010
0000
0000
0000
,
1000
0000
0001
0000
0100
0010
0100
0000
,
0010
0000
0000
0010
0000
0000
0000
0000
1000
0000
0000
1000
0000
0000
0000
0000
,
0001
0000
0000
0001
0000
0000
0100
0000
0010
0000
0000
0010
0000
0000
1000
0000
,
0010
0000
0000
0100
0001
0000
0000
0000
,
1000
0000
0100
0000
0010
0001
0100
0000
,
0010
0000
0000
0010
0000
0000
0000
0000
1000
0000
0000
1000
0000
0000
0000
0000
,
0001
0000
0000
0001
0000
0000
1000
0000
0010
0000
0000
0010
0000
0000
1000
0000
,
0100
0000
0000
1000
0001
0000
0000
0000
,
0100
0010
1000
0001
,
1002
0000
0000
0000
0000
0000
0103
0020
,
0000
0000
0000
0000
0000
1030
0001
2000
,
0000
0000
3010
0010
0000
0100
0000
0002
,
0000
0000
1003
1000
0000
0010
0100
0001
,
2000
0000
0000
0000
,
3020
0000
0000
0000
0000
1030
0100
2000
,
0000
0000
3020
0000
,
0230
0000
0302
0000
,
2003
0000
0000
0000
,
0000
0000
3000
0000
0001
0100
0001
0200
,
0000
0000
0010
0010
0000
0000
0301
2000
,
0000
0000
3010
0100
0000
0001
0000
1000
,
0020
0100
0100
0130
,
2000
0001
0001
3001
,
0010
0100
0010
0000
1000
0001
1000
0000
,
0010
0100
0010
0100
0010
0100
0010
0000
,
1000
0000
0000
1000
0000
0000
0001
0000
0000
0001
0000
0000
0100
0000
0010
0000
,
0100
0000
0000
0100
0000
0000
1001
0000
0000
0000
1000
0000
0010
0000
0100
0000
,
0001
0000
0000
0001
0000
0000
0000
0000
1000
0000
0000
1000
0000
0000
1000
0000
,
0000
0010
0000
0100
0000
0010
1000
0010
,
0000
1000
0000
0001
0000
1000
0100
0001
,
0000
0010
0000
0101
0000
0001
0100
1000
,
0000
0000
0000
0010
0000
0000
0200
0000
0000
0000
0301
0000
1000
0000
0001
0000
,
0000
1000
0001
1000
0000
0010
0100
0020
,
0000
0000
1030
0100
1000
0000
0001
0010
,
0001
0000
0100
0000
0010
1000
0000
1002
,
0000
0000
0103
0100
0000
0001
1000
0200
,
0000
0000
1300
0000
0001
0100
0001
0200
,
0000
0000
0310
0010
0000
1000
0001
0200
,
0000
0000
0310
0000
0001
1000
0001
0100
,
0001
0000
0000
0001
0000
0000
0000
0000
1000
0000
0000
0001
0000
0000
2002
0000
,
0000
3003
0000
0001
0000
1000
0010
0200
,
0001
0000
0001
0000
0001
0000
0301
1000
,
0000
0001
0001
0000
1000
0010
0100
0002
,
0000
0000
1003
2000
0000
0000
3000
0000
,
0001
0000
0100
0000
0001
0100
0001
0000
,
1000
0000
0100
0000
1000
0100
1000
0000
,
0010
0100
0002
2003
,
3010
0000
0100
0000
0001
0100
0001
0000
,
0100
0000
0010
0000
1000
0100
1000
0000
,
0001
0100
0001
0000
1000
0001
1000
0000
,
0020
0030
1000
0001
,
2002
0000
0000
0000
,
0000
0000
0000
0000
,
3003
0000
0000
0000
;

//---------------dance-single - ----------------
#NOTES:
     dance-single:
     :
     Easy:
     6:
     0.337,0.401,0.103,0.411,0.004:
0000
0000
0000
0000
,
0000
0000
0000
0000
,
0000
0000
0000
0000
,
0000
0000
0000
0000
,
0000
0000
0000
0000
,
0000
0000
0000
0000
,
0010
0010
1000
0001
,
0010
0010
0001
1000
,
0100
0100
0001
1000
,
0000
0000
0000
0000
,
0010
0010
0001
0001
,
0100
0100
1000
1000
,
0010
0010
1000
1000
,
0100
0100
0001
1000
,
0010
0010
0100
0100
,
0001
0001
1000
1000
,
0010
0100
0001
1000
,
0020
0030
0100
0100
,
0002
0003
2000
3000
,
0020
0030
0100
0100
,
0110
0000
1001
0000
,
0001
0100
0010
1000
,
0020
0030
2000
3000
,
0200
0300
0001
0010
,
0100
0000
1001
0000
,
1000
1000
0001
0001
,
0200
0310
0200
0310
,
0200
0310
0001
0100
,
2000
3000
0002
0003
,
1000
0100
0001
0100
,
0020
0130
0020
0130
,
0020
0130
0001
0100
,
2000
3000
0002
0003
,
0100
0010
1000
0001
,
0200
0000
0300
0000
,
0002
0000
0003
0000
,
0020
0000
0030
0000
,
2000
0000
3000
0000
,
0020
0000
0030
0000
,
0002
0000
0003
0000
,
0200
0000
0300
0000
,
2000
0000
3000
0000
,
0010
0010
0010
1001
,
0100
0100
0100
1001
,
0001
0001
0001
0110
,
1000
1000
1000
0101
,
0010
0010
1000
0100
,
0010
0010
0001
0100
,
0010
1000
0100
0001
,
0010
0001
0100
1000
,
0010
0000
0000
0100
0000
0000
0010
0000
,
1000
0000
0000
1000
0000
0000
1001
0000
0000
0000
0000
0000
0110
0000
0000
0000
,
1000
1000
0001
0001
,
0200
0300
0020
0030
,
0001
0001
1000
1000
,
0020
0030
0200
0300
,
0002
0003
1000
0100
,
2000
3000
0001
0100
,
0002
0003
0010
0010
,
1000
1000
0100
0001
,
0020
0030
0200
0300
,
0001
0010
0100
1000
,
0200
0300
0020
0030
,
1000
0100
0010
0001
,
0100
0000
0010
0000
,
1001
0000
0010
0100
,
2002
0000
3003
0000
,
0010
0000
0100
0010
,
2000
3000
0002
0003
,
0100
0100
0002
1003
,
0100
0100
2000
3001
,
0010
0100
0002
1003
,
1000
1000
0002
0013
,
0001
0001
2000
3100
,
0010
0010
1000
0100
,
0020
0030
0001
0100
,
2002
0000
0000
0000
,
0000
0000
0000
0000
,
3003
0000
0000
0000
;

//---------------dance-single - Copied from----------------
#NOTES:
     dance-single:
     Copied from:
     Beginner:
     4:
     0.185,0.300,0.051,0.163,0.000:
0000
0000
0000
0000
,
0000
0000
0000
0000
,
0000
0000
0000
0000
,
0000
0000
0000
0000
,
0000
0000
0000
0000
,
0000
0000
0000
0000
,
0010
0000
0010
0000
,
0010
0000
0010
0000
,
0100
0000
0100
0000
,
0000
0000
0000
0000
,
0010
0000
0010
0000
,
0001
0000
0001
0000
,
0100
0000
0100
0000
,
1000
0000
1000
0000
,
0010
0000
0010
0000
,
1000
0000
1000
0000
,
0100
0000
0100
0000
,
0020
0000
0030
0000
,
0001
0000
0001
0000
,
0001
0000
0001
0000
,
0100
0000
0000
0000
,
0000
0000
0000
0000
,
1000
0000
1000
0000
,
1000
0000
1000
0000
,
0100
0000
0000
0000
,
1000
0000
0001
0000
,
0100
0000
0100
0000
,
1000
0000
0001
0000
,
1000
0000
0000
0000
,
0010
0000
0010
0000
,
0100
0000
0100
0000
,
1000
0000
0001
0000
,
1000
0000
0000
0000
,
0010
0000
0010
0000
,
2000
0000
3000
0000
,
0002
0000
0003
0000
,
2000
0000
3000
0000
,
0002
0000
0003
0000
,
0020
0000
0030
0000
,
0020
0000
0030
0000
,
0200
0000
0300
0000
,
0200
0000
0300
0000
,
0010
0010
0010
0000
,
0100
0100
0100
0000
,
0001
0001
0001
0000
,
1000
1000
1000
0000
,
0010
0000
1000
0000
,
0100
0000
0001
0000
,
0010
0010
0010
0000
,
0100
0100
0100
0000
,
2002
0000
3003
0000
,
2002
0000
3003
0000
,
1000
0000
0001
0000
,
0200
0000
0300
0000
,
0001
0000
1000
0000
,
0200
0000
0300
0000
,
0001
0000
1000
0000
,
0001
0000
1000
0000
,
0010
0010
0010
0000
,
0100
0100
0100
0000
,
0010
0000
0100
0000
,
1001
0000
0000
0000
,
0100
0000
0010
0000
,
1001
0000
0000
0000
,
0001
0000
1000
0000
,
0010
0000
0100
0000
,
2002
0000
3003
0000
,
0010
0000
0100
0000
,
1000
1000
0000
0000
,
0100
0100
0000
0000
,
0010
0010
0000
0000
,
0001
0001
0000
0000
,
0001
0000
0010
0000
,
0100
0000
1000
0000
,
0001
0001
0001
0000
,
0010
0000
0100
0000
,
2002
0000
0000
0000
,
0000
0000
0000
0000
,
3003
0000
0000
0000
;

//---------------dance-double - ----------------
#NOTES:
     dance-double:
     :
     Hard:
     15:
     0.693,0.701,0.137,0.068,0.531:
00000000
00000000
00000000
00000000
,
00000000
00000000
00000000
00000000
,
00000000
00000000
00000000
00000000
,
00000000
00000000
00000000
00000000
,
00000000
00000000
00000000
00000000
,
00000000
00000000
00000000
00000000
,
01100000
00000000
00000000
00000000
10000000
00000000
01000000
00000000
00010000
00000000
00010000
00100000
00000000
00100000
00000000
00000000
,
00001000
00000000
00010000
00000000
00000100
00000000
00001000
00000000
00000010
00000000
00000100
00000000
00000001
00000100
00000001
00000100
,
00000001
00000010
00001000
00000100
00010000
00001000
00100000
00010000
,
01000000
00000000
00100000
00000000
10000000
01000000
00010000
00000000
,
10000000
00000000
00000000
00000000
00010000
00000000
10000000
00000000
00010000
00000000
00100000
00010000
00000000
00100000
00010000
00000000
,
00100000
00000000
00000000
00000000
00001000
00000000
00010000
00000000
00000100
00000000
00001000
00000010
00000000
00001000
00000010
00000000
,
00000100
00000000
00000000
00000000
00000001
00000000
00000010
00000000
00000100
00000000
00001000
00000100
00000000
00001000
00000100
00000000
,
00010000
00001000
00100000
00010000
01000000
00100000
10010000
00000000
,
10000000
00000000
00100000
00000000
01000000
00000000
00010000
00000000
00100000
00000000
00001000
00100000
00000000
00001000
00100000
00000000
,
00001000
00000000
00010000
00000000
00000100
00000000
00001000
00000000
00000010
00000000
00000100
00000001
00000000
00000100
00000001
00000000
,
00001000
00000000
00000010
00000000
00001000
00000000
00000100
00000000
00010000
00000000
00000100
00010000
00000000
00001000
00010000
00000000
,
00002000
00000000
00103000
00100000
00010000
00010000
01000000
00000000
,
00100000
00000000
00000000
00100000
00000000
00000000
10000000
00000000
01000000
00000000
00000000
01000000
00000000
00000000
00010000
00000000
,
00001000
00000000
00000000
00001000
00000000
00000000
00000010
00000000
00000100
00000000
00000000
00000100
00000000
00000000
00000001
00000000
,
00000020
00000000
00000000
00000000
00000000
00000000
00001030
00000000
00000100
00000000
00010000
00001000
00000000
00010000
00000000
00001000
,
00010000
00000000
00000100
00000000
00010000
00000000
00001000
00000000
00100000
00000000
00010000
01000000
00000000
00010000
01000000
00000000
,
00100000
00000000
00000000
00100000
00000000
00000000
10000000
00000000
00010000
00000000
00000000
00010000
00000000
00000000
00100000
00000000
,
00010000
00000000
00000000
00010000
00000000
00000000
01000000
00000000
00001000
00000000
00000000
00010000
00000000
00000000
00000100
00000000
,
00000200
00000000
00000000
00000000
00000000
00000000
00001300
00000000
00000010
00000000
00001000
00000010
00000000
00000010
00000000
00000000
,
00001000
00000000
00000100
00000000
00010000
00000000
00001000
00000000
01000000
00000000
00010000
01000000
00000000
01000000
00010000
00000000
,
10000000
00000000
00100000
10000000
00000000
00100000
10000000
00000000
00010000
00000000
01000000
00010000
00000000
01000000
00010000
00000000
,
01000000
00000000
00001000
01000000
00000000
00001000
01000000
00000000
00001000
00000000
00010000
00000100
00000000
00010000
00000100
00000000
,
00001000
00000000
00000000
00000000
00000001
00000000
00000010
00000000
00000100
00000000
00001000
00000100
00000000
00000100
00001000
00000000
,
00000010
00000000
00000000
00000000
00010000
00000000
00001000
00000000
00010000
00000000
00001000
00010000
00000000
00010000
00001000
00000000
,
01000000
00000000
01000000
00010000
00000000
00010000
01000000
00000000
00100000
00000000
10000000
01000000
00000000
01000000
10000000
00000000
,
00100000
00000000
01000000
00010000
00000000
00010000
01000000
00000000
00100000
00000000
00000000
00010000
00000000
00000000
00001000
00000000
,
00000010
00000000
00000000
00000000
00001000
00000000
00000100
00000000
00000001
00000000
00001000
00000001
00000000
00000001
00001000
00000000
,
00000010
00000000
00001000
00000000
00000100
00000000
00010000
00000000
00001000
00000000
01000000
00001000
00000000
00001000
01000000
00000000
,
00010000
00000000
00000000
00010000
00000000
00000000
00010000
00000000
00000000
00010000
00000000
00000000
01000000
00000000
00100000
00000000
,
10000000
00000000
00000000
10000000
00000000
00000000
10000000
00000000
00000000
00000000
10000000
00000000
01000000
00000000
00010000
00000000
,
00001000
00000000
00000000
00001000
00010000
00000000
00001000
00000000
00000000
00000000
00001000
00000000
00000100
00000000
00000010
00000000
,
00000001
00000000
00000000
00000001
00000000
00000000
00000100
00000000
00000000
00000100
00000000
00000000
00001000
00000000
00010000
00000000
,
00001000
00000000
00000000
00001000
00000000
00000000
00001000
00000000
00000000
00001000
00100000
00000000
00010000
00000000
01000000
00000000
,
00100000
00000000
00000000
00100000
00000000
00000000
00100000
00000000
00000000
00100000
10000000
00000000
01000000
00000000
10000000
00000000
,
00100000
00000000
00000000
00100000
00000000
00000000
00010000
00000000
00000000
00010000
00000000
00000000
00001000
00000000
00000100
00000000
,
00000010
00000000
00000000
00000010
00000000
00000000
00001000
00000000
00000000
00001000
00000000
00000000
00000001
00000000
00000100
00000000
,
00000010
00000000
00000000
00000010
00000000
00000000
00001100
00000000
00000000
00000110
00000000
00000000
00000011
00000000
00000000
00000000
,
00001000
00000000
00000000
00001000
00000000
00000000
00001100
00000000
00000000
00011000
00000000
00000000
00110000
00000000
00000000
00000000
,
01000000
00000000
00000000
01000000
00000000
00000000
01000000
00000000
00000000
11000000
00000000
00000000
01010000
00000000
00000000
00000000
,
00100000
00000000
00000000
00100000
00000000
00000000
00010000
00000000
00000000
10100000
00000000
00000000
00010000
00000000
00100000
00000000
,
00001000
00000000
00010000
00001000
00000000
00010000
00001000
00000000
00010000
00000100
00000000
00001000
00000100
00000000
00001000
00000000
,
00000010
00000000
00000100
00000001
00000000
00000100
00000001
00000000
00000100
00000010
00000000
00001000
00000010
00000000
00001000
00000000
,
00000100
00001000
01000000
00010000
10000000
01000000
00100000
00010000
,
00001000
00000000
00000100
00000000
00000010
00000000
00000001
00000000
00001000
00000010
00001000
00000010
00001000
00000010
00001000
00000000
,
00000100
00001000
00000000
00001000
00010000
00000000
00010000
00100000
00000000
00100000
01000000
00000000
10000000
00000000
01000000
00000000
,
00100000
00010000
00000000
00010000
00001000
00000000
00001100
00000000
00000000
00000000
00000001
00000000
00000100
00000000
00000010
00000000
,
00001000
00000100
00001000
00000100
00001000
00000000
00000010
00000000
00000100
00000001
00000100
00000001
00000100
00000000
00000010
00000000
,
00001000
00000100
00000000
00010000
00000000
00001000
00010000
00001000
,
00000000
00100000
00010000
01000000
00100000
10000000
01000000
00100000
,
00000000
00010000
00000010
00001000
00000000
00000100
00001000
00000001
,
00001000
00000010
00001000
00000000
00000100
00000000
00010000
00000000
00000000
00000000
00001000
00000000
01000000
00000000
00010000
00000000
,
01000000
00100000
01000000
00000000
00010000
00000000
10000000
00000000
00000000
00000000
00100000
00000000
01000000
00000000
00010000
00000000
,
00000000
00000000
00010000
00000000
00001000
00010000
00001000
00000000
00010000
00000100
00010000
00000000
00000100
00001000
00000100
00000000
,
00001000
00000010
00000100
00000000
00000100
00000001
00000010
00000000
00000010
00000000
00000100
00000000
00001000
00000000
00010000
00000000
,
00000000
00001000
00010000
00100000
00000000
00010000
01000000
00100000
,
10000000
01000000
10000000
00000000
00100000
00000000
01000000
00000000
00010000
00100000
00010000
00000000
00100000
00000000
00001000
00000000
,
00000000
00000000
00010000
00000100
00010000
00000000
00000010
00000000
00000000
00000000
00001000
00000100
00001000
00000000
00000010
00000000
,
00000000
00000000
00000100
00000001
00000100
00000000
00000010
00000000
00000100
00000000
00001000
00000000
00000000
00000000
00100000
00000000
,
00001000
00000000
00001000
00010000
00000000
00000000
00010000
00000000
00000100
00000000
00000100
00001000
00000000
00000000
00000010
00000000
,
00000100
00000001
00000000
00000100
00000000
00000010
00001000
00000100
,
00010000
00010000
00001000
00001000
01000000
01000000
00100000
01100000
,
00000000
10010000
10010000
10000000
00100000
01000000
00010000
00020000
,
00200000
00030000
00301000
00020000
00000000
00000000
00030100
00000000
,
00001000
00000000
00000010
00000000
00000100
00000000
00000001
00000000
00001000
00000000
00000010
00000000
00001000
00000100
00001000
00000100
,
00001000
00000000
00000100
00000000
00010000
00000000
00001000
00000000
01000000
00000000
00010000
00000000
01000000
00100000
01000000
00100000
,
01000000
00000000
00100000
00000000
10000000
00000000
01000000
00000000
00100000
00010000
00100000
00010000
00100000
00000000
00000000
00000000
,
10000000
00000000
01000000
00000000
00100000
00000000
10000000
00000000
00100000
00000000
00000000
00000000
01000000
00010000
01000000
00000000
,
00010000
00000000
00100000
00000000
00001000
00000000
00010000
00000000
00000100
00000000
00000000
00000000
00001000
00000010
00001000
00000010
,
00001000
00000001
00000100
00000010
00001000
00000100
00010000
00001000
,
00100000
00000000
00000000
00010000
00000000
00000000
01000000
00000000
00000000
00100000
00000000
00000000
10000000
00000000
01000000
00000000
00100000
00000000
00010000
00000000
00000000
00000000
00000000
00000000
,
20020000
00000000
00000000
00000000
,
00000000
00000000
00000000
00000000
,
30030000
00000000
00000000
00000000
;

//---------------dance-double - ----------------
#NOTES:
     dance-double:
     :
     Medium:
     10:
     0.482,0.534,0.128,0.274,0.021: // measure 1
00000000
00000000
00000000
00000000
,  // measure 2
00000000
00000000
00000000
00000000
,  // measure 3
00000000
00000000
00000000
00000000
,  // measure 4
00000000
00000000
00000000
00000000
,  // measure 5
00000000
00000000
00000000
00000000
,  // measure 6
00000000
00000000
00000000
00000000
,  // measure 7
01000000
00000000
00010000
00000000
00001000
00001000
00001000
00000000
,  // measure 8
00000010
00000000
00000001
00000000
00000100
00000100
00000100
00000000
,  // measure 9
00001000
00010000
00100000
01000000
,  // measure 10
20000000
00000000
30100000
01010000
,  // measure 11
10000000
00000000
00000000
10000000
01000000
00000000
00100000
00010000
,  // measure 12
00100000
00000000
00000000
00001000
00000100
00000000
00000010
00000001
,  // measure 13
00000010
00000000
00000000
00000100
00001000
00000000
00010000
00100000
,  // measure 14
00010000
00000000
01000000
00000000
00100000
00100000
10010000
00000000
,  // measure 15
10000000
00000000
01000000
00000000
00100000
00010000
00100000
00010000
,  // measure 16
00100000
00000000
00001000
00000000
00010000
00000100
00010000
00000100
,  // measure 17
00010000
00000000
00001000
00000000
00000010
00000100
00000010
00000100
,  // measure 18
00000002
00000023
00000230
00001300
,  // measure 19
00000010
00000000
00000000
00001000
00000100
00000000
00000000
00010000
,  // measure 20
00001000
00000000
00000000
00100000
00010000
00000000
01000000
00100000
,  // measure 21
10000000
00000000
00000000
01000000
00010000
00000000
10000000
00000000
,  // measure 22
00100000
01000000
00100000
00000000
10000000
00010000
10000000
00000000
,  // measure 23
00200000
00000000
00300000
00001000
00020000
00000000
00030000
00000100
,  // measure 24
00002000
00000000
00003000
00000010
00000100
00000000
00000001
00001000
,  // measure 25
00000100
00000100
00010000
00010000
,  // measure 26
00001000
00100000
00010000
00000000
01000000
00100000
10000000
00000000
,  // measure 27
00020000
01030000
20000000
31000000
,  // measure 28
00200000
00000000
00310000
00000000
00001000
00000100
00000010
00000000
,  // measure 29
00000002
00000103
00002000
00013000
,  // measure 30
00020000
00000000
01030000
00000000
10000000
01000000
00010000
00000000
,  // measure 31
20000000
30100000
00200000
00310000
,  // measure 32
00002000
00013000
00020000
00030010
,  // measure 33
00002000
00000000
00003000
00000100
00000200
00000000
00000300
00000000
,  // measure 34
00000001
00000010
00000100
00000000
00001000
00000000
00010000
00000000
,  // measure 35
00200000
00000000
00000000
00000000
00000000
00300000
00010000
02000000
,  // measure 36
00000000
00000000
00000000
03000000
00000000
00100000
10000000
02000000
,  // measure 37
00000000
00000000
03010000
00020000
00000000
00000000
00130000
00020000
,  // measure 38
00000000
00000000
00031000
00000100
00000000
00001000
00000010
00000200
,  // measure 39
00000001
00000001
00000001
00000001
,  // measure 40
00000001
00000000
00000301
00000000
00000001
00000100
00000010
00001000
,  // measure 41
00000000
00000000
00000100
00000000
00010000
00001000
00010000
00000000
,  // measure 42
00100000
00001000
00100000
00000000
01000000
00010000
00100000
00000000
,  // measure 43
20000000
00000000
01000000
00000000
31000000
00000000
01000000
00100000
,  // measure 44
00020000
00000000
00001000
00000000
00031000
00000000
00001000
00000010
,  // measure 45
00000200
00000000
00000010
00000000
00000310
00000000
00000001
00000010
,  // measure 46
00002000
00000000
00000100
00000000
00003100
00000000
00000100
00010000
,  // measure 47
00001000
00000000
00001000
00100000
00010000
00000000
00010000
01000000
,  // measure 48
00100000
00000000
00100000
10000000
01000000
00000000
10000000
01000000
,  // measure 49
00100000
00001000
00100000
00001000
00010000
00001000
00010000
00001000
,  // measure 50
00010000
00000100
00001000
00000010
00000100
00000001
00001000
00000000
,  // measure 51
00000001
00000000
00000000
00000100
00000000
00000000
00001000
00000000
00000000
00010000
00000000
00000000
00100000
00000000
00000000
00000000
,  // measure 52
01100000
00000000
00000000
01100000
00000000
00000000
10010000
00000000
00000000
00000000
10000000
00000000
00100000
00000000
01000000
00000000
,  // measure 53
00010000
00000000
00000000
00010000
00000000
00000000
10000000
00000000
00100000
00000000
00000000
00100000
00000000
00000000
10010000
00000000
,  // measure 54
00000000
10000000
00000000
00100000
00000000
00010000
00000000
00001000
,  // measure 55
00000000
00000100
00000000
00000010
00000000
00000001
00000100
00001000
,  // measure 56
00000000
00000100
00000000
00010000
00000000
00001000
00100000
00010000
,  // measure 57
00000000
01000000
00000000
01000000
00000000
00100000
10000000
01000000
,  // measure 58
00000000
00100000
00000000
00100000
00000000
00001000
00010000
00001000
,  // measure 59
00000000
00010000
00001000
00000000
00010000
00000100
00001000
00000000
,  // measure 60
00001000
00000010
00000100
00000001
00000000
00000001
00001000
00000100
,  // measure 61
00000000
00001100
00000000
00001100
00000000
00000100
00010000
00001000
,  // measure 62
00000000
00000000
00011000
00000000
00001000
00100000
00010000
00100000
,  // measure 63
00000000
10010000
00000000
10010000
00000000
01000000
10000000
00100000
,  // measure 64
00000000
00000000
10010000
00000000
10000000
01000000
00100000
00010000
,  // measure 65
01000000
00000000
01000000
00010000
00110000
00000000
00100000
00001000
,  // measure 66
00000000
00010000
00000000
00001000
00000000
00010000
00000100
00001000
,  // measure 67
00000010
00000000
00000010
00000000
00000010
00000001
00000100
00001000
,  // measure 68
00000000
00000010
00000010
00000000
00001000
00000100
00001000
00000000
,  // measure 69
00000100
00000000
00010000
00000000
00001000
00001000
00001000
00000000
,  // measure 70
00010000
00000000
00001000
00000000
01000000
01000000
01000000
00000000
,  // measure 71
00010000
00000000
01000000
00000000
10000000
10000000
10000000
00000000
,  // measure 72
00100000
00010000
10000000
10010000
,  // measure 73
00100000
00000000
00001000
00000000
00010000
00010000
00010000
00000000
,  // measure 74
00001000
00000000
00010000
00000000
00000010
00000010
00000010
00000000
,  // measure 75
00001000
00000100
00000001
00000000
00000001
00000100
00001000
00000000
,  // measure 76
00000020
00000030
00001000
00010000
,  // measure 77
00022000
00000000
00000000
00000000
,  // measure 78
00000000
00000000
00000000
00000000
,  // measure 79
00033000
00000000
00000000
00000000
;

//---------------dance-double - ----------------
#NOTES:
     dance-double:
     :
     Easy:
     6:
     0.339,0.467,0.120,0.471,0.000: // measure 1
00000000
00000000
00000000
00000000
,  // measure 2
00000000
00000000
00000000
00000000
,  // measure 3
00000000
00000000
00000000
00000000
,  // measure 4
00000000
00000000
00000000
00000000
,  // measure 5
00000000
00000000
00000000
00000000
,  // measure 6
00000000
00000000
00000000
00000000
,  // measure 7
00200000
00300000
10000000
00010000
,  // measure 8
00000020
00000030
00001000
00000001
,  // measure 9
00000200
00000300
00020000
00030000
,  // measure 10
00100000
10000000
01000000
00010000
,  // measure 11
00200000
00300000
10000000
10000000
,  // measure 12
00200000
00300000
00001000
00001000
,  // measure 13
00020000
00030000
00000010
00000010
,  // measure 14
00001000
00000001
00001000
00000001
,  // measure 15
00000200
00000300
00000001
00001000
,  // measure 16
00000200
00000300
00010000
00001000
,  // measure 17
02000000
03000000
00010000
10000000
,  // measure 18
02000000
03100000
00200000
00300000
,  // measure 19
10000000
10000000
00010000
00010000
,  // measure 20
01000000
01000000
00100000
00100000
,  // measure 21
20000000
30000000
00020000
00030000
,  // measure 22
00002000
00003000
00000002
00000003
,  // measure 23
00000100
00000100
00000010
00000010
,  // measure 24
00001000
00001000
00000001
00000001
,  // measure 25
00002000
00003000
00000200
00000300
,  // measure 26
00020000
00030000
02000000
03000000
,  // measure 27
10000000
00100000
00010000
00000000
,  // measure 28
00010000
00100000
10000000
01000000
,  // measure 29
00200000
00300000
00002000
00003000
,  // measure 30
00010000
00001000
00000100
00000010
,  // measure 31
00000002
00000003
00000200
00000300
,  // measure 32
00002000
00003000
00000200
00000300
,  // measure 33
00010000
00010000
00001000
00001000
,  // measure 34
01000000
00010000
00100000
10000000
,  // measure 35
02000000
00000000
00000000
03000000
,  // measure 36
00020000
00000000
00000000
00030000
,  // measure 37
00002000
00000000
00000000
00003000
,  // measure 38
00000020
00000000
00000000
00000030
,  // measure 39
00000002
00000000
00000000
00000003
,  // measure 40
00000200
00000000
00000000
00000300
,  // measure 41
00020000
00000000
00000000
00030000
,  // measure 42
02000000
00000000
00000000
03000000
,  // measure 43
10000000
01000000
00100000
10010000
,  // measure 44
00100000
00010000
00001000
00011000
,  // measure 45
00001000
00000100
00000010
00001001
,  // measure 46
00000010
00001000
00000100
00000100
,  // measure 47
00001000
00010000
00100000
01000000
,  // measure 48
10000000
01000000
00100000
00010000
,  // measure 49
00000001
00000001
00001000
00001000
,  // measure 50
00010000
00010000
10000000
10000000
,  // measure 51
02200000
00000000
00000000
03300000
,  // measure 52
20020000
00000000
30030000
10000000
,  // measure 53
00110000
00110000
00001100
00000100
,  // measure 54
00000010
00000001
00001100
00001000
,  // measure 55
00011000
00011000
00100000
00100000
,  // measure 56
10000000
01000000
00100000
00010000
,  // measure 57
00001010
00000000
00000001
00000100
,  // measure 58
00001100
00000000
00001000
00010000
,  // measure 59
00100000
00100000
10000000
10000000
,  // measure 60
01000000
00100000
00001000
00010000
,  // measure 61
00000020
00000030
00001000
00000100
,  // measure 62
00000002
00000003
00000100
00001000
,  // measure 63
00020000
00030000
01000000
10000000
,  // measure 64
00200000
00300000
01000000
00001000
,  // measure 65
00020000
00031000
00001000
00000100
,  // measure 66
00000200
00000301
00000010
00001000
,  // measure 67
00000200
00000000
00000000
00000300
,  // measure 68
00010000
00000000
00001000
00001000
,  // measure 69
00200000
00300000
00010000
01000000
,  // measure 70
00200000
00300000
10000000
01000000
,  // measure 71
00020000
00030000
00002000
00003000
,  // measure 72
00000100
00000001
00000100
00001000
,  // measure 73
00020000
00030000
00001000
00100000
,  // measure 74
00020000
01030000
20000000
31000000
,  // measure 75
00100000
00010000
00001000
00000100
,  // measure 76
00000020
00000000
00000000
00000030
,  // measure 77
00002002
00000000
00000000
00000000
,  // measure 78
00000000
00000000
00000000
00000000
,  // measure 79
00003003
00000000
00000000
00000000
;
