#TITLE:夢について TYPE C;
#SUBTITLE:;
#ARTIST:小野秀幸 feat. 岡本裕美;
#TITLETRANSLIT:Yume Ni Tsuite TYPE C;
#SUBTITLETRANSLIT:;
#ARTISTTRANSLIT:Hideyuki Ono feat. Hiromi Okamoto;
#GENRE:;
#CREDIT:;
#MENUCOLOR:;
#METERTYPE:DDR X;
#BANNER:Yume Ni Tsuite -TYPE C--jacket.png;
#BACKGROUND:Yume Ni Tsuite -TYPE C--bg.png;
#LYRICSPATH:;
#CDTITLE:;
#MUSIC:Yume Ni Tsuite -TYPE C-.ogg;
#OFFSET:-0.580;
#SAMPLESTART:13.480;
#SAMPLELENGTH:12.000;
#SELECTABLE:YES;
#LISTSORT:;
#BPMS:0.000=148.000,28.000=296.001,268.000=148.000,276.000=296.000;
#STOPS:;
#BGCHANGES:;
#ATTACKS:;

//---------------dance-single - ----------------
#NOTES:
     dance-single:
     :
     Hard:
     15:
     0.838,0.918,0.270,0.250,0.000:
0000
0000
0000
0000
,
0000
0000
0000
0000
,
0000
0000
0000
0000
,
0000
0000
0000
0000
,
0000
0000
0000
0000
,
1001
0000
1000
0100
0001
0000
0100
0110
,
0000
0101
0000
1100
0000
0001
0010
0100
,
0001
0100
0001
0100
0001
0000
1000
0100
,
1000
0100
1000
0000
0010
0000
0100
0000
,
0001
0000
1000
0000
0001
1000
0001
0000
,
1000
0000
0010
0000
1000
0010
1000
0000
,
0001
0000
0100
0000
0001
0010
0001
0000
,
1000
0000
0010
0000
1000
0100
1000
0000
,
0001
0100
0001
0000
1000
0001
1000
0000
,
1000
0010
1000
0000
0001
0100
0001
0000
,
1000
0000
0010
0000
0100
0000
0001
0100
,
0001
0100
0010
1000
,
0001
0100
0001
0000
1000
0000
0010
0000
,
1000
0010
1000
0000
0001
0100
0001
0000
,
1000
0010
1000
0000
0010
0100
0010
0000
,
1000
0001
1000
0000
0001
0000
0100
0000
,
0010
0000
1000
0010
1000
0000
0001
0100
,
0001
0100
0010
1000
,
0001
0000
0100
0001
0100
0000
0001
1000
,
0001
1000
0001
0000
0100
0010
0100
0010
,
0100
0000
0001
0100
0001
0000
1000
0000
,
0010
0000
0100
0010
0100
0000
0001
1000
,
0001
0000
1000
0100
1000
0000
0001
0000
,
0100
0001
0100
0000
0010
1000
0010
0000
,
0100
0000
0001
0100
0001
0000
1000
0100
,
1000
0000
0010
0100
0010
0000
1000
0010
,
1000
0001
0101
0100
,
0001
1000
0001
0100
0001
1000
0001
0000
,
0100
0000
0010
0100
0010
0000
1000
0000
,
1000
0001
0100
0001
,
1000
0001
1000
0000
0001
0100
0001
0000
,
1000
0001
0010
0000
0001
1000
0100
0000
,
0001
0000
1000
0100
1000
0000
0001
0010
,
0001
0000
0100
0010
0100
0000
0001
1000
,
0001
0000
0100
0000
0010
0000
1000
0100
,
1000
0000
0001
0100
0001
0100
0001
0100
,
0001
0000
1000
0000
0000
0000
1000
0001
,
1000
0000
0100
0010
0000
0100
0010
0000
,
1000
1001
1000
1001
,
1000
1001
0000
0010
,
0001
0010
1000
0010
,
0100
0000
0001
0100
0001
0000
0001
1000
,
0100
1001
0000
1100
,
0000
0101
0000
1000
,
0001
0000
0100
0000
0001
0100
0001
0000
,
1000
0000
0010
1000
0010
0000
0100
0000
,
0001
0100
0001
0000
1000
0100
1000
0000
,
0001
0010
0001
0000
1000
0100
1000
0000
,
0001
0000
0100
0010
0100
0000
0001
0000
,
1000
0100
0000
1000
0100
0000
0001
0000
,
0200
0010
0310
0002
,
1000
0000
1000
0000
1000
0003
1000
0000
,
0001
0100
0001
0000
1000
0000
1001
0000
,
0100
0000
0110
0000
0001
0100
0001
0000
,
1000
0000
0100
1000
0100
0000
1000
0000
,
0001
0100
0001
0000
0010
0100
0010
0000
,
1000
0000
0001
1000
0001
0000
1000
0000
,
0010
0100
0010
0000
1000
0100
1000
0000
,
0001
0000
0010
0001
0010
0000
0001
0000
,
0100
0000
0010
0100
0010
0000
1000
0000
,
0100
0001
0100
0001
0100
0000
0010
1000
,
0010
0100
0010
0001
,
1000
0000
0000
0001
1100
0000
0101
0000
,
1010
0101
0110
1001
,
0001
0000
0100
0001
0100
0000
0001
1000
,
0001
0000
1000
0001
1000
0000
0001
0100
,
0001
0000
0100
0000
0100
0000
0010
0100
,
1000
0001
0001
0000
,
1000
0100
1000
0010
1000
0010
1000
0000
,
0001
0100
0001
0100
0001
0010
0001
0000
,
1000
0010
0100
0010
0100
0010
1000
0010
,
1000
0001
0100
0001
0010
0001
0010
0000
,
0200
0302
2003
3020
,
0230
0302
0000
2003
,
3010
0000
0200
0000
0000
0000
0301
0100
,
0001
0000
1000
0000
0001
0100
0001
0100
,
0001
1000
0100
0010
,
0002
1000
0000
1003
,
0010
0220
0330
2002
,
3003
2200
3300
0101
,
0001
1000
0001
0100
0001
0010
0001
0100
,
0001
1000
0010
1000
0100
1000
0010
1000
,
0002
0200
0000
0303
,
0010
1000
0001
0100
,
1000
0010
1000
0010
0100
0001
0100
0001
,
1000
0100
1000
0100
0010
0001
0010
0001
,
1000
0001
1000
0001
0100
0010
0100
0010
,
1000
0100
1000
0100
0010
0001
0010
0001
,
1000
0100
0010
0001
0100
0010
1000
0100
,
0010
0001
0100
0010
1000
0010
1000
0100
,
1000
0001
1000
0010
1000
0100
1000
0001
,
0200
0010
0010
0310
,
1000
0101
1100
0101
,
0010
0100
1000
0001
,
2000
0000
0000
3020
0000
0000
0130
0000
,
0001
0100
0001
0100
0001
1000
0001
1000
,
0001
0100
0010
1000
,
0100
0010
0001
0100
,
0020
1000
1000
1030
,
0001
1000
0001
1000
0000
0000
0010
0100
,
0010
0100
0000
0000
1000
0001
1000
0001
,
2002
0000
0000
0000
,
0000
0000
0000
0000
,
3003
0000
0000
0000
;

//---------------dance-double - ----------------
#NOTES:
     dance-double:
     :
     Hard:
     15:
     0.692,0.918,0.270,0.160,0.000:
00000000
00000000
00000000
00000000
,
00000000
00000000
00000000
00000000
,
00000000
00000000
00000000
00000000
,
00000000
00000000
00000000
00000000
,
00000000
00000000
00000000
00000000
,
00010000
00000000
00000100
00000000
00000010
00000000
00000001
00000010
,
00000000
00001000
00000000
00000100
00010000
00001000
01000000
00000000
,
00010000
00000000
01000000
00010000
01000000
00000000
00100000
00000000
,
10000000
00100000
10000000
00000000
01000000
00000000
00000000
00000000
,
10000000
00000000
00100000
01000000
00100000
00000000
01000000
00000000
,
00010000
00000000
00001000
00010000
00001000
00000000
00010000
00000000
,
00000100
00000000
00001000
00000100
00001000
00000000
00000010
00000000
,
00000100
00000000
00000001
00001000
00000001
00000000
00001000
00000000
,
00000010
00000000
00001000
00000100
00001000
00000000
00000100
00000000
,
00010000
00000000
00001000
00010000
00001000
00000000
00001000
00000000
,
00100000
00000000
00010000
00000000
01000000
00000000
00010000
01000000
,
00010000
00100000
10000000
01000000
,
10000000
00000000
00100000
01000000
00100000
00000000
01000000
00000000
,
00010000
00000000
00100000
00010000
00100000
00000000
00001000
00000000
,
00010000
00000000
00000100
00010000
00000100
00000000
00001000
00000000
,
00000010
00000000
00000100
00000001
00000100
00000000
00000010
00000000
,
00001000
00000100
00010000
00001000
,
00100000
00010000
01000000
00100000
,
20200000
00000000
00000000
00000000
30300000
00000000
01000000
00010000
,
01000000
10000000
10010000
00000000
,
00010000
00000000
00001000
00010000
00001000
00000000
00000000
00000000
,
00000100
00000000
00001000
00000100
00001000
00000000
00000000
00000000
,
00000010
00000000
00000100
00000010
00000100
00000000
00000000
00000000
,
00000001
00000000
00000100
00000001
00000100
00000000
00000000
00000000
,
00000010
00001000
00000010
00000000
00001000
00000000
00000100
00000000
,
00010000
00000100
00010000
00000000
00001000
00000000
00010000
00000000
,
00100000
00010000
00100000
00000000
00010000
00000000
01000000
00000000
,
00100000
10000000
01000000
00100000
,
00001000
00010000
00001000
00000000
00010000
00000000
00000100
00001000
,
00000100
00000000
00001000
00000000
00000010
00000100
00000010
00000000
,
00000001
00000010
00000100
00001000
,
00010000
00100000
01000000
10000000
,
00100000
00000000
01000000
00010000
01000000
00000000
00100000
00000000
,
10000000
00000000
00100000
01000000
00100000
00000000
01000000
00000000
,
00010000
00000000
00001000
00000000
00000100
00000000
00000010
00000100
,
00000010
00000001
00000100
00001000
,
00020000
00000000
00030000
00000000
,
00001000
00000000
00000000
00011000
00000000
00000000
00100000
00000000
,
00010000
10010000
00000000
01100000
,
00000000
10010000
00000000
10000000
,
02200000
00000000
00000000
00000000
00000000
03300000
00000000
00000000
,
11000000
00000000
00000000
01100000
00000000
00000000
00110000
00000000
,
00001000
00010000
00000100
00001000
,
00000001
00000100
00001000
00000100
,
00020000
00001000
00001000
00031000
,
00001000
00000000
00000000
00101000
00000000
00000000
00100000
00000000
,
00010000
01100000
00000000
10010000
,
00000000
01100000
00000000
10000000
,
00020000
01000000
00000000
01030000
,
00100000
00000000
10000000
01000000
10000000
00000000
00100000
00000000
,
02000000
00010000
03020000
00100000
,
00100000
00100000
00100000
00130000
,
00000000
11000000
00000000
01010000
,
00000000
00011000
00000000
00001000
,
00000001
00000000
00000010
00000100
00000010
00000000
00001000
00000100
,
00001000
00000000
00000100
00010000
00000100
00000000
00010000
00000000
,
00001000
00000000
00100000
00010000
00100000
00000000
00010000
01000000
,
00010000
00000000
01000000
00100000
01000000
00000000
00100000
00000000
,
10000000
01000000
00100000
00010000
,
00001000
00000100
00000010
00000001
,
00000100
00000000
00000010
00000000
00000100
00000000
00000010
00001000
,
00000010
00001000
00000100
00010000
,
00012000
00000000
00103000
00010000
,
01010000
10100000
01100000
10010000
,
10000000
00100000
01000000
00001000
,
00010000
00000100
00001000
00000010
,
00000100
00000000
00000100
00000000
00000100
00000000
00000001
00000100
,
00001000
00000010
00000010
00000000
,
00001000
00000100
00001000
00000000
00000100
00010000
00000100
00000000
,
00010000
00001000
00010000
00000000
00001000
00010000
00001000
00000000
,
00100000
00001000
00100000
00000000
00010000
00000000
01000000
00000000
,
00100000
10000000
01000000
00100000
,
00010000
00001000
00000100
00000010
,
00000001
00000100
00000000
00000010
,
00001000
00000000
00001100
00000000
00000000
00000000
00000100
00010000
,
00000100
00010000
00010000
00001000
,
00001000
00100000
00010000
01000000
,
00200000
00000000
10300000
00010000
,
01000000
00100000
00000000
10000000
,
00000000
00010000
00001000
00010000
,
00000100
00010000
00000100
00010000
00000100
00010000
00000100
00010000
,
00001000
00010000
00001000
00010000
00001000
00000000
00010000
00000000
,
00000100
00000020
00000000
00001000
,
00000000
00000100
00000130
00000000
,
00000001
00000100
00000000
00000100
00000000
00000100
00000010
00001000
,
00000100
00001000
00000000
00001000
00000000
00000100
00010000
00001000
,
00010000
00001000
00000000
00001000
00000000
00001000
00100000
00010000
,
01000000
00100000
00000000
00100000
00000000
00100000
00000000
00100000
,
10000000
01000000
10000000
01000000
10000000
00100000
10000000
00010000
,
10000000
00010000
10000000
00010000
10000000
01000000
10000000
00010000
,
01000000
00010000
00100000
00010000
00100000
00001000
00010000
00001000
,
00010000
00000010
00001000
00000010
00001000
00000001
00000100
00000000
,
00000001
00000100
00001001
00001100
,
00000101
00000000
00000001
00000000
00001000
00000100
00001000
00000100
,
00001000
00000100
00010000
00001000
,
01000000
00010000
00100000
01000000
,
10000000
00100000
01000000
00001000
,
00010000
00000100
00001000
00000020
,
00000200
00000000
00000000
00000330
,
00000001
00000100
00000001
00000100
00000000
00000000
00001000
00000100
,
00001000
00000100
00000000
00000000
00010000
00001000
00010000
00001000
,
00022000
00000000
00000000
00000000
,
00000000
00000000
00000000
00000000
,
00033000
00000000
00000000
00000000
;

//---------------dance-double - ----------------
#NOTES:
     dance-double:
     :
     Medium:
     11:
     0.567,0.702,0.360,0.570,0.000:
00000000
00000000
00000000
00000000
,
00000000
00000000
00000000
00000000
,
00000000
00000000
00000000
00000000
,
00000000
00000000
00000000
00000000
,
00000000
00000000
00000000
00000000
,
10010000
00000000
00000000
00000000
01100000
00000000
00000000
00011000
,
00000000
00000100
00000000
00000110
00000000
00000001
00000010
00001000
,
00001000
00000000
00000000
00000100
,
00000000
00000000
00001010
00000000
,
00000100
00001000
00000100
00001000
,
00010000
00000000
00000100
00000000
,
00010000
00001000
00010000
00001000
,
00100000
00000000
00010000
00000000
,
01000000
01000000
00100000
00000000
,
10000000
10000000
00010000
00000000
,
20000000
00000000
00000000
30100000
,
01000000
00010000
00100000
00000000
,
00001000
00001000
00001000
00010000
,
00000200
00000000
00002300
00000000
,
00003020
00000000
00000032
00000000
,
00000203
00000000
00001300
00001000
,
00000020
00000000
00020030
00000000
,
00032000
00000000
01003000
01000000
,
02000000
00000000
03000000
00010000
,
01010000
00000000
11000000
00000000
,
00100000
01000000
00100000
01000000
,
01010000
00000000
11000000
00000000
,
00100000
00010000
00100000
00010000
,
00011000
00000000
00001100
00000000
,
00000010
00000100
00000010
00001000
,
00000001
00001000
00000100
00000000
,
00000020
00000000
00000000
00001030
,
00001000
00000000
00000010
00000000
,
00000100
00000100
00001000
00001000
,
00010000
00000000
00110000
00000000
,
01000000
01000000
10000000
00000000
,
00100000
00100000
00010000
00000000
,
00100000
00001000
00100000
00001000
,
00010000
00000100
00010000
00000100
,
00001000
00000100
00000010
00000001
,
00002002
00000000
00003003
00000000
,
00000020
00001000
00000000
00001030
,
00000100
00000000
00000000
00011000
00000000
00000000
00010000
00000000
,
00100000
00110000
00000000
01100000
,
00000000
10010000
00000000
01000000
,
00200000
10000000
00000000
10300000
,
01000000
00000000
00000000
01010000
00000000
00000000
00100000
00000000
,
00002000
00020000
00003000
00001000
,
00000000
00001000
00000000
00030100
,
00002000
00000010
00000000
00003010
,
00000001
00000000
00000000
00000101
00000000
00000000
00001000
00000000
,
00000100
00001100
00000000
00011000
,
00000000
00110000
00000000
00010000
,
02000000
00100000
00000000
03100000
,
10000000
00000000
00000000
01100000
00000000
00000000
20000000
00000000
,
00020000
00000000
30000000
02000000
,
00000000
00000000
00030000
03100000
,
00000000
01010000
00000000
00011000
,
00000000
00002200
00000000
00003300
,
00000010
00000100
00000001
00001000
,
00000020
00000000
00002030
00000000
,
00003100
00010000
00001000
00010000
,
00002000
00000000
00203000
00000000
,
00310000
00000000
00000000
00010000
01000000
00000000
00000000
01000000
,
10000000
00000000
00000000
10000000
01000000
00000000
00000000
00100000
,
00020000
00000000
00000000
00000000
00000000
00030000
00001000
00010000
,
00001000
00010000
00000100
00000010
,
00000002
00000000
00000000
00000103
00000100
00000000
00000010
00000000
,
00001000
00011000
01100000
10010000
,
10000000
00000000
00100000
00000000
,
01000000
01000000
00010000
00010000
,
00220000
00000000
00330000
00001000
,
00010000
00001000
00000100
00000000
,
00000100
00000010
00000001
00000100
,
00001000
00010000
00100000
01000000
,
10000000
01000000
00010000
00001000
,
00000200
00000000
00001300
00000000
,
00000010
00000100
00000001
00001000
,
00000010
00000200
00000000
00001300
,
00010000
00200000
00000000
01300000
,
02020000
00000000
03030000
00000000
,
00000000
00100000
00010000
00001000
,
00000200
00000000
00000300
00001000
,
00000010
00001001
00000000
00001010
,
00000000
00001000
00000100
00010000
,
00001000
00001000
00100000
00100000
,
00010000
01000000
00100000
10000000
,
00020000
02000000
00000000
00000000
,
00000000
03000000
20000000
30030000
,
00000000
02000000
10000000
13000000
,
00020000
01000000
01000000
01030000
,
00002000
00010000
00013000
00020000
,
00000100
00030100
00002000
00003100
,
00001000
00000001
00001000
00000000
00000001
00000000
00000001
00000000
,
00001000
00000100
00001000
00000000
00000100
00000000
00000100
00000000
,
00010000
00001000
00010000
00100000
,
02000000
00100000
00100000
03100000
,
20000000
00000000
30010000
01000000
,
00200000
10300000
02000000
03010000
,
00200000
00001000
00301000
00002000
,
00023000
00000100
00000000
00030100
,
00001000
00000100
00000010
00000001
,
00000100
00000000
00001010
00000000
,
00002002
00000000
00000000
00003003
,
00000100
00001000
00000100
00001000
00000000
00000000
00001000
00000100
,
00001000
00000100
00000000
00000000
00001000
00000000
00000000
00000000
,
00022000
00000000
00000000
00000000
,
00000000
00000000
00000000
00000000
,
00033000
00000000
00000000
00000000
;

//---------------dance-single - ----------------
#NOTES:
     dance-single:
     :
     Medium:
     11:
     0.598,0.756,0.470,0.830,0.000:
0000
0000
0000
0000
,
0000
0000
0000
0000
,
0000
0000
0000
0000
,
0000
0000
0000
0000
,
0000
0000
0000
0000
,
2002
0000
3003
0000
1100
0000
0000
0110
,
0000
0011
0000
1001
0000
0100
0010
1000
,
0002
0000
0003
2000
,
0000
3000
0010
0000
,
2000
0010
0000
3010
,
0200
0000
0302
0000
,
2003
0010
0000
3010
,
0200
0000
0301
0000
,
0002
0000
0023
0000
,
0230
0000
2300
0010
,
3020
0000
0000
0130
,
1001
0000
1100
0000
,
0002
0010
0000
0013
,
2000
0000
3200
0000
,
0302
0000
0023
0000
,
0230
0000
1300
0010
,
0210
0000
0001
0000
,
0010
0000
0301
0000
,
2002
0000
3003
0110
,
0110
0000
1001
0000
,
2000
0001
0000
3001
,
0100
0010
0000
0000
0010
0001
0000
0000
,
0002
1000
0000
1003
,
0001
0100
0000
0000
0100
1000
0000
0000
,
1000
0010
0000
0000
0010
0100
0000
0000
,
0100
0001
0000
0000
0001
0000
1000
0000
,
0220
0330
0000
0001
,
2002
3003
0110
0000
,
2000
0100
0000
3100
,
0010
0000
0000
0000
0100
0001
0000
0000
,
0001
0010
0000
0000
0010
1000
0000
0000
,
1000
0100
0000
0000
0100
0000
0001
0000
,
0020
0000
2030
0000
,
3100
0000
0100
0010
,
0220
0300
0000
1030
,
0002
0100
0103
0000
,
0200
1000
0000
1300
,
0010
0000
0000
1001
0000
0000
0100
0000
,
0010
1001
0000
1100
,
0000
0101
0000
0010
,
2000
0100
0000
3100
,
0010
0000
0000
1001
0000
0000
0100
0000
,
0010
0002
0000
0100
,
0000
0100
0000
0013
,
2000
0100
0000
3100
,
0010
0000
0000
0101
0000
0000
1000
0000
,
0010
0110
0000
1100
,
0000
0101
0000
0010
,
0002
0100
0000
0103
,
0010
0000
0000
1000
0000
0000
0001
0000
,
0200
0010
0000
0320
,
0000
1000
0000
1030
,
0000
0101
0000
1100
,
0000
0220
0000
0330
,
1000
0001
1000
0001
,
2000
3100
0020
0031
,
0100
0010
0100
0010
,
0002
0013
0200
1300
,
0020
0100
0130
0000
,
2000
0001
3001
0000
,
0020
0000
0030
1000
,
0100
0010
0001
0000
,
2000
0000
0000
3001
0002
0000
0203
0000
,
0320
2030
3020
0230
,
0301
0010
0100
0000
,
1000
0100
0010
0000
,
2002
0000
3003
0110
,
0110
0000
1001
0000
,
1000
0100
0010
0001
,
1000
0010
0100
0001
,
0100
0010
1000
0001
,
0200
0000
0310
0000
,
0001
0010
0100
1000
,
0001
0202
0303
1000
,
0100
0220
0330
0001
,
2002
0000
3003
0000
,
1000
0010
0001
0100
,
2020
0000
3030
0001
,
0010
0101
0000
1100
,
0000
0001
0010
0100
,
0001
0001
1000
1000
,
0010
0010
0100
0100
,
0002
2000
0000
0000
,
3003
0000
0110
0000
,
1000
0002
0000
0000
,
0203
0000
0000
0000
,
0320
0000
1000
0000
,
2030
0000
3001
0000
,
0001
0100
0001
0000
0100
0000
0010
0000
,
1000
0100
1000
0000
0100
0000
1000
0000
,
0010
0100
0010
0000
1000
0000
0001
0000
,
0220
0000
0000
0330
,
1000
0001
0010
0100
,
1000
0100
0010
0001
,
0200
0010
0000
0301
,
0002
0000
1003
0000
,
0010
0100
0001
1000
,
0100
0010
0001
0100
,
2002
0000
0000
3003
,
0110
0000
0000
1001
0000
0000
0110
0000
,
0000
1001
0000
0000
0110
0000
0000
0000
,
2002
0000
0000
0000
,
0000
0000
0000
0000
,
3003
0000
0000
0000
;

//---------------dance-double - ----------------
#NOTES:
     dance-double:
     :
     Easy:
     6:
     0.318,0.378,0.180,0.350,0.000:
00000000
00000000
00000000
00000000
,
00000000
00000000
00000000
00000000
,
00000000
00000000
00000000
00000000
,
00000000
00000000
00000000
00000000
,
00000000
00000000
00000000
00000000
,
00010000
00000000
00000010
00000000
,
00000001
00000000
00000010
00000000
,
00010000
00000000
00000000
00001000
,
00000000
00000000
00010000
00000000
,
00002000
00000000
00003000
01000000
,
01000000
00000000
00100000
00000000
,
20000000
00000000
30000000
00100000
,
00100000
00000000
01000000
00000000
,
00010000
00000000
00001000
00000000
,
00000100
00000000
00000010
00000000
,
00000001
00000000
00000000
00001000
,
00001000
00000000
00000100
00000000
,
00020000
00000000
00030000
00001000
,
00001000
00000000
00100000
00000000
,
00010000
00000000
01000000
00000000
,
10000000
00000000
00100000
00000000
,
00010000
00000000
00001000
00000000
,
00000100
00000000
00000001
00000000
,
00000020
00000000
00000030
00001000
,
00001000
00000000
00000000
00000000
,
00011000
00000000
00000000
00100000
,
00100000
00000000
01000000
00000000
,
10010000
00000000
00000000
01000000
,
01000000
00000000
00100000
00000000
,
00010000
00000000
00001000
00000000
,
00000100
00000000
00000010
00000010
,
00000010
00000000
00000000
00000100
,
00000100
00000000
00001001
00000000
,
00000110
00000000
00000000
00001000
,
00001000
00000000
00010000
00000000
,
00100000
00000000
01000000
00000000
,
10000000
00000000
01000000
00000000
,
00010000
00000000
00001000
00000000
,
00000100
00000000
00000001
00000000
,
00000010
00000000
00000000
00000100
,
00000100
00000000
00000000
00000000
,
00000002
00000000
00000003
00000000
,
00002000
00000000
00003000
00000000
,
00000000
00000110
00000000
00000110
,
00000000
00000110
00000000
00000000
,
00002000
00000000
00003000
00000000
,
00020000
00000000
00030000
00000000
,
02000000
00000000
03000000
00000000
,
00200000
00000000
00300000
00000000
,
20000000
00000000
30000000
00000000
,
00020000
00000000
00030000
00000000
,
00000000
01100000
00000000
01100000
,
00000000
01100000
00000000
00000000
,
00020000
00000000
00030000
00000000
,
00002000
00000000
00003000
00000000
,
00000020
00000000
00000000
00000200
,
00000000
00000000
00000000
00000330
,
00000000
00001001
00000000
00001001
,
00000000
00001001
00000000
00000000
,
00000020
00000000
00000000
00001030
,
00001000
00000000
00000100
00000000
,
00020000
00000000
00000000
00031000
,
00001000
00000000
00100000
00000000
,
00010000
01000000
10000000
00000000
,
10000000
01000000
00010000
00000000
,
00200000
00000000
00300000
00000000
,
01000000
00000000
00010000
00000000
,
00002000
00003000
00020000
00030000
,
00000010
00000100
00001000
00010000
,
00200000
00000000
00300000
00000000
,
02000000
00000000
03000000
00000000
,
20000000
00000000
30000000
00000000
,
00020000
00000000
00030000
00000000
,
00000010
00000000
00000010
00000000
,
00001000
00000000
00001000
00000000
,
00010000
00000000
00010000
00000000
,
00200000
00000000
00300000
00000000
,
10000000
00000000
10000000
00000000
,
01000000
00000000
00000000
00000000
,
00010000
00000000
00010000
00000000
,
00000100
00000000
00000000
00000000
,
00000001
00000000
00000010
00000000
,
00001000
00000000
00000000
00000000
,
00010000
00000000
00100000
00000000
,
10000000
00000000
00000000
00000000
,
02000000
00000000
03000000
00000000
,
00200000
00000000
00300000
00000000
,
20020000
00000000
00000000
00000000
,
00000000
00000000
30030000
00000000
,
00100000
00000000
00100000
00000000
,
00010000
00000000
00010000
00000000
,
00000100
00000000
00000100
00000000
,
00000010
00000000
00000010
00000000
,
00001000
00000000
00001000
00000000
,
01000000
00000000
01000000
00000000
,
10000000
00000000
10000000
00000000
,
00200000
00000000
00300000
00000000
,
01000000
00000000
00010000
00010000
,
00010000
00000000
00000000
00000000
,
00000100
00000000
00001000
00001000
,
00001000
00000000
00000000
00000000
,
00010000
00000000
00001000
00000000
,
00010000
00000000
00000000
00000000
,
00022000
00000000
00000000
00000000
,
00033000
00000000
00000000
00011000
,
00000000
00000000
00011000
00000000
,
00022000
00000000
00000000
00000000
,
00000000
00000000
00000000
00000000
,
00033000
00000000
00000000
00000000
;

//---------------dance-single - ----------------
#NOTES:
     dance-single:
     :
     Easy:
     6:
     0.314,0.378,0.190,0.350,0.000: // measure 1
0000
0000
0000
0000
,  // measure 2
0000
0000
0000
0000
,  // measure 3
0000
0000
0000
0000
,  // measure 4
0000
0000
0000
0000
,  // measure 5
0000
0000
0000
0000
,  // measure 6
1000
0000
0010
0000
,  // measure 7
0001
0000
0010
0000
,  // measure 8
1000
0000
0000
0001
,  // measure 9
0000
0000
1001
0000
,  // measure 10
0002
0000
0003
0100
,  // measure 11
0100
0000
0010
0000
,  // measure 12
2000
0000
3000
0010
,  // measure 13
0010
0000
0100
0000
,  // measure 14
0001
0000
1000
0000
,  // measure 15
0100
0000
0010
0000
,  // measure 16
0001
0000
0000
0010
,  // measure 17
0010
0000
0000
0000
,  // measure 18
0002
0000
0003
1000
,  // measure 19
1000
0000
0010
0000
,  // measure 20
0001
0000
0010
0000
,  // measure 21
0100
0000
1000
0000
,  // measure 22
1000
0000
0100
0000
,  // measure 23
0010
0000
0001
0000
,  // measure 24
0020
0000
0030
1000
,  // measure 25
1000
0000
0000
0000
,  // measure 26
1001
0000
0000
0010
,  // measure 27
0010
0000
0100
0000
,  // measure 28
1001
0000
0000
0100
,  // measure 29
0100
0000
0010
0000
,  // measure 30
0001
0000
1000
0000
,  // measure 31
0100
0000
0010
0000
,  // measure 32
0010
0000
0000
0100
,  // measure 33
0100
0000
1001
0000
,  // measure 34
0110
0000
0000
1000
,  // measure 35
1000
0000
0001
0000
,  // measure 36
0010
0000
0100
0000
,  // measure 37
1000
0000
0100
0000
,  // measure 38
0001
0000
1000
0000
,  // measure 39
0100
0000
0001
0000
,  // measure 40
0010
0000
0000
0100
,  // measure 41
0100
0000
0000
0000
,  // measure 42
0002
0000
0003
0000
,  // measure 43
2000
0000
3000
0000
,  // measure 44
0000
0110
0000
0110
,  // measure 45
0000
0110
0000
0000
,  // measure 46
2000
0000
3000
0000
,  // measure 47
0002
0000
0003
0000
,  // measure 48
0200
0000
0300
0000
,  // measure 49
0020
0000
0030
0000
,  // measure 50
2000
0000
3000
0000
,  // measure 51
0002
0000
0003
0000
,  // measure 52
0000
1001
0000
1001
,  // measure 53
0000
1001
0000
0000
,  // measure 54
0002
0000
0003
0000
,  // measure 55
2000
0000
3000
0000
,  // measure 56
0020
0000
0000
0200
,  // measure 57
0000
0000
0000
0330
,  // measure 58
0000
1001
0000
1001
,  // measure 59
0000
1001
0000
0000
,  // measure 60
0020
0000
0000
1030
,  // measure 61
1000
0000
0100
0000
,  // measure 62
0002
0000
0000
1003
,  // measure 63
1000
0000
0010
0000
,  // measure 64
0001
0000
1000
0000
,  // measure 65
0001
0000
1000
0000
,  // measure 66
0020
0000
0030
0000
,  // measure 67
0100
0000
0001
0000
,  // measure 68
2000
3000
0002
0003
,  // measure 69
0010
0100
1000
0001
,  // measure 70
0020
0000
0030
0000
,  // measure 71
0200
0000
0300
0000
,  // measure 72
2000
0000
3000
0000
,  // measure 73
0002
0000
0003
0000
,  // measure 74
0010
0000
0010
0000
,  // measure 75
1000
0000
1000
0000
,  // measure 76
0001
0000
0001
0000
,  // measure 77
0020
0000
0030
0000
,  // measure 78
1000
0000
1000
0000
,  // measure 79
0100
0000
0000
0000
,  // measure 80
0001
0000
0001
0000
,  // measure 81
0100
0000
0000
0000
,  // measure 82
0001
0000
0010
0000
,  // measure 83
1000
0000
0000
0000
,  // measure 84
1000
0000
0010
0000
,  // measure 85
0001
0000
0000
0000
,  // measure 86
0200
0000
0300
0000
,  // measure 87
0020
0000
0030
0000
,  // measure 88
2002
0000
0000
0000
,  // measure 89
0000
0000
3003
0000
,  // measure 90
0010
0000
0010
0000
,  // measure 91
0001
0000
0001
0000
,  // measure 92
0100
0000
0100
0000
,  // measure 93
1000
0000
1000
0000
,  // measure 94
0010
0000
1000
0000
,  // measure 95
0100
0000
0001
0000
,  // measure 96
0010
0000
0010
0000
,  // measure 97
0020
0000
0030
0000
,  // measure 98
0100
0000
0001
0100
,  // measure 99
0001
0000
0000
0000
,  // measure 100
0100
0000
1000
0100
,  // measure 101
1000
0000
0000
0000
,  // measure 102
0001
0000
1000
0000
,  // measure 103
0001
0000
0000
0000
,  // measure 104
2002
0000
0000
0000
,  // measure 105
3003
0000
0000
1001
,  // measure 106
0000
0000
1001
0000
,  // measure 107
2002
0000
0000
0000
,  // measure 108
0000
0000
0000
0000
,  // measure 109
3003
0000
0000
0000
;

//---------------dance-single - ----------------
#NOTES:
     dance-single:
     :
     Beginner:
     5:
     0.236,0.324,0.030,0.200,0.000:
0000
0000
0000
0000
,
0000
0000
0000
0000
,
0000
0000
0000
0000
,
0000
0000
0000
0000
,
0000
0000
0000
0000
,
0001
0000
1000
0000
,
0010
0000
0100
0000
,
0001
0000
0000
0001
,
0000
0000
0001
0000
,
0100
0000
0000
0100
,
0100
0000
0100
0000
,
0100
0000
0000
0010
,
0010
0000
0010
0000
,
1000
0000
1000
0000
,
0001
0000
0001
0000
,
0100
0000
0000
0100
,
0100
0000
0000
0000
,
0010
0000
0000
0100
,
0100
0000
0100
0000
,
0001
0000
0001
0000
,
1000
0000
1000
0000
,
0001
0000
0000
0000
,
1000
0000
0000
0000
,
0010
0000
0000
0000
,
0100
0000
0000
0000
,
0001
0000
0000
0001
,
0001
0000
0001
0000
,
0001
0000
0000
1000
,
1000
0000
1000
0000
,
1000
0000
0000
0000
,
0001
0000
0000
0000
,
0100
0000
0000
0010
,
0010
0000
0000
0000
,
1000
0000
0000
0000
,
0100
0000
0100
0000
,
0001
0000
0001
0000
,
0010
0000
0010
0000
,
0100
0000
0100
0000
,
1000
0000
0000
0000
,
0001
0000
0000
0000
,
1000
0000
0000
0000
,
0020
0000
0000
0000
,
0030
0000
0000
0000
,
0000
0100
0000
0100
,
0000
0100
0000
0000
,
0002
0000
0000
0000
,
0003
0000
0000
0000
,
2000
0000
0000
0000
,
3000
0000
0000
0000
,
0020
0000
0000
0000
,
0030
0000
0000
0000
,
0000
0100
0000
0100
,
0000
0100
0000
0000
,
0002
0000
0003
0000
,
2000
0000
3000
0000
,
0010
0000
0000
0200
,
0000
0000
0000
0300
,
0000
0001
0000
0001
,
0000
0001
0000
0000
,
1000
0000
0000
0000
,
0100
0000
0100
0000
,
0100
0000
0000
0000
,
0010
0000
0010
0000
,
0010
0000
0000
0000
,
0100
0000
0000
0000
,
0001
0000
0000
1000
,
1000
0000
0000
0000
,
0020
0000
0000
0030
,
0000
0100
0100
0100
,
0000
0000
0001
0000
,
0000
0000
1000
0000
,
1000
0000
0000
0010
,
0010
0000
0000
0000
,
0100
0000
0100
0000
,
0010
0000
0010
0000
,
1000
0000
0001
0000
,
1001
0000
0000
0000
,
0010
0000
0010
0000
,
0100
0000
0100
0000
,
0001
0000
1000
0000
,
1001
0000
0000
0000
,
0000
0000
0100
0000
,
0100
0000
0000
0000
,
0010
0000
0000
0000
,
0010
0000
0000
0000
,
1000
0000
1000
0000
,
0001
0000
0001
0000
,
0200
0000
0000
0000
,
0300
0000
0000
0000
,
0020
0000
0030
0000
,
2000
0000
3000
0000
,
0200
0000
0300
0000
,
0002
0000
0003
0000
,
0010
0000
1000
0000
,
0100
0000
0001
0000
,
0010
0000
0001
0000
,
0100
0000
1000
0000
,
0020
0000
0030
0000
,
2000
0000
3000
0000
,
0002
0000
0003
0000
,
0200
0000
0300
0000
,
0010
0000
1000
0000
,
0001
0000
0000
0000
,
0002
0000
0000
0000
,
0003
0000
0000
1000
,
0000
0000
0001
0000
,
2002
0000
0000
0000
,
0000
0000
0000
0000
,
3003
0000
0000
0000
;
