#TITLE:Xperanza;
#SUBTITLE:;
#ARTIST:aran;
#TITLETRANSLIT:;
#SUBTITLETRANSLIT:;
#ARTISTTRANSLIT:;
#GENRE:;
#CREDIT:;
#MENUCOLOR:;
#METERTYPE:DDR;
#BANNER:Xperanza.png;
#BACKGROUND:Xperanza-bg.png;
#LYRICSPATH:;
#CDTITLE:;
#MUSIC:Xperanza.ogg;
#OFFSET:1.300;
#SAMPLESTART:68.140;
#SAMPLELENGTH:25.000;
#SELECTABLE:YES;
#LISTSORT:;
#DISPLAYBPM:100.000:200.000;
#BPMS:0.000=100.000,68.000=200.000,84.000=100.000,108.000=200.000,220.000=100.000,228.000=200.000;
#STOPS:;
#BGCHANGES:2.333=Xperanza.avi=1.000=1=1=0,
316.000=Xperanza.avi=0.000=0=0=0,
99999=-nosongbg-=1.000=0=0=0 // don't automatically add -songbackground-
;
#ATTACKS:;

//---------------dance-single - ----------------
#NOTES:
     dance-single:
     :
     Hard:
     14:
     0.746,0.870,0.412,0.275,0.505:
0000
0000
0000
0000
,
0000
0000
0000
0000
,
0000
0000
0000
0000
,
1000
0000
0001
0000
0000
0100
1000
0100
0000
1000
0000
0001
0000
0100
0000
0010
,
0100
0000
0001
0000
0100
0000
0001
0010
0000
0100
0000
1000
0000
0010
0100
0000
,
1000
0000
0001
0000
0000
1000
0100
1000
0000
0010
0000
0100
0000
0001
0000
0010
,
0001
0000
0100
0010
0100
0010
0000
1000
0000
0100
0000
0010
0000
0001
0100
0000
,
0101
0100
1100
0100
0101
0100
1100
0100
,
0011
0000
0010
0000
1010
0000
0100
0010
0000
0100
0001
0100
0000
0010
0100
0010
,
0200
0300
2200
3300
0022
0033
0220
0330
,
1000
0010
1000
0000
0001
0100
0001
0000
1000
0010
0100
0010
1000
0000
1001
0000
,
1000
0000
0010
0000
0100
0001
0000
0001
0000
0100
0000
0010
1000
0010
1000
0010
,
0000
0100
0010
0000
1000
0001
1000
0000
0000
0010
0100
0010
0000
1000
0001
1000
,
0001
0000
0100
0000
0010
1000
0010
1000
0000
0100
0000
1000
0000
0010
0000
1000
,
0001
0000
1000
0000
0001
0000
0100
0100
0000
0010
1000
0010
0000
0100
0001
0100
,
0001
0000
1000
0000
0100
0000
1000
0001
0000
1000
0000
0001
0000
0100
0010
0100
,
0010
0000
1000
0010
0000
1000
0010
1000
0000
0001
0100
0000
0010
1000
0020
0000
,
0130
0001
0101
0000
0001
0100
0001
0101
,
0000
1000
0001
0100
0001
0010
0002
0000
,
1003
0100
1000
0100
1000
0100
1000
0010
,
0001
0010
0001
0010
0001
0010
0001
0000
,
0010
0000
0010
0000
0000
1000
0100
0010
0000
0001
0000
1000
0000
0100
1000
0200
,
0000
0300
1000
0010
0100
0010
0000
1000
0000
0001
0100
0001
0000
0001
0000
1000
,
0100
0000
1000
0000
0010
0100
0010
0100
0000
0001
0000
1000
0000
0010
0000
1000
,
1000
0000
0001
0000
0100
0000
0010
0010
0000
1100
0000
0101
0000
1100
0000
0010
,
0100
0000
0000
1000
0100
0010
0100
1000
0000
0000
0000
0000
0000
0000
0000
0000
,
0000
0000
0000
0001
0010
0100
0010
0001
1000
0000
1000
0000
1000
0000
0020
0000
,
1030
0100
1000
0100
0010
0001
0100
0001
,
0010
0001
1000
0001
1000
0100
0010
0001
,
0100
0010
0100
0010
1000
0001
1000
0001
,
1000
0100
0010
0001
1000
0100
1000
0100
,
1000
0000
0001
0100
0001
0000
0100
0000
0001
0000
1000
0100
1000
0000
0100
0000
,
1000
0000
0010
0100
0010
0000
1000
0000
0001
0000
0100
0010
0100
0000
0001
0000
,
1000
0100
0010
0100
1000
0100
0001
0100
,
1000
0010
0100
0010
0220
0000
0330
0000
,
2200
3300
1000
0001
2002
3003
0001
0100
,
0202
0303
0100
0010
0220
0330
0001
0100
,
2002
3003
0020
0230
,
0301
0000
0010
0000
0100
0000
1000
0000
0020
0000
0000
0000
0130
0010
0100
0010
,
0100
0000
0101
0001
1000
0000
1100
1000
,
0001
0000
0000
0010
0100
0000
0010
0000
0110
0000
0000
0000
1001
0000
0001
0000
,
0100
0000
1001
1000
0001
1000
0200
0000
,
1300
0000
1000
0001
0100
0001
1000
0001
,
0200
0000
0310
1000
1100
0000
0010
0001
,
0101
0000
0000
0001
0100
0000
0010
0000
0110
0000
0000
0000
0010
0000
1000
0000
,
1010
0000
0001
0100
0010
0100
0002
0000
,
1003
0000
0000
0001
0100
0000
0010
0000
0200
0000
0000
0000
0310
0000
0100
0000
,
0202
0000
0303
0001
1001
0000
1000
0100
,
0001
0000
0000
0001
0010
0000
0001
0000
0100
0000
0010
0000
1000
0000
0010
0000
,
1000
0100
1000
0100
0010
0001
0010
0001
,
0100
0000
0000
0010
0100
0000
0001
0000
1000
0000
0001
0000
1000
0000
0001
0000
,
1000
0100
1000
0100
0001
0100
0001
0100
,
1000
0010
1000
0010
0001
0010
0001
0010
,
1000
0100
1000
0000
0100
0000
1000
0000
0001
0100
0001
0000
0100
0000
0001
0000
,
1000
0010
1000
0000
0001
0010
0001
0000
0100
0010
0100
0000
0001
0100
0001
0000
,
1000
0000
0100
0000
0000
0001
0000
0010
0000
0100
0000
0001
0000
1000
0000
0010
,
0100
0000
0001
0100
0001
0100
0000
0010
0000
1000
0000
0100
0000
0010
0001
0000
,
1100
0000
0100
0000
0101
0000
0100
0100
,
1100
0100
0101
0100
,
0110
0000
1001
0000
0110
0000
1000
0001
,
1001
0000
0000
1100
0000
0000
1001
0000
0000
0101
0000
0000
1001
0000
0000
0000
,
1000
0010
1000
0010
0100
0010
0100
0010
,
0000
1000
0001
0100
0000
0001
1000
0100
,
1000
0000
0001
0010
0100
0010
0000
1100
,
0000
0101
0000
1001
0000
0100
0010
0000
,
0100
0000
0001
0000
1000
0001
0010
0010
,
0000
1000
0100
0010
0001
1000
0010
0100
,
0010
0000
1100
0000
0101
0000
0010
0100
,
0001
1000
0010
1000
0010
0100
0001
0000
,
1100
0000
0001
0100
1000
0000
0001
0100
,
0010
1000
0100
0010
0001
0000
1000
0001
,
0100
0000
0010
1000
0010
0000
0100
0001
,
0100
0010
1000
0001
1000
0000
0001
0100
,
1000
0000
0100
0001
1000
0001
1000
0100
,
0000
1000
0100
1000
0000
0001
1000
0010
,
0100
0010
1000
0001
0100
0010
1000
0001
,
0000
0001
1000
2002
0000
0000
0000
0000
,
3003
0000
0000
0000
;

//---------------dance-single - Copied from----------------
#NOTES:
     dance-single:
     Copied from:
     Medium:
     11:
     0.494,0.777,0.379,0.153,0.061:
0000
0000
0000
0000
,
0000
0000
0000
0000
,
0000
0000
0000
0000
,
0010
0000
0100
0000
0000
0100
0000
0100
0000
0001
0000
1000
0000
0100
0000
0000
,
0100
0000
0001
0000
0100
0000
0001
0100
0000
0000
0000
0000
0000
0000
1001
0000
,
1000
0000
0001
0000
0000
0001
0000
0100
0000
0010
0000
0100
0000
0000
0000
0010
,
0000
0000
0100
0000
0100
0000
0000
1000
0000
0100
0000
0010
0000
0000
0000
0000
,
1100
1100
0101
0101
,
0011
0011
1010
1010
,
0220
0330
0220
0330
0220
0330
0220
0330
,
1000
0010
0001
0100
1000
0100
0010
0000
,
1000
0010
0100
0001
0000
0110
0000
1010
,
0010
0100
1000
0001
0000
0110
0000
1001
,
1000
0100
0010
0001
0000
0110
0000
1000
,
0001
1000
0001
0100
0100
1000
0010
0100
,
0001
1000
0100
1000
0000
1001
0000
0110
,
0000
1000
0010
1000
0000
0100
0001
0010
,
1001
0000
0010
0000
0001
0100
0001
0000
,
1001
0000
0100
0000
1000
0100
1000
0000
,
0010
0100
0010
0000
1000
0000
1000
0000
,
0100
0010
0100
0000
0001
0000
0001
0000
,
1000
1000
0000
0001
0000
1000
0010
0100
,
0000
0001
0101
0000
1000
0010
1000
1000
,
0001
0100
0001
0000
0010
1000
0100
0000
,
1000
0010
1000
0010
0100
0100
0110
0000
,
2002
0000
0000
3003
,
0200
0000
0000
0300
,
1000
1000
0001
0001
,
1000
1000
0001
0001
,
0100
0010
0100
0000
0100
0010
0100
0000
,
1000
0100
1000
0000
0001
0100
0001
0000
,
1000
0000
1000
0000
0001
0100
0001
0000
,
1000
0000
1000
0000
0010
0100
0010
0000
,
1000
0000
1000
0000
0100
1000
0100
0000
,
0001
0001
0100
0000
,
1010
0000
0101
0000
,
0110
0000
1001
0000
,
1001
0000
0020
0230
,
0310
0100
0010
0000
0220
0000
0330
0000
,
1001
0000
0001
0100
0001
0000
1000
0100
,
1000
0000
0010
0000
0100
0000
0001
0100
,
0001
0000
1000
0100
1000
0100
1000
0000
,
0010
0000
0100
0000
1001
0000
0100
0010
,
1000
0000
0001
0100
0001
0000
1000
0100
,
1000
0000
0010
0000
0101
0000
0001
0100
,
0001
0000
1000
0100
1000
0100
1000
0000
,
0010
0100
2002
3003
,
0010
0000
0100
0001
0100
0000
0010
0000
,
1000
0000
0100
1000
0100
0000
1000
0000
,
0001
0000
0100
0001
0100
0001
0100
0000
,
0010
0000
1000
0000
0100
1000
0100
0000
,
0001
0100
0001
0000
1000
0010
1000
0000
,
0001
0010
0001
0000
1000
0100
1000
0000
,
0010
0010
0010
0000
0100
0100
0100
0000
,
0001
0100
1000
0010
,
0001
0001
0000
0100
0000
1000
0100
0001
,
0000
0010
0000
1000
0000
0001
0100
0000
,
1100
0100
0101
0100
,
1100
0100
0101
0100
,
0110
1001
0110
1000
,
0010
0000
0000
0010
0000
0000
0010
0000
0000
0000
0000
0000
1001
0000
0000
0000
,
0010
0000
1000
0000
0100
1000
0100
1000
,
0000
0001
0000
0100
0000
0010
0000
1000
,
1000
0000
0001
0000
0100
0000
0001
1000
,
0000
0010
0000
0100
0000
1000
0001
0000
,
1000
0000
0100
0000
0000
1000
0001
1000
,
0000
0010
0000
0100
0000
0001
0000
1000
,
1000
0000
0001
0000
0100
0000
0010
1000
,
0100
1100
0101
1000
,
0010
0000
0100
0010
0100
0000
0001
0000
,
1000
0100
1000
0000
0001
0000
0100
0010
,
0100
0001
1000
0100
,
1000
0001
1000
0001
1000
0000
0010
0000
,
0100
0000
0001
1000
0001
0000
0100
0010
,
0000
1000
0100
1000
0000
0000
0010
0000
,
0110
0000
0001
0000
1000
0000
0000
0100
,
0000
0000
0000
2002
0000
0000
0000
0000
,
3003
0000
0000
0000
;

//---------------dance-single - ----------------
#NOTES:
     dance-single:
     :
     Easy:
     7:
     0.334,0.404,0.250,0.283,0.000:
0000
0000
0000
0000
,
0000
0000
0000
0000
,
0000
0000
0000
0000
,
0020
0030
0200
0300
,
0001
0100
1000
0000
,
0200
0300
0020
0030
,
1000
0100
0010
0001
,
1000
1000
0001
0001
,
0010
0010
0100
0100
,
1001
1001
1001
1001
,
1000
0001
1000
0000
0001
1000
0001
0000
,
1000
1001
0020
0130
,
0001
1001
0200
0310
,
1000
1001
0010
0110
,
2000
3002
0203
0310
,
2000
3100
0010
0001
,
0002
0013
0100
1000
,
0020
0000
0030
0000
,
0200
0000
0300
0000
,
0002
0003
2000
3000
,
0020
0000
0030
0000
,
0200
0300
0001
1000
,
0001
0001
1000
1000
,
0001
1000
0010
0010
,
1000
0001
0100
0100
,
2002
0000
0000
0000
,
3003
0000
0000
0000
,
0020
0030
0020
0030
,
0020
0030
0020
0030
,
0001
0100
1000
0000
,
0001
0100
1000
0000
,
0001
1000
0001
1000
,
0001
1000
0001
1000
,
0010
0010
0100
0100
,
0001
0001
0001
0000
,
1001
0000
0110
0000
,
1001
0000
0110
0000
,
1001
0000
2000
0002
,
0000
0000
3003
0000
,
0010
1000
0010
1000
,
0001
0001
1001
0000
,
0010
0001
0010
0001
,
1000
1000
1001
0000
,
0100
0010
0100
0010
,
1000
0100
1001
0000
,
0010
0100
0010
0100
,
0001
0100
1001
0000
,
0020
1000
0000
0001
,
0000
1000
2000
3030
,
0200
0001
0000
1000
,
0000
0001
0002
0303
,
0010
1000
0010
0001
,
1000
0100
0001
0100
,
0001
0010
0100
1000
,
0010
0010
0220
0330
,
1001
0000
0000
0000
,
0000
0000
0000
0000
,
1001
0000
0110
0000
,
1001
0000
0110
0000
,
1000
0100
0010
0001
,
2002
0000
0000
3003
,
0010
0010
0100
0100
,
0001
0010
0100
1000
,
0010
0010
0100
0100
,
1000
0100
0010
0001
,
1000
0001
1000
0001
,
0010
1000
0100
0001
,
1000
0001
1000
0001
,
0010
0001
0100
1000
,
0010
0010
0100
0100
,
0001
0100
1001
0000
,
0110
0000
1001
0000
,
1000
0100
0001
0000
,
0110
0000
0000
0000
1000
0000
0001
1000
,
0000
0000
0001
1000
0000
0000
0000
0000
,
0010
0000
0100
0000
1000
0000
0000
1001
,
0000
0000
0000
2002
0000
0000
0000
0000
,
3003
0000
0000
0000
;

//---------------dance-single - Copied from ----------------
#NOTES:
     dance-single:
     Copied from:
     Beginner:
     5:
     0.212,0.280,0.145,0.081,0.000: // measure 1
0000
0000
0000
0000
,  // measure 2
0000
0000
0000
0000
,  // measure 3
0000
0000
0000
0000
,  // measure 4
0010
0000
0100
0000
,  // measure 5
0010
0010
0010
0000
,  // measure 6
0100
0000
0010
0000
,  // measure 7
0100
0100
0100
0000
,  // measure 8
1000
0000
0001
0000
,  // measure 9
0100
0000
0010
0000
,  // measure 10
1000
1000
1000
1000
,  // measure 11
2000
0000
3000
0000
,  // measure 12
0100
0100
0000
0100
,  // measure 13
0000
0010
0000
0010
,  // measure 14
0000
1000
0000
1000
,  // measure 15
0000
0001
0001
0001
,  // measure 16
0000
1000
0000
0001
,  // measure 17
0000
1000
0000
0001
,  // measure 18
0000
0000
0100
0000
,  // measure 19
0100
0000
0100
0000
,  // measure 20
0100
0000
0100
0000
,  // measure 21
0200
0000
0300
0000
,  // measure 22
1001
0000
0000
1000
,  // measure 23
0000
0001
0000
1000
,  // measure 24
0000
0010
0000
0100
,  // measure 25
0000
0010
0010
0010
,  // measure 26
0020
0000
0030
0000
,  // measure 27
0000
0000
0000
0000
,  // measure 28
0010
0000
0010
0000
,  // measure 29
0100
0000
0100
0000
,  // measure 30
0010
0000
0100
0000
,  // measure 31
0010
0010
0010
0000
,  // measure 32
0001
0001
0001
0000
,  // measure 33
1000
1000
1000
0000
,  // measure 34
0010
0010
0010
0000
,  // measure 35
0100
0100
0100
0000
,  // measure 36
1001
0000
0110
0000
,  // measure 37
1001
0000
0110
0000
,  // measure 38
1001
0000
2002
0000
,  // measure 39
0000
0000
3003
0000
,  // measure 40
0010
0000
0010
0000
,  // measure 41
0001
0001
0000
0000
,  // measure 42
0010
0000
0010
0000
,  // measure 43
1000
1000
1000
0000
,  // measure 44
0100
0000
0100
0000
,  // measure 45
0010
0010
0010
0000
,  // measure 46
0100
0100
0100
0000
,  // measure 47
1001
0000
1001
0000
,  // measure 48
0000
1000
0000
0001
,  // measure 49
0000
1000
0000
0001
,  // measure 50
0000
0100
0000
0010
,  // measure 51
0000
0100
0100
0100
,  // measure 52
0000
1000
0000
0001
,  // measure 53
0000
0100
0000
0010
,  // measure 54
0000
0010
0010
0010
,  // measure 55
0000
0000
0000
0000
,  // measure 56
1001
0000
0000
0000
,  // measure 57
0000
0000
0000
0000
,  // measure 58
1001
0000
0110
0000
,  // measure 59
1001
0000
0110
0000
,  // measure 60
0010
0010
0010
0000
,  // measure 61
2002
0000
3003
0000
,  // measure 62
0010
0010
0000
0010
,  // measure 63
0000
0100
0000
0100
,  // measure 64
0000
0001
0001
0001
,  // measure 65
0000
1000
1000
1000
,  // measure 66
0000
0001
0000
0001
,  // measure 67
0000
1000
0000
1000
,  // measure 68
1000
0000
0001
0000
,  // measure 69
0010
0010
0010
0000
,  // measure 70
0100
0000
0010
0000
,  // measure 71
1000
1000
1000
0000
,  // measure 72
0010
0000
0100
0000
,  // measure 73
0001
0001
0001
0000
,  // measure 74
0110
0000
0020
0000
,  // measure 75
0030
0000
0000
1001
0000
0000
0000
0000
,  // measure 76
0010
0000
0000
0000
0000
0000
0000
0010
,  // measure 77
0000
0000
0000
2002
0000
0000
0000
0000
,  // measure 78
3003
0000
0000
0000
;
