#TITLE:VOX RUSH;
#SUBTITLE:;
#ARTIST:青龍 x sampling masters MEGA & sampling masters AYA;
#TITLETRANSLIT:;
#SUBTITLETRANSLIT:;
#ARTISTTRANSLIT:Seiryu x sampling masters MEGA & sampling masters AYA;
#GENRE:;
#CREDIT:;
#MENUCOLOR:;
#METERTYPE:DDR;
#BANNER:VOX RUSH-jacket.png;
#BACKGROUND:VOX RUSH-bg.png;
#LYRICSPATH:;
#CDTITLE:;
#MUSIC:VOX RUSH.ogg;
#OFFSET:-0.558;
#SAMPLESTART:24.300;
#SAMPLELENGTH:15.000;
#SELECTABLE:YES;
#LISTSORT:;
#DISPLAYBPM:202.000;
#BPMS:0.000=202.000,255.000=208.000,256.000=202.000,430.000=196.400,432.000=202.000;
#STOPS:;
#BGCHANGES:;
#ATTACKS:;

//---------------dance-single - ----------------
#NOTES:
     dance-single:
     :
     Hard:
     15:
     0.817,0.776,0.387,0.064,0.283:
0000
0000
0000
0000
,
0000
0000
0000
0000
,
0000
0000
0000
0000
,
0000
0000
0000
0000
,
0010
0000
0000
1000
0000
0000
0020
0000
0000
0000
0130
0000
0001
0000
0100
0000
,
0010
0000
0000
0100
0000
0000
0020
0000
0000
0000
1030
0000
0001
0000
1000
0000
,
0010
0000
0000
1000
0000
0000
0200
0000
0000
0000
1300
0000
0010
0000
0100
0000
,
0010
0000
0000
0000
0100
0001
0000
0100
0001
0000
0100
0000
0010
0000
0000
0000
,
1000
0100
1000
0001
1000
0100
1000
0000
,
0001
0100
0001
1000
0001
0100
0001
0000
,
1000
0010
1000
0001
1000
0010
1000
0000
,
0001
0010
0001
0100
0001
0010
0001
0000
,
1000
1000
0010
1000
0100
1000
1000
0000
,
0001
0001
0100
0001
0010
0001
0001
0000
,
1000
1000
0001
1000
0100
1000
0001
0000
,
1000
0000
1000
0000
0001
0100
0000
0001
0100
0000
0001
0000
0100
0000
0010
0000
,
1000
0000
1000
0000
0001
0100
0000
0001
0100
0000
0010
0000
1000
0000
0100
0000
,
1000
0000
1000
0000
0010
0100
0000
0010
0100
0000
0001
0000
0100
0000
0010
0000
,
1000
0000
1000
0000
0100
1000
0000
0100
1000
0000
0010
0000
0100
0000
0001
0000
,
0010
0000
0010
0000
0001
0010
0000
0001
0010
0000
0001
0000
0100
0000
0000
0000
,
1000
0010
0100
0010
1000
0100
1000
0100
,
1000
0001
0100
0001
0100
0010
0100
0010
,
0100
0001
1000
0001
0010
0001
0010
0001
,
0100
0010
0100
0010
1000
0001
1000
0001
,
1000
0010
0100
0010
1000
0001
1000
0001
,
0100
0001
0100
0010
0100
0001
0100
0001
,
1000
0100
1000
0010
1000
0100
1000
0100
,
1000
0000
0001
0000
0100
0010
0000
0100
0010
0000
0100
0000
0010
0000
0010
0000
,
1000
0000
0000
0100
1000
0000
0010
0000
0100
0000
0100
0000
0010
0000
0100
0000
,
0001
0000
0000
0100
0001
0000
0100
0000
0010
0000
0010
0000
0100
0000
0010
0000
,
1000
0000
0000
0010
1000
0000
0010
0000
0100
0000
0100
0000
0010
0000
1000
0000
,
0001
0100
0010
0100
0001
0001
1000
1000
,
0001
0000
0000
0100
0001
0000
0100
0000
0010
0000
0010
0000
0100
0000
0001
0000
,
0100
0000
0000
0010
1000
0000
0010
0000
0100
0000
0100
0000
0010
0000
1000
0000
,
0010
0000
0000
1000
0100
0000
1000
0000
0010
0000
0010
0000
0100
0000
0100
0000
,
0001
0000
1000
0000
0001
1000
0000
0001
1000
0000
0010
0000
0100
0000
0010
0000
,
1000
0000
0100
0000
1000
0100
0000
1000
0100
0000
0000
1000
0000
0000
0010
0000
,
0010
0000
0100
0010
0000
0000
0100
0000
0001
0000
0100
0001
0000
0000
0100
0000
,
0010
0000
1000
0000
0100
1000
0000
0100
1000
0000
0000
0010
0000
0000
0100
0000
,
0001
0000
0100
0001
0000
0000
1000
0000
0001
0000
1000
0001
0000
0000
1000
0000
,
0010
0000
0100
0000
0001
0100
0000
0001
0100
0000
0000
0001
0000
0000
1000
0000
,
1000
0000
0001
1000
0000
0000
0001
0000
1000
0000
0001
1000
0000
0000
0010
0000
,
0100
0000
0001
0000
1000
0001
0000
1000
0100
0000
0000
0001
0000
0000
1000
0000
,
0010
0000
0100
0010
0000
0000
0100
0000
0010
0000
0100
0001
0000
0000
1000
0000
,
0000
1100
0000
1100
0000
0101
0000
0101
,
0100
0110
0000
0110
0010
1010
0000
1100
,
0000
0101
0000
0101
0000
1001
0000
1100
,
1000
1100
0000
0101
0001
0101
0000
0110
,
1000
0100
1000
0100
0001
0100
0001
0100
,
1000
0010
1000
0010
0001
0010
0001
0010
,
1000
0100
1000
0100
0010
0001
0010
0001
,
0100
0000
0000
0100
0000
0000
0100
0000
0010
0000
0000
0010
0000
0000
0010
0000
,
1010
0000
0000
0101
0000
0101
0000
0000
,
1000
0100
0010
0000
1001
0000
0110
0000
,
0001
0000
0000
0100
0000
0000
0010
0000
0000
0000
1001
0000
0000
0000
0000
0000
,
1000
0100
1000
0000
0101
0000
1100
0000
,
0101
0000
0000
0110
0000
0110
0000
0000
,
0001
0100
0010
0000
1001
0000
0110
0000
,
1000
0000
0000
0100
0000
0000
0001
0000
0000
0000
0101
0000
0000
0000
0000
0000
,
2000
3002
0203
0320
,
1030
0000
0000
1000
0000
0000
0001
0000
0000
0001
0000
0000
0100
0000
0010
0000
,
1000
0000
0000
1000
0000
0000
0001
0000
0000
0001
0000
0000
0100
0000
0010
0000
,
1000
0000
0000
1000
0000
0000
0100
0000
0000
0100
0000
0000
0010
0000
0001
0000
,
1000
0000
0000
1000
0000
0000
0100
0000
0000
0100
0000
0000
0010
0000
0001
0000
,
0100
0010
0100
0010
1000
0001
1001
0000
,
0010
0100
0010
0100
0001
1000
1001
0000
,
1000
0100
1000
0000
0001
0100
0001
0000
,
1000
0000
0001
0000
1000
0010
0000
0010
1000
0000
0001
0000
1000
0000
0001
0000
,
1000
0000
0001
0000
1000
0010
0000
0010
1000
0000
0001
0000
1000
0000
0001
0000
,
1000
0000
0100
0000
1000
0001
0000
0001
1000
0000
0100
0000
1000
0000
0100
0000
,
1000
0000
0010
0000
1000
0001
0000
0001
1000
0000
0010
0000
1000
0000
0010
0000
,
1000
0000
0001
0000
1000
0001
0000
1000
0001
0000
0100
0000
0100
0000
0000
0000
,
1001
0100
1000
0001
,
0100
1000
0010
0100
,
0001
0010
1000
0001
,
0010
1000
0010
0100
,
0001
0010
0100
0001
,
0010
0100
0010
1000
,
0001
0100
0010
0100
,
0010
0010
1001
0000
,
1001
1000
0000
0000
1001
0001
0000
0000
,
1100
1000
0000
0000
0011
0001
0000
0000
,
1001
1000
0000
0000
1001
0001
0000
0000
,
0011
0000
0100
0010
0100
0010
0110
0000
,
1001
1000
0000
0000
1001
0001
0000
0000
,
1100
0000
0010
0000
0010
0100
0110
0000
,
1010
0010
0000
0000
0011
0010
0000
0000
,
1000
0100
0010
0001
0100
0010
0100
0000
,
1000
0000
0100
0000
1000
0010
0000
0010
1000
0000
0001
0000
0100
0000
0001
0000
,
1000
0000
0010
0000
1000
0100
0000
0100
1000
0000
0010
0000
0100
0000
0010
0000
,
1000
0000
0001
0000
0100
0010
0000
0010
0100
0000
0001
0000
1000
0000
0100
0000
,
1000
0000
0001
0000
0100
0010
0000
0010
0100
0000
0001
0000
1000
0000
0100
0000
,
1000
0000
0100
0000
1000
0010
0000
0010
1000
0000
0001
0000
0100
0000
0010
0000
,
0100
0000
0001
0000
1000
0001
0000
0001
1000
0000
0010
0000
0100
0000
0010
0000
,
1000
0100
0010
0001
1000
0100
0010
0001
,
0100
0010
0100
0010
0100
0000
1001
0000
,
1000
0100
1000
0100
1000
0100
0001
0100
,
0001
0100
0001
0100
1000
0100
0001
0100
,
0001
0010
0001
0010
0001
0010
1000
0010
,
1000
0010
1000
0010
0001
0010
1000
0010
,
0100
0001
0100
0010
0100
0001
1000
0100
,
0010
0100
1000
0100
1000
0010
0100
0001
,
0010
0001
0100
0001
0010
0001
1000
0100
,
1000
0010
1000
0100
1000
0001
0010
0000
,
1000
0001
0100
0010
1000
0001
1000
0000
,
0001
1000
0010
0100
0001
1000
0001
0000
,
1000
0100
1000
0100
0010
0001
0010
0000
,
0001
0100
0001
0100
0010
1000
0010
0000
,
1000
0100
0001
0000
0001
0100
1000
0000
,
0001
0010
1000
0000
1000
0010
0001
0000
,
0100
0010
0100
0010
1000
0001
1000
0000
,
0101
1100
0011
1010
,
2002
0000
0000
0000
,
0000
0000
0000
0000
,
3003
0000
0000
0000
;

//---------------dance-single - ----------------
#NOTES:
     dance-single:
     :
     Medium:
     12:
     0.599,0.654,0.337,0.158,0.000:
0000
0000
0000
0000
,
0000
0000
0000
0000
,
0000
0000
0000
0000
,
0000
0000
0000
0000
,
0020
0000
0030
0000
1000
0001
1000
0000
,
0200
0000
0300
0000
0001
1000
0001
0000
,
0020
0000
0030
0000
1000
0001
1000
0000
,
0001
0100
0001
0000
1000
0100
1000
0000
,
0010
0000
0010
0000
1000
0100
1000
0000
,
0010
0000
0010
0000
0001
0100
0001
0000
,
0010
0000
0010
0000
1000
0100
1000
0000
,
0010
0000
0010
0000
0001
0100
0001
0000
,
1000
0100
1000
0100
1000
0100
1000
0000
,
0001
0100
0001
0100
0001
0100
0001
0000
,
1000
0010
1000
0010
1000
0010
1000
0000
,
0010
0000
0010
0000
1000
0001
1000
0000
,
0010
0000
0010
0000
1000
0001
1000
0000
,
0010
0000
0010
0000
1000
0001
1000
0000
,
1000
0000
1000
0000
0100
0010
0100
0000
,
0001
0001
0100
1001
,
0010
0000
0010
0000
1000
0001
1000
0000
,
0100
0000
1001
0000
0010
0100
0010
0000
,
1000
0000
1000
0000
0001
0100
0001
0000
,
0010
0000
0110
0000
1000
0001
1000
0000
,
0010
0001
0010
0000
1000
0100
1000
0000
,
0010
0100
0010
0000
1000
0100
1000
0000
,
0001
0100
0001
0000
1000
0010
1000
0000
,
0010
0100
0010
0100
0010
0100
0010
0000
,
1000
0100
1000
0000
0001
0100
0001
0000
,
1000
0010
1000
0010
1000
0010
1000
0000
,
0001
0010
0001
0000
1000
0100
1000
0000
,
0010
0100
0001
0100
0010
0100
0010
0000
,
1000
0100
1000
0000
0001
0001
0001
0000
,
0100
0010
0100
0001
0100
0010
0100
0000
,
0001
0010
0001
0000
1000
1000
1000
0000
,
0101
1100
0101
1100
,
0010
0100
0010
0000
1000
0001
1000
0000
,
0001
0001
1000
1000
,
1000
0100
1000
0000
0010
0001
0010
0000
,
0100
0100
0001
0001
,
0100
0010
0100
0000
0001
1000
0001
0000
,
1000
1000
0010
0010
,
0100
0010
0100
0000
0001
1000
0001
0000
,
1100
1100
0101
0101
,
1000
0100
0000
0100
0000
0100
0000
0100
,
1000
0010
0000
0010
0001
0100
0000
0100
,
0001
1000
0000
1000
0000
1000
0000
1000
,
0001
0010
0000
0010
0100
1000
0000
1000
,
0001
0100
0000
0101
0000
0101
0000
0100
,
0010
1000
0000
1000
0001
0100
0000
0100
,
0010
0100
0000
0110
0000
0110
0000
1000
,
0001
0100
0001
1000
0001
0100
0001
0000
,
1001
0000
0000
0110
0000
0110
0000
0000
,
1001
0000
0000
0000
,
0110
0000
0000
1001
0000
1001
0000
0000
,
1100
0000
0101
0000
,
1001
0000
0000
0110
0000
0110
0000
0000
,
1001
0000
0000
0000
,
0101
0000
0000
1100
0000
1100
0000
0000
,
0011
0110
1100
0000
,
0002
0000
0000
0103
0000
0000
0000
0000
,
2000
0000
0000
3100
0000
0000
0000
0000
,
0002
0000
0000
0103
0000
0000
0000
0000
,
2000
0000
0000
3100
0000
0000
0000
0000
,
0010
0000
0100
0000
0001
0100
0001
0000
,
0100
0000
0010
0000
1000
0100
1000
0000
,
0001
0000
0100
0000
1000
0100
1000
0000
,
0010
0000
0010
0000
1000
0001
0100
0000
,
0010
0000
0010
0000
1000
0001
0100
0000
,
0010
0000
0010
0000
1000
0001
0100
0000
,
1000
0100
1000
0000
0010
0100
0010
0000
,
0100
0001
0100
0001
0100
0001
0100
0000
,
2002
0000
0000
0000
,
3003
0000
0020
0030
,
2002
0000
0000
0000
,
3003
0000
0200
0300
,
2002
0000
0000
0000
,
3003
0000
0020
0030
,
2002
0000
0000
3003
,
0020
0230
0310
0000
,
1000
0100
1000
0100
1000
0100
1000
0000
,
0001
0100
0001
0100
0001
0100
0001
0000
,
1000
0010
1000
0010
1000
0010
1000
0000
,
0001
0010
0001
0010
0001
0010
0001
0000
,
1000
0001
1000
0001
1000
0001
1000
0000
,
0010
0100
0010
0100
0010
0100
0010
0000
,
1000
0100
1000
0000
0001
0100
0001
0000
,
1000
0001
1000
0001
1000
0000
1001
0000
,
0010
0010
0010
1001
,
0100
0100
0100
1001
,
0010
0010
0010
1001
,
0100
0100
0100
1001
,
0010
0100
0010
0000
0100
0000
1001
0000
,
0010
0100
0010
0000
0100
0000
1001
0000
,
1000
0100
1000
0000
0001
0100
0001
0000
,
1000
0010
1000
0000
0001
0000
0101
0000
,
1000
0010
0100
0001
,
1000
0000
0010
0000
1000
0001
1000
0000
,
0001
0100
0010
1000
,
0001
0000
0100
0000
0010
0100
0010
0000
,
1000
0001
0100
0010
,
1000
0000
0001
0000
1000
0100
1000
0000
,
0001
1000
0010
0100
,
0001
0000
0100
0000
1000
0001
1000
0000
,
0010
0100
0010
0000
1000
0100
1000
0000
,
0001
0100
0001
0100
0001
0000
1000
0000
,
0100
1000
0100
0000
0001
0100
0001
0000
,
1000
0010
1000
0010
1000
0000
0010
0000
,
0100
0010
0100
0000
0001
1000
0001
0000
,
1000
0100
1000
0100
1000
0000
0010
0000
,
0001
0100
0001
0000
1000
0100
1000
0000
,
0010
0100
0001
1000
,
2002
0000
0000
0000
,
0000
0000
0000
0000
,
3003
0000
0000
0000
;

//---------------dance-single - ----------------
#NOTES:
     dance-single:
     :
     Easy:
     8:
     0.488,0.613,0.459,0.380,0.000:
0000
0000
0000
0000
,
0000
0000
0000
0000
,
0000
0000
0000
0000
,
0000
0000
0000
0000
,
0020
0000
0030
0000
,
0200
0000
0300
0000
,
0002
0000
0003
0000
,
1000
0100
0001
0000
,
0010
0010
1000
0001
,
0010
0010
0001
1000
,
0010
0010
1000
0001
,
0010
0010
0001
1000
,
0110
0110
0002
0003
,
0110
0110
2000
3000
,
0110
0110
0002
0003
,
1000
0100
0010
0001
,
1000
0100
0010
0001
,
1000
0100
0010
0001
,
1000
1000
0010
0010
,
0100
0100
0001
0001
,
0010
0100
2002
3003
,
0100
0010
2002
3003
,
0010
0100
2002
3003
,
0100
0100
0101
1100
,
0010
1000
2002
3003
,
0010
0001
2002
3003
,
0100
0010
2002
3003
,
0010
0010
0011
1010
,
0001
0100
0001
1001
,
1000
0100
1000
1001
,
0010
0100
0001
1001
,
0010
0100
1000
1001
,
0100
0100
1001
1001
,
0010
0010
1001
1001
,
0100
1001
0010
1001
,
0110
0110
1001
1001
,
0010
1000
0010
1000
,
0001
0100
0001
0100
,
1000
0100
1000
0100
,
0001
0010
0001
0010
,
1000
0001
1000
0001
,
0100
0010
0100
0010
,
1000
0001
1000
0001
,
0100
0010
0100
0010
,
0000
0010
0000
0010
0000
0010
0000
0010
,
0000
0010
0000
0010
0000
0010
0010
0010
,
0000
0100
0000
0100
0000
0100
0000
0100
,
0000
0100
0000
0100
0000
0100
0100
0100
,
0000
0001
0000
0001
0000
0001
0000
0001
,
0000
1000
0000
1000
0000
1000
1000
1000
,
0000
0001
0000
0001
0000
1000
0000
1000
,
0001
0000
1000
0000
0001
1000
0001
0000
,
0100
0000
0000
0100
0000
0000
0000
0000
,
1001
0000
0000
0000
,
0010
0000
0000
0010
0000
0000
0000
0000
,
1001
0000
0000
0000
,
0100
0000
0000
0100
0000
0000
0000
0000
,
1001
0000
0000
0000
,
0010
0000
0000
0010
0000
0000
0000
0000
,
1001
0000
0000
0000
,
2000
0000
0000
3001
0000
0000
0000
0000
,
2000
0000
0000
3001
0000
0000
0000
0000
,
2000
0000
0000
3001
0000
0000
0000
0000
,
2000
0000
0000
3001
0000
0000
0000
0000
,
1000
0010
1001
0000
,
0001
0010
1001
0000
,
0010
0110
1001
0000
,
0010
0010
0010
1001
,
0010
0010
0010
1001
,
0010
0010
0010
1001
,
1000
1000
0100
0100
,
0010
0010
0001
1001
,
0200
0000
0000
0300
,
0002
0003
2000
3000
,
0020
0000
0000
0030
,
2000
3000
0002
0003
,
0200
0000
0000
0300
,
0002
0003
2000
3000
,
0020
0000
0000
0030
,
2000
3002
0203
0300
,
0010
0010
1000
1000
,
0010
0010
0001
0001
,
0010
0010
1000
1000
,
0010
0010
0001
0001
,
0010
1000
0001
0001
,
0010
0001
1000
1000
,
0010
1000
0001
0001
,
0100
0100
0100
1001
,
0010
0010
2002
3003
,
0010
0010
2002
3003
,
0100
0100
2002
3003
,
0100
0100
2002
3003
,
0001
0100
2002
3003
,
1000
0100
2002
3003
,
0001
0010
2002
3003
,
1000
0010
2002
3003
,
1000
0100
1000
0100
,
1000
0010
0100
0001
,
0010
0001
0010
0001
,
0010
0001
1000
0100
,
0010
0100
0010
0100
,
0001
1000
0100
0010
,
1000
0001
1000
0001
,
0100
0010
1000
0100
,
0001
0001
0101
0001
,
1000
1000
1100
1000
,
0010
0010
0110
0010
,
1000
1000
1001
1000
,
0010
0010
1010
0011
,
0100
0100
0101
1100
,
0110
0110
1001
1001
,
1000
0100
0010
0001
,
2002
0000
0000
0000
,
0000
0000
0000
0000
,
3003
0000
0000
0000
;

//---------------dance-single - ----------------
#NOTES:
     dance-single:
     :
     Beginner:
     5:
     0.228,0.281,0.043,0.072,0.000: // measure 1
0000
0000
0000
0000
,  // measure 2
0000
0000
0000
0000
,  // measure 3
0000
0000
0000
0000
,  // measure 4
0000
0000
0000
0000
,  // measure 5
0010
0000
0000
0000
,  // measure 6
0010
0000
0000
0000
,  // measure 7
0010
0000
0000
0000
,  // measure 8
0010
0010
0010
0000
,  // measure 9
1000
0000
0000
0000
,  // measure 10
0001
0000
0000
0000
,  // measure 11
1000
0000
0000
0000
,  // measure 12
0001
0001
0001
0000
,  // measure 13
1000
0000
0000
0000
,  // measure 14
0001
0000
0000
0000
,  // measure 15
1000
0000
0000
0000
,  // measure 16
0010
0010
0010
0000
,  // measure 17
0010
0010
0010
0000
,  // measure 18
0010
0010
0010
0000
,  // measure 19
0100
0100
0100
0000
,  // measure 20
0100
0100
0100
0000
,  // measure 21
0001
0000
0001
0001
,  // measure 22
0001
0000
0001
0000
,  // measure 23
1000
0000
1000
1000
,  // measure 24
1000
0000
1000
0000
,  // measure 25
0001
0000
0001
0001
,  // measure 26
0001
0000
0001
0000
,  // measure 27
1000
0000
1000
1000
,  // measure 28
2000
0000
3000
0000
,  // measure 29
0010
0000
0010
0000
,  // measure 30
0100
0000
0100
0000
,  // measure 31
0010
0000
0010
0000
,  // measure 32
0100
0000
0100
0000
,  // measure 33
0010
0010
0010
0000
,  // measure 34
0100
0100
0100
0000
,  // measure 35
0010
0010
0010
0000
,  // measure 36
0100
0100
0100
0000
,  // measure 37
0000
0001
0000
0001
,  // measure 38
0000
1000
0000
1000
,  // measure 39
0000
0001
0000
1000
,  // measure 40
0000
0001
0000
1000
,  // measure 41
0000
0010
0000
0010
,  // measure 42
0000
0100
0000
0100
,  // measure 43
0000
0010
0000
0100
,  // measure 44
0000
0010
0000
0100
,  // measure 45
0000
0001
0001
0001
,  // measure 46
0000
1000
0000
0001
,  // measure 47
0000
1000
1000
1000
,  // measure 48
0000
0001
0000
1000
,  // measure 49
0000
0010
0010
0010
,  // measure 50
0000
0100
0000
0010
,  // measure 51
0000
0100
0100
0100
,  // measure 52
0100
0000
0100
0000
,  // measure 53
1001
0000
0000
0000
,  // measure 54
0000
0000
0000
0000
,  // measure 55
1001
0000
0000
0000
,  // measure 56
0010
0010
0010
0000
,  // measure 57
1001
0000
0000
0000
,  // measure 58
0000
0000
0000
0000
,  // measure 59
1001
0000
0000
0000
,  // measure 60
0010
0010
0010
0000
,  // measure 61
0100
0000
0100
0000
,  // measure 62
0100
0000
0100
0000
,  // measure 63
0100
0000
0100
0000
,  // measure 64
0100
0000
0100
0000
,  // measure 65
0001
0001
0001
0000
,  // measure 66
1000
1000
1000
0000
,  // measure 67
0001
0001
0001
0000
,  // measure 68
0200
0000
0300
0000
,  // measure 69
0200
0000
0300
0000
,  // measure 70
0200
0000
0300
0000
,  // measure 71
0100
0000
0100
0000
,  // measure 72
0100
0100
0100
0000
,  // measure 73
2002
0000
0000
0000
,  // measure 74
3003
0000
0000
0000
,  // measure 75
0000
0000
0000
0000
,  // measure 76
0000
0000
0000
0000
,  // measure 77
0000
0000
0000
0000
,  // measure 78
0000
0000
0000
0000
,  // measure 79
0000
0000
0000
0000
,  // measure 80
0000
0000
0000
0000
,  // measure 81
0100
0000
0100
0000
,  // measure 82
0010
0000
0010
0000
,  // measure 83
0100
0000
0100
0000
,  // measure 84
0010
0000
0010
0000
,  // measure 85
1000
0000
1000
0000
,  // measure 86
0001
0000
0001
0000
,  // measure 87
1000
0000
1000
0000
,  // measure 88
0001
0000
0001
0000
,  // measure 89
0200
0000
0300
0000
,  // measure 90
0200
0000
0300
0000
,  // measure 91
0200
0000
0300
0000
,  // measure 92
0200
0000
0300
0000
,  // measure 93
0100
0000
0100
0000
,  // measure 94
0100
0000
0100
0000
,  // measure 95
0100
0100
0100
0000
,  // measure 96
0100
0000
0100
0000
,  // measure 97
1000
0000
0001
0000
,  // measure 98
1000
0000
0001
0000
,  // measure 99
0100
0000
0010
0000
,  // measure 100
0100
0000
0010
0000
,  // measure 101
1000
0000
0100
0000
,  // measure 102
0010
0000
0001
0000
,  // measure 103
1000
0000
0100
0000
,  // measure 104
0010
0000
0001
0000
,  // measure 105
0100
0100
0100
0000
,  // measure 106
0100
0000
0100
0000
,  // measure 107
0010
0010
0010
0000
,  // measure 108
0010
0000
0010
0000
,  // measure 109
1000
1000
1000
0000
,  // measure 110
0001
0001
0001
0000
,  // measure 111
1000
0000
0001
0000
,  // measure 112
1000
0000
0001
0000
,  // measure 113
1001
0000
0000
0000
;
