#TITLE:Usual Days-remix;
#SUBTITLE:;
#ARTIST:ota2;
#TITLETRANSLIT:;
#SUBTITLETRANSLIT:;
#ARTISTTRANSLIT:;
#GENRE:;
#CREDIT:;
#BANNER:Usual Days-remix.png;
#BACKGROUND:Usual Days-remix-bg.png;
#LYRICSPATH:;
#CDTITLE:;
#MUSIC:Usual Days-remix.ogg;
#OFFSET:-0.076000;
#SAMPLESTART:68.700195;
#SAMPLELENGTH:15.999994;
#SELECTABLE:YES;
#DISPLAYBPM:139.000000;
#BPMS:0.000000=140.000000
,16.000000=139.500000
,17.000000=138.600006
,35.000000=138.399994
,64.500000=139.000000
,67.000000=143.000000
,69.000000=139.000000
,157.000000=139.020004
,158.000000=139.000000
,188.000000=135.000000
,189.500000=138.979996
,190.500000=139.000000
;
#STOPS:
;
#BGCHANGES:0.000=Usual Days-remix.avi=1.000=0=0=1=====,
99999=-nosongbg-=1.000=0=0=0 // don't automatically add -songbackground-
;
#KEYSOUNDS:;
#ATTACKS:;

//---------------dance-single - ----------------
#NOTES:
     dance-single:
     :
     Hard:
     13:
     0.515251,0.603381,0.008588,0.283388,0.360676,420.000000,419.000000,1.000000,33.000000,0.000000,0.000000,0.515251,0.603381,0.008588,0.283388,0.360676,420.000000,419.000000,1.000000,33.000000,0.000000,0.000000:
0000
0000
0000
0000
,
0000
0000
0000
0000
,
0000
0000
0000
0000
,
0000
0000
0000
0000
,
1000
0100
1000
0000
0001
0100
0001
0000
,
1000
0010
1000
0000
0001
0010
0001
0000
,
1000
0010
0100
0000
0001
0100
0010
0000
,
1000
0001
1000
0000
0001
1000
0001
0000
,
1000
0100
1000
0000
0010
0010
0100
0000
,
0001
0100
0001
0000
0100
0100
0010
0000
,
1000
0100
1000
0000
0001
0001
1000
0000
,
0001
0100
0001
0000
1000
1000
0001
0000
,
1000
0100
1000
0000
0100
0000
0000
0000
1000
0000
0001
0000
1000
0000
0000
0000
,
0001
0100
0001
0000
0100
0000
0000
0000
0001
0000
1000
0000
0001
0000
0000
0000
,
0010
0100
0010
0000
0100
0000
0000
0000
0001
0000
1000
0000
0001
0000
0000
0000
,
0100
0010
0100
0000
0010
0000
0000
0000
1000
0000
0001
0000
1000
0000
0001
0000
,
0200
0000
0010
0000
0310
0000
0001
0100
,
0020
0000
0100
0000
0130
0000
1000
0010
,
0200
0301
0020
1030
,
0200
0000
0310
0000
2000
0000
3001
0100
,
0020
0000
1030
0100
2000
0000
3010
0000
,
0200
0000
0301
0010
0001
0010
0002
0000
,
2003
0000
3100
0000
0001
0100
0100
0000
,
0002
0000
0103
0000
1000
0100
1000
0010
,
1000
0000
0100
0000
0000
0000
1000
0001
0000
0000
0001
0000
0100
0000
0010
0000
,
0100
0000
0001
0000
0000
0000
0001
1000
0000
0000
0010
0000
0100
0000
0001
0100
,
0001
0100
0010
1000
0001
0000
1000
0001
,
0100
0000
0010
0000
0100
0000
0002
0000
0000
0000
1000
0000
1003
0000
0010
1000
,
0020
0000
0000
0100
0000
0000
0100
0000
0230
0000
0000
0000
0301
0000
0010
0000
,
0002
0000
0000
1000
0000
0000
1003
0000
2000
0000
0000
0000
3010
0000
0100
0010
,
0100
0000
0000
0100
0000
0000
0001
0000
2000
0000
0000
0000
3002
0000
0000
0000
,
0103
0000
0000
0100
0000
0000
0010
0000
0200
0000
0000
0000
0301
0000
0010
0000
,
1000
0010
1000
0010
1000
0010
1000
0010
,
0100
0001
0100
0001
0100
0001
0100
0001
,
1000
0100
1000
0100
0010
0001
0010
0001
,
0100
0010
0100
0010
1000
0001
1000
0001
,
1000
0010
1000
0010
0100
0010
0100
0010
,
1000
0000
0000
0001
0000
0000
0100
0000
0020
0000
0000
0000
1030
0000
0001
0000
,
1000
0000
0000
0010
0000
0000
0100
0000
0002
0000
0000
0000
0103
0000
0010
0100
,
0020
0000
2030
0000
3100
0010
1000
0100
,
1000
0001
1000
0001
0000
1000
0100
0010
,
0001
0000
0000
0100
0000
0000
0001
0000
2000
0000
0000
0000
3002
0000
0000
0000
,
0103
0000
0000
0010
0000
0000
1000
0000
0200
0000
0000
0000
1300
0000
0010
0000
,
0002
0000
0103
0200
0000
0310
1000
0001
,
1000
0010
0100
0020
0000
1030
0001
1000
,
0001
0000
0000
0010
0000
0000
1000
0000
0200
0000
0000
0000
1300
0000
0010
0000
,
1000
0000
0000
0100
0000
0000
1000
0000
0020
0000
0000
0000
0130
0000
0001
0100
,
0002
0000
0100
0000
0103
0000
0100
0010
,
1000
0000
0001
0000
1000
0000
0001
0100
0000
0001
0000
0100
0001
0000
0000
0000
,
1000
0000
0010
0000
1000
0000
0001
0100
0000
0001
0000
0100
0001
0000
0000
0000
,
1000
0000
0100
0000
1000
0000
0100
1000
0000
1000
0000
0010
0100
0000
0000
0000
,
0001
0000
0100
0000
0001
0000
0100
0010
0000
0010
0000
0100
0001
0000
0000
0000
,
1000
0010
1000
0000
0010
0000
0000
0100
0000
0010
0000
0100
0010
0000
0000
0000
,
0001
0100
0001
0000
0100
0000
0000
0010
0000
0100
0000
0010
0100
0000
0000
0000
,
1000
0010
1000
0000
0010
0000
0000
0100
0000
0010
0000
0100
0010
0000
0000
0000
,
0001
0100
0001
0000
0100
0000
0000
0010
0000
0100
0000
0010
0100
0000
0000
0000
,
1000
0100
1000
0100
1000
0000
0000
0010
0000
0100
0000
0010
0100
0000
0000
0000
,
0001
0100
0001
0100
0001
0000
0000
0100
0000
0010
0000
0100
0010
0000
0000
0000
,
1000
0010
1000
0010
1000
0000
0000
0010
0000
0100
0000
0010
0100
0000
0000
0000
,
0001
0100
0001
0100
0001
0000
0000
0100
0000
0010
0000
0100
0010
0000
0000
0000
,
1000
0100
1000
0100
1000
0000
1000
0001
0000
0100
0000
0001
1000
0000
0000
0000
,
0001
0100
0001
0100
0001
0000
0001
1000
0000
0100
0000
1000
0001
0000
0000
0000
,
1000
0010
1000
0010
1000
0000
0001
1000
0000
0010
0000
1000
0001
0000
0100
0000
,
0010
0100
0001
1000
0010
0100
0001
1001
;

//---------------dance-single - ----------------
#NOTES:
     dance-single:
     :
     Medium:
     7:
     0.279708,0.355846,0.034350,0.300563,0.000000,228.000000,224.000000,4.000000,35.000000,0.000000,0.000000,0.279708,0.355846,0.034350,0.300563,0.000000,228.000000,224.000000,4.000000,35.000000,0.000000,0.000000:
0000
0000
0000
0000
,
0000
0000
0000
0000
,
0000
0000
0000
0000
,
0000
0000
0000
0000
,
0100
0100
0001
1000
,
0010
0010
1000
0001
,
0100
0100
0001
1000
,
0010
0010
1000
0001
,
0200
0300
0001
1001
,
0200
0300
1000
1001
,
0020
0031
2000
3100
,
0020
0130
0002
1003
,
0001
0100
0001
0000
1000
0000
1000
0000
,
0001
0010
0001
0000
1000
0000
1000
0000
,
0100
1000
0100
0000
1000
0000
0010
0000
,
0001
0100
2000
3000
,
0002
0000
0003
0100
,
2000
0000
3000
0100
,
0020
0030
0200
0300
,
0001
0100
1000
0000
,
0020
0000
0030
1000
,
0200
0000
0300
0001
,
2000
3000
0002
0003
,
1000
0100
0001
0100
,
1000
0000
0001
0000
1000
0001
1000
0000
,
0001
0000
1000
0000
0001
1000
0001
0000
,
1000
0100
0010
0001
,
1000
0001
2002
3003
,
0020
0000
0030
0000
0100
0001
0100
0000
,
0020
0000
0030
0000
0010
1000
0010
0000
,
0200
0300
0020
0030
,
2000
0000
3001
0100
,
0002
0000
0000
0003
,
0200
0000
0000
0300
,
2000
0000
0000
3000
,
0020
0000
0000
0030
,
0200
0300
0002
0003
,
2000
3000
0002
0003
,
0100
0010
0200
0300
,
2002
0000
3003
0010
,
1000
0001
1000
0001
0000
0100
0001
0000
,
1000
0100
0010
0001
,
0100
0000
0010
0100
0010
0000
0100
0000
,
0001
0000
1000
0001
1000
0000
0001
0000
,
0100
0001
0100
0001
0000
0000
0100
0000
,
0010
1000
0001
1000
,
0100
0000
0010
0000
0001
0000
0100
0010
,
0200
0300
0002
0003
,
1000
0010
0001
0100
,
0001
0000
0010
0000
1000
0010
1000
0000
,
0100
1000
0010
0100
,
0001
0000
0100
0000
0010
1000
0010
0000
,
0100
0000
0001
0000
1000
0001
1000
0000
,
0010
0000
1000
0000
0001
1000
0001
0000
,
0100
0000
0010
0000
1000
0100
1000
0000
,
0010
0000
0100
0000
0001
0010
0001
0000
,
1000
1000
0001
0001
,
0100
0100
0010
0010
,
1000
0100
1000
0000
0001
0100
0001
0000
,
1000
0001
1000
0001
,
1000
0010
1000
0000
0001
0010
0001
0000
,
0100
0010
0100
0000
0010
1000
0010
0000
,
1000
0001
1000
0000
0001
0100
0001
0000
,
1000
0100
0001
0010
;

//---------------dance-single - ----------------
#NOTES:
     dance-single:
     :
     Easy:
     4:
     0.206101,0.328473,0.068700,0.274801,0.000000,168.000000,160.000000,8.000000,32.000000,0.000000,0.000000,0.206101,0.328473,0.068700,0.274801,0.000000,168.000000,160.000000,8.000000,32.000000,0.000000,0.000000:
0000
0000
0000
0000
,
0000
0000
0000
0000
,
0000
0000
0000
0000
,
0000
0000
0000
0000
,
0010
0000
1000
0000
,
0010
0000
0001
0000
,
1000
0000
0100
0000
,
0001
0000
0100
0000
,
1000
0100
1000
0100
,
1000
0001
1000
0001
,
0100
0001
0100
0001
,
1000
0001
1000
0001
,
0100
0001
0100
1000
,
0100
1000
0100
0001
,
0010
0001
0010
1000
,
0020
0000
0000
0030
,
0002
0000
0003
0000
,
0200
0000
0300
0000
,
2000
3000
0002
0003
,
1000
0100
0001
0000
,
0020
0000
0030
0000
,
2000
0000
3000
0000
,
0002
0003
2000
3000
,
0001
0100
1000
0000
,
0010
0010
0010
0000
,
0100
0100
0100
0000
,
0001
0000
1000
0000
,
0001
0100
1000
0000
,
0020
0000
0130
0000
,
0200
0000
0310
0000
,
2000
0000
3001
0000
,
0002
0000
1003
0000
,
0020
0000
0000
0000
,
2030
0000
0000
0000
,
3002
0000
0000
0000
,
0203
0000
0000
0000
,
0302
0000
0000
0000
,
2003
0000
0000
0000
,
3010
0000
0010
0000
,
2002
0000
3003
0000
,
0010
0010
1000
0001
,
0100
0100
0100
0000
,
0010
0010
1000
0001
,
1000
0010
0010
0000
,
0100
0100
0100
0001
,
1000
0001
0010
0000
,
0010
0001
0100
1000
,
2002
0000
0000
3003
,
0010
0010
0001
1001
,
0010
0010
1000
1001
,
0100
0100
1000
1001
,
0100
0100
0001
1001
,
0010
0010
1000
0100
,
0010
0010
0001
0100
,
0010
1000
0010
0001
,
0100
1000
0100
0001
,
0020
0030
0001
1001
,
0200
0300
1000
1001
,
0020
0030
2000
3000
,
0002
0003
0200
0300
,
0010
0001
2000
3000
,
0010
1000
0002
0003
,
0100
1000
0020
0030
,
0010
0001
0100
0100
;

//---------------dance-single - ----------------
#NOTES:
     dance-single:
     :
     Beginner:
     1:
     0.117772,0.136864,0.000000,0.000000,0.000000,96.000000,96.000000,0.000000,0.000000,0.000000,0.000000,0.117772,0.136864,0.000000,0.000000,0.000000,96.000000,96.000000,0.000000,0.000000,0.000000,0.000000:
// measure 0
0000
0000
0000
0000
,  // measure 1
0000
0000
0000
0000
,  // measure 2
0000
0000
0000
0000
,  // measure 3
0000
0000
0000
0000
,  // measure 4
0010
0000
0000
0000
,  // measure 5
0001
0000
0000
0000
,  // measure 6
0100
0000
0000
0000
,  // measure 7
1000
0000
0000
0000
,  // measure 8
0001
0000
0001
0000
,  // measure 9
1000
0000
1000
0000
,  // measure 10
0001
0000
0001
0000
,  // measure 11
1000
0000
1000
0000
,  // measure 12
0010
0000
0010
0000
,  // measure 13
0100
0000
0100
0000
,  // measure 14
0010
0000
0010
0000
,  // measure 15
0000
0000
0000
0000
,  // measure 16
0001
0000
0000
0000
,  // measure 17
1000
0000
0000
0000
,  // measure 18
0001
0000
0001
0000
,  // measure 19
0001
0000
0000
0000
,  // measure 20
1000
0000
0000
0000
,  // measure 21
0001
0000
0000
0000
,  // measure 22
1000
0000
1000
0000
,  // measure 23
1000
0000
0000
0000
,  // measure 24
0001
0000
0001
0000
,  // measure 25
0100
0000
0100
0000
,  // measure 26
0001
0000
0100
0000
,  // measure 27
1000
0000
0000
0000
,  // measure 28
1000
0000
1000
0000
,  // measure 29
0100
0000
0100
0000
,  // measure 30
1000
0000
0100
0000
,  // measure 31
0001
0000
0000
0000
,  // measure 32
0010
0000
0000
0000
,  // measure 33
1000
0000
0000
0000
,  // measure 34
0100
0000
0000
0000
,  // measure 35
0001
0000
0000
0000
,  // measure 36
0010
0000
1000
0000
,  // measure 37
0100
0000
0001
0000
,  // measure 38
0010
0000
0000
0000
,  // measure 39
0100
0000
0000
0000
,  // measure 40
0001
0000
0001
0000
,  // measure 41
1000
0000
1000
0000
,  // measure 42
0001
0000
0100
0000
,  // measure 43
1000
0000
0100
0000
,  // measure 44
0001
0000
0001
0000
,  // measure 45
1000
0000
1000
0000
,  // measure 46
0010
0000
0001
0000
,  // measure 47
0010
0000
1000
0000
,  // measure 48
0100
0000
0000
0000
,  // measure 49
0001
0000
0000
0000
,  // measure 50
0010
0000
0000
0000
,  // measure 51
1000
0000
0000
0000
,  // measure 52
0100
0000
0100
0000
,  // measure 53
1000
0000
1000
0000
,  // measure 54
0010
0000
0010
0000
,  // measure 55
0001
0000
0001
0000
,  // measure 56
0100
0000
0000
1000
,  // measure 57
1000
0000
0000
0010
,  // measure 58
0010
0000
0000
0001
,  // measure 59
0001
0000
0000
0100
,  // measure 60
0100
0000
0010
0000
,  // measure 61
1000
0000
0001
0000
,  // measure 62
0100
0000
0010
0000
,  // measure 63
0100
0000
0000
0010
;
