#TITLE:Unrequited Love 2;
#SUBTITLE:;
#ARTIST:CCNN;
#TITLETRANSLIT:;
#SUBTITLETRANSLIT:;
#ARTISTTRANSLIT:;
#GENRE:;
#CREDIT:;
#BANNER:Unrequited Love.png;
#BACKGROUND:Unrequited Love-bg.png;
#LYRICSPATH:;
#CDTITLE:;
#MUSIC:Unrequited Love.ogg;
#OFFSET:0.010000;
#SAMPLESTART:42.543194;
#SAMPLELENGTH:20.425533;
#SELECTABLE:YES;
#BPMS:0.000000=141.000000
;
#STOPS:
;
#BGCHANGES:0.000=Unrequited Love.avi=1.000=0=0=0=StretchNoLoop====,
99999=-nosongbg-=1.000=0=0=0 // don't automatically add -songbackground-
;
#KEYSOUNDS:;
#ATTACKS:;

//---------------dance-double - ----------------
#NOTES:
     dance-double:
     :
     Hard:
     13:
     0.571424,0.616841,0.138228,0.095032,0.440601,463.000000,447.000000,16.000000,11.000000,0.000000,0.000000,0.571424,0.616841,0.138228,0.095032,0.440601,463.000000,447.000000,16.000000,11.000000,0.000000,0.000000:
00000000
00000000
00000000
00000000
,
00000000
00000000
00000000
00000000
,
00000000
00000000
00000000
00000000
,
00000000
00000000
00000000
00000000
,
00000000
00000000
00000000
00000000
,
00010000
00010000
00010000
00010000
,
00001000
00001000
00000100
00000100
,
00000001
00000001
00000010
00000010
,
00002200
00000000
00003300
00011000
,
01000000
00000000
00001000
01000000
00000000
01000000
00010000
00000000
10000000
00000000
00100000
10000000
00000000
10000000
00100000
00000000
,
01000000
00000000
01000000
00010000
00000000
00000000
00010000
00100000
00000000
00000000
00100000
00001000
00000000
00000000
00010000
00000000
,
00001000
00000000
00010000
00000100
00000000
00000100
00010000
00000000
00000100
00000000
00001000
00000001
00000000
00000001
00001000
00000000
,
00000100
00000000
00001000
00000010
00000000
00000000
00000010
00001000
00000000
00000000
00001000
00000100
00000000
00000000
00000100
00000000
,
00010000
00000000
00001000
00010000
00000000
00010000
00001000
00000000
00010000
00000000
00001000
01000000
00000000
01000000
00010000
00000000
,
01000000
00000000
00010000
01000000
00000000
00000000
00010000
10000000
00000000
00000000
00010000
00100000
00000000
00000000
00010000
10000000
,
00010000
00000000
00000000
00010000
00000000
00000000
01000000
00000000
00010000
00000000
00100000
00010000
00000000
00010000
00100000
00000000
,
00001000
00000000
00010000
00001000
00000000
00000000
00010000
00000100
00000000
00000000
00001000
00000100
00000000
00000000
00001000
00000001
,
00002000
00000000
00000000
00000000
,
00003020
00000000
00000230
00000000
,
00000302
00000000
00000000
00000000
,
00002003
00000000
00003200
00010300
,
00001000
00010000
00000000
00010000
00000000
00000000
00001000
00000000
01000000
00000000
00010000
01000000
00000000
01000000
00010000
00000000
,
10000000
00000000
00000000
00100000
00000000
00000000
01000000
00100000
01000000
00000000
00010000
10000000
00010000
00000000
01000000
00010000
,
01000000
00010000
00000000
01000000
00000000
00010000
10000000
00000000
00100000
00000000
10000000
00010000
00000000
00000000
00100000
00000000
,
00001000
00010000
00001000
00010000
00000100
00001000
00000010
00000100
,
00000002
00000000
00000000
00001003
,
00001000
00010000
00000000
00000000
00010000
10000000
00000000
00000000
10000000
00010000
00000000
00000000
00010000
00001000
00000000
00000000
,
00001000
00000001
00000000
00000000
00000001
00001000
00000000
00000000
00000110
00000000
00000000
00000000
00001001
00000000
00000000
00000000
,
00000001
00001000
00000000
00000000
00001000
00000100
00000000
00000000
00000100
00010000
00000000
00000000
00010000
00001000
00000000
00000000
,
00001000
01000000
00000000
00000000
01000000
00010000
00000000
00000000
10010000
00000000
00000000
00000000
01100000
00000000
00000000
00000000
,
10000000
00010000
00000000
00000000
01000000
00010000
00000000
00000000
01000000
00001000
00000000
00000000
00010000
00001000
00000000
00000000
,
00010000
00000100
00000000
00000000
00001000
00000001
00000000
00000000
00001001
00000000
00000000
00000000
00000110
00000000
00000000
00000000
,
00000001
00001000
00000000
00000000
00001000
00000100
00000000
00000000
00000100
00010000
00000000
00000000
00010000
00001000
00000000
00000000
,
00001000
01000000
00000000
00000000
01000000
00010000
00000000
00000000
10010000
00000000
00000000
00000000
01100000
00000000
00000000
00000000
,
10000000
00100000
01000000
00010000
10000000
00100000
01000000
00010000
,
00100000
00001000
00010000
00000010
00001000
00000000
00001001
00000000
,
00000001
00000100
00000010
00001000
00000001
00000100
00000010
00001000
,
00000010
00010000
00001000
00100000
00010000
00000000
10010000
00000000
,
10000000
01000000
10000000
00000000
00100000
10000000
00100000
00000000
10000000
00010000
10000000
00000000
00010000
00000000
01000000
00000000
,
00010000
00100000
00001000
00010000
00000010
00000000
00001010
00000000
,
00000001
00000100
00000001
00000000
00000010
00001000
00000010
00000000
00001000
00000100
00001000
00000000
00000010
00001000
00000010
00000000
,
00001000
00000100
00010000
00001000
00010000
00000000
00011000
00000000
,
00100000
00010000
00000000
00000000
00100000
00010000
00000000
00000000
00100000
00010000
00000000
00000000
00100000
00010000
00000000
00000000
,
00001000
00010000
00000000
00000000
00001000
00010000
00000000
00000000
00001000
00010000
00000000
00000000
00001000
00010000
00000000
00000000
,
00000010
00001000
00000000
00000000
00000010
00001000
00000000
00000000
00000010
00001000
00000000
00000000
00000010
00001000
00000000
00000000
,
00000001
00000100
00000000
00000000
00000100
00000001
00000000
00000000
00001000
00000001
00000000
00000000
00000001
00001000
00000000
00000000
,
00000100
00001000
00000100
00000000
00001000
00000000
00000100
00000000
00010000
00000100
00010000
00000000
00000100
00000000
00010000
00000000
,
00001000
00010000
00001000
00000000
00010000
00000000
00001000
00000000
01000000
00000000
00001000
00000000
01000000
00000000
00010000
00000000
,
01000000
00010000
01000000
00000000
00010000
00000000
10000000
00000000
00100000
10000000
00100000
00000000
01000000
00000000
00010000
00000000
,
10000000
01000000
10000000
00000000
00010000
00000000
01000000
00000000
00100000
00000000
00000000
00000000
10010000
00000000
00000000
00000000
,
10000000
00000000
00000000
00010000
00000000
10000000
00010000
00000000
10000000
00000000
01000000
00000000
10000000
00000000
00100000
00000000
,
01000000
00010000
01000000
00001000
00010000
00001000
00010000
00000100
,
00001000
00000000
00000000
00000100
00000000
00001000
00000100
00000000
00001000
00000000
00000010
00000000
00000100
00000000
00000001
00000000
,
00000100
00000010
00001000
00000100
00010000
00001000
01000000
00010000
,
10000000
00000000
00000000
00100000
00000000
01000000
00100000
00000000
01000000
00000000
00010000
00000000
01000000
00000000
00001000
00000000
,
00010000
00000100
00001000
00000001
00000100
00000010
00001000
00000100
,
00010000
00000000
00000000
00001000
00000000
00001000
00010000
00000000
00001000
00000000
01000000
00000000
00010000
00000000
10000000
00000000
,
00100000
10000000
01000000
00100000
00001000
00010000
00000010
00001000
,
00000001
00000010
00000001
00000010
00000001
00000010
00000001
00000010
,
00000100
00001000
00000100
00001000
00010000
00001000
00010000
00001000
,
00100000
00010000
00100000
00010000
00100000
00010000
00100000
00010000
,
10000000
01000000
10000000
01000000
00100000
00010000
00100000
00010000
,
01000000
00010000
01000000
00010000
01000000
00001000
01000000
00001000
,
00010000
00001000
00010000
00001000
00010000
00000100
00010000
00000100
,
00001000
00000100
00001000
00000100
00001000
00000010
00001000
00000010
,
00010000
00000010
00010000
00000010
00010000
00001000
00010000
00001000
,
00022000
00000000
00000000
00000000
,
00000000
00000000
00000000
00000000
,
00033000
00000000
00000000
00000000
;

//---------------dance-single - ----------------
#NOTES:
     dance-single:
     :
     Hard:
     14:
     0.675094,0.763708,0.120949,0.077753,0.742974,547.000000,533.000000,14.000000,9.000000,0.000000,0.000000,0.675094,0.763708,0.120949,0.077753,0.742974,547.000000,533.000000,14.000000,9.000000,0.000000,0.000000:
0000
0000
0000
0000
,
0000
0000
0000
0000
,
0000
0000
0000
0000
,
0000
0000
0000
0000
,
0000
0000
0000
0000
,
1000
0001
1000
0001
1000
0001
1000
0001
,
0100
0010
0100
0010
1000
0001
1000
0001
,
0100
0010
0100
0010
0100
0010
0100
0001
,
2002
0000
0000
3003
,
1000
0010
0000
1000
0000
0010
1000
0000
0001
0000
0100
0001
0000
0001
0100
0001
,
0000
1000
0000
0001
0000
1000
0100
1000
0000
0010
1000
0010
0000
1000
0001
1000
,
0001
1000
0000
0001
0000
0100
0001
0000
1000
0000
0001
1000
0000
1000
0001
0000
,
0100
0001
0000
0100
0000
0001
0100
0001
0000
0100
0001
0100
0000
0001
0100
0001
,
0100
0001
0000
1000
0000
0001
1000
0000
0010
0000
1000
0100
0000
1000
0010
1000
,
0000
0001
0000
1000
0000
0001
1000
0001
0000
0100
0001
0100
0000
0001
0100
0001
,
0100
0001
0000
0100
0000
0001
1000
0000
0001
0000
1000
0001
0000
1000
0001
0000
,
1000
0100
0010
0001
0100
0010
1000
0001
,
1000
1000
1000
1000
,
0001
0001
0100
0100
,
0010
0010
0010
0010
,
1000
1000
0001
0001
,
1000
0100
0000
1000
0000
0001
1000
0000
0001
0000
0100
0001
0000
1000
0001
1000
,
0000
0010
0000
0100
0000
0001
1000
0001
0000
1000
0100
1000
0000
0001
0100
0001
,
0100
0010
0000
0001
0000
1000
0100
0000
1000
0000
0010
1000
0000
0001
1000
0001
,
0000
0010
0000
0100
0000
1000
0001
1000
0000
0001
0100
0001
0000
0010
0001
0000
,
0020
2030
3200
0301
,
1000
0100
0000
0000
0100
1000
0000
0000
1000
0010
0000
0000
0010
0100
0000
0000
,
0100
0001
0000
0000
0001
0010
0000
0000
1001
0000
0000
0000
0110
0000
0000
0000
,
0001
0010
0000
0000
0010
1000
0000
0000
1000
0100
0000
0000
0100
0010
0000
0000
,
0010
1000
0000
0000
1000
0001
0000
0000
1001
0000
0000
0000
0110
0000
0000
0000
,
0001
0010
0000
0000
0010
0001
0000
0000
0001
0100
0000
0000
0100
0010
0000
0000
,
0010
1000
0000
0000
1000
0100
0000
0000
1001
0000
0000
0000
0110
0000
0000
0000
,
1000
0001
0000
0000
0001
0100
0000
0000
0100
0010
0000
0000
0010
1000
0000
0000
,
1000
0100
0010
1001
,
0001
0100
0001
0000
1000
0001
1000
0000
0010
1000
0010
0000
0100
0010
0100
0000
,
1000
0010
1000
0000
0001
0100
0001
0000
0010
0000
0100
0000
0001
0000
1000
0000
,
0001
0100
0001
0000
1000
0001
1000
0000
0001
0100
0001
0000
0010
0001
0010
0000
,
0001
0100
0001
0000
1000
0001
1000
0000
0001
0000
0100
0000
0010
0000
1000
0000
,
0100
1000
0100
0000
1000
0010
1000
0000
0100
1000
0100
0000
1000
0010
1000
0000
,
0001
1000
0001
0000
0100
0001
0100
0000
0001
0000
0010
0000
0100
0000
1000
0000
,
0001
1000
0001
0000
1000
0001
1000
0000
0001
0100
0001
0000
0100
0001
0100
0000
,
0001
0010
0001
0000
0100
0001
1000
0000
0010
0000
0100
0000
1001
0000
0000
0000
,
1000
0010
0000
0000
1000
0010
0000
0000
1000
0010
0000
0000
1000
0010
0000
0000
,
0100
0001
0000
0000
0100
0001
0000
0000
0100
0001
0000
0000
0100
0001
0000
0000
,
1000
0010
1000
0000
0010
1000
0010
0000
0100
0001
0100
0000
0001
0100
0001
0000
,
1000
0001
1000
0000
0001
1000
0001
0000
0100
0001
0100
0000
0001
0010
0001
0000
,
1000
0001
1000
0000
0001
1000
0100
0000
1000
0001
1000
0000
0001
1000
0010
0000
,
0001
0010
0001
0000
0010
0001
1000
0000
0001
1000
0001
0000
1000
0001
0100
0000
,
0001
0100
0001
0000
0100
0001
1000
0000
0001
1000
0001
0000
1000
0001
0010
0000
,
2002
3003
0110
1001
,
0010
0000
0010
1000
0000
1000
0010
0000
0100
0000
0001
0100
0000
0100
0001
0000
,
1000
0000
0001
0100
0001
0000
1000
0100
1000
0000
0010
0100
0010
0000
1000
0000
,
0001
0000
0100
0001
0000
0001
0100
0000
0010
0000
1000
0010
0000
0010
1000
0000
,
0001
0000
1000
0100
1000
0000
0001
1000
0001
0000
0100
0001
0100
0000
0010
0000
,
1000
0000
0001
0100
0000
0001
0100
0000
0001
0000
1000
0100
0000
1000
0100
0000
,
1000
0000
0001
0100
0001
0000
0100
0010
0100
0000
0001
0100
0001
0000
1000
0000
,
0010
0000
0100
0010
0000
0100
0010
0000
1000
0000
0001
1000
0000
0001
1000
0000
,
0001
0010
0100
1000
0010
0100
1001
0000
,
0010
0001
0010
0001
0010
0001
0010
0001
,
1000
0100
1000
0100
1000
0010
1000
0010
,
0100
0001
0100
0001
0100
0001
0100
0001
,
1000
0010
1000
0010
1000
0100
1000
0100
,
1000
0001
1000
0001
1000
0001
1000
0001
,
0100
0010
0100
0010
1000
0001
1000
0001
,
0100
0010
0100
0010
0100
0010
0100
0010
,
1000
0100
0010
0001
,
2002
0000
0000
0000
,
0000
0000
0000
0000
,
3003
0000
0000
0000
;

//---------------dance-double - ----------------
#NOTES:
     dance-double:
     :
     Medium:
     9:
     0.383829,0.469974,0.112310,0.077753,0.000000,311.000000,298.000000,13.000000,9.000000,0.000000,0.000000,0.383829,0.469974,0.112310,0.077753,0.000000,311.000000,298.000000,13.000000,9.000000,0.000000,0.000000:
00000000
00000000
00000000
00000000
,
00000000
00000000
00000000
00000000
,
00000000
00000000
00000000
00000000
,
00000000
00000000
00000000
00000000
,
00000000
00000000
00000000
00000000
,
00001000
00000000
00001000
00000000
00001000
00000000
00001000
00010000
,
00000100
00000000
00000100
00000000
00000100
00000000
00000100
00001000
,
00000010
00000000
00000010
00000000
00000010
00000000
00000010
00000001
,
00000200
00000000
00000000
00000300
,
00000010
00001000
00000010
00000000
00000100
00000001
00000100
00000000
,
00000001
00000100
00000010
00010000
,
00000100
00010000
00000100
00000000
00010000
00001000
00010000
00000000
,
00001000
01000000
00010000
10000000
,
00100000
10000000
00100000
00000000
01000000
00010000
01000000
00000000
,
00100000
10000000
01000000
00010000
,
00100000
00001000
00100000
00000000
00001000
00010000
00001000
00000000
,
00010000
00000100
00001000
00000010
,
00000002
00000000
00000000
00000000
,
00000000
00000003
00002000
00003000
,
00000020
00000000
00000000
00000000
,
00000000
00000030
00000200
00000300
,
00000001
00000100
00000001
00000100
,
00001000
00000100
00001000
00000100
,
00010000
00001000
00010000
00001000
,
01000000
00000000
00010000
00000000
,
00100000
10000000
02000000
03000000
,
10000000
01000000
00010000
00000000
10000000
01000000
00010000
00000000
,
00001000
00000100
00000001
00000000
00000010
00000000
00001001
00000000
,
00000001
00000100
00001000
00000000
00000001
00000100
00001000
00000000
,
00010000
01000000
10000000
00000000
00100000
00000000
10010000
00000000
,
10000000
00100000
00010000
00000000
00001000
00000010
00000001
00000000
,
00000001
00001000
00000001
00000000
00001001
00000000
00001100
00000000
,
00000001
00000100
00001000
00000000
00010000
01000000
10000000
00000000
,
00100000
01000000
00100000
00000000
10010000
00000000
10010000
00000000
,
00010000
01000000
00010000
10000000
00010000
00100000
00010000
00000000
,
00010000
01000000
10000000
01000000
00010000
00000000
00010000
00000000
,
00100000
00001000
00100000
00001000
00010000
00001000
00010000
00000000
,
00000100
00001000
00000100
00001000
00000010
00000000
00001001
00000000
,
00000100
00000001
00000100
00000001
00001000
00000001
00001000
00000000
,
00000001
00000100
00001000
00000100
00000001
00000000
00001001
00000000
,
00001000
00000010
00001000
00000100
00001000
00000100
00010000
00000000
,
00001000
00010000
00100000
01000000
,
10000000
00100000
10000000
00000000
10000000
00000000
10000000
00000000
,
00010000
01000000
00010000
00000000
00010000
00000000
00010000
00000000
,
00100000
00001000
00100000
00000000
00001000
00000000
00001000
00000000
,
00010000
00000100
00010000
00000000
00000100
00000000
00000100
00000000
,
00001000
00000010
00001000
00000000
00000001
00000100
00000001
00000000
,
00001000
00000100
00001000
00000000
00000001
00000010
00000001
00000000
,
00001000
00000100
00001000
00000000
00000100
00010000
00000100
00000000
,
00010000
00001000
01000000
00010000
,
10000000
01000000
00100000
00000000
01000000
00000000
00010000
00000000
,
00100000
00001000
00010000
00000000
00001000
00000000
00010000
00000000
,
00000100
00001000
00000010
00000000
00000010
00000001
00000100
00000000
,
00000010
00001000
00000100
00000000
00001000
00000000
00000100
00000000
,
00010000
00000000
00001000
00000000
00100000
00010000
01000000
00000000
,
00100000
10000000
01000000
00000000
00100000
00000000
10010000
00000000
,
10000000
01000000
00100000
00000000
01000000
00100000
00010000
00000000
,
00001000
00010000
00000020
00000030
,
00000001
00000010
00001000
00000000
00010000
00100000
10000000
00000000
,
10000000
01000000
00010000
00000000
00001000
00000100
00000001
00000000
,
00000001
00000010
00001000
00000000
00010000
01000000
10000000
00000000
,
10000000
00100000
00010000
00000000
00001000
00000100
00000001
00000000
,
00000001
00000010
00001000
00000000
00000110
00000000
00001001
00000000
,
00000001
00000100
00001000
00000000
00010000
00100000
10000000
00000000
,
10000000
01000000
00010000
00000000
00001000
00000000
00011000
00000000
,
00100000
00100000
10000000
10000000
,
20020000
00000000
00000000
00000000
,
00000000
00000000
00000000
00000000
,
30030000
00000000
00000000
00000000
;

//---------------dance-single - ----------------
#NOTES:
     dance-single:
     :
     Medium:
     9:
     0.387531,0.499348,0.103671,0.120949,0.000000,314.000000,302.000000,12.000000,14.000000,0.000000,0.000000,0.387531,0.499348,0.103671,0.120949,0.000000,314.000000,302.000000,12.000000,14.000000,0.000000,0.000000:
0000
0000
0000
0000
,
0000
0000
0000
0000
,
0000
0000
0000
0000
,
0000
0000
0000
0000
,
0000
0000
0000
0000
,
0010
0000
0010
0000
0010
0000
0010
1000
,
0010
0000
0010
0000
0100
0000
0100
0001
,
0100
0000
0100
0000
0001
0000
0001
1000
,
0002
0000
0000
0003
,
1000
0010
1000
0000
1000
0010
1000
0000
,
1000
0010
1000
0000
0001
0000
0001
0000
,
0100
0001
0100
0000
0100
0001
0100
0000
,
0100
0001
0100
0000
0010
0000
0010
0000
,
0001
0100
0001
0000
0001
1000
0001
0000
,
0001
0100
0001
0000
0010
0000
0010
0000
,
1000
0001
1000
0000
1000
0100
1000
0000
,
0002
0000
0000
1003
,
0020
0000
0000
0000
,
0000
0030
2000
3000
,
0200
0000
0000
0000
,
0000
0300
0002
0003
,
0010
1000
0010
1000
,
0010
0001
0010
0001
,
0100
0001
0100
0001
,
0100
1000
0010
0001
,
0020
1030
0200
0300
,
1000
0100
0001
0000
1000
0100
0001
0000
,
1000
0100
0001
0000
0010
0000
1001
0000
,
0001
0100
1000
0000
0001
0100
1000
0000
,
0001
0100
1000
0000
0010
0000
1001
0000
,
1000
0010
0001
0000
1000
0010
0001
0000
,
0001
0010
1000
0000
0001
0010
1000
0000
,
1000
0100
0001
0000
0001
0010
1000
0000
,
1000
0010
0001
0000
0001
0100
1000
0000
,
1000
0100
1000
0100
1000
0001
1000
0000
,
0001
0100
1000
0100
0001
0000
1001
0000
,
0001
0010
0001
0010
0001
1000
0001
0000
,
0001
0010
1000
0010
0001
0000
1001
0000
,
0100
0010
0100
0010
1000
0001
1000
0001
,
0100
0010
0100
0000
1001
0000
0110
0000
,
0010
0100
0010
0000
1000
0001
1000
0000
,
0010
0100
0010
1001
,
0010
0000
0010
0000
0010
0001
0100
0000
,
0010
0000
0010
0000
0010
1000
0100
0000
,
1000
0000
1000
0000
0001
0010
0100
0000
,
0001
0000
0001
0000
1000
0100
0010
0000
,
1000
0010
1000
0000
0001
0001
0001
0000
,
0001
0010
0001
0000
1000
1000
1000
0000
,
0010
0100
0010
0000
1000
0001
1000
0000
,
0202
0000
0000
0303
,
1000
0100
1000
0000
0010
0000
0010
0000
,
0001
0100
0001
0100
0001
0100
0001
0000
,
1000
0000
1000
0000
0010
0100
0010
0000
,
1000
0100
1000
0100
1000
0000
0001
0000
,
0100
0010
0100
0000
1001
0000
0110
0000
,
1000
0100
1000
0100
1000
0100
1000
0000
,
0010
0001
0100
0000
0010
1000
0100
0000
,
2002
0000
0000
3003
,
0010
1000
0010
0000
0010
1000
0100
0000
,
0010
0001
0010
0000
0010
0001
0100
0000
,
0001
0100
1000
0000
0001
0010
1000
0000
,
1000
0100
0001
0000
1000
0010
0001
0000
,
1000
0000
1000
0000
0001
1000
0001
0000
,
1000
0000
1000
0000
0100
0010
0100
0000
,
0001
0010
0001
0000
1000
0100
1000
0000
,
0001
0100
0001
0000
1000
0000
0100
0000
,
2002
0000
0000
0000
,
0000
0000
0000
0000
,
3003
0000
0000
0000
;

//---------------dance-single - ----------------
#NOTES:
     dance-single:
     :
     Easy:
     4:
     0.273987,0.293734,0.051835,0.112310,0.000000,222.000000,216.000000,6.000000,13.000000,0.000000,0.000000,0.273987,0.293734,0.051835,0.112310,0.000000,222.000000,216.000000,6.000000,13.000000,0.000000,0.000000:
0000
0000
0000
0000
,
0000
0000
0000
0000
,
0000
0000
0000
0000
,
0000
0000
0000
0000
,
0000
0000
0000
0000
,
0010
0010
0010
0010
,
0100
0100
0100
0100
,
0010
0010
0100
0100
,
2002
0000
0000
3003
,
1000
0100
1000
0100
,
0001
0100
0001
0100
,
1000
0010
1000
0010
,
0001
0010
0001
0010
,
1000
0100
0001
0100
,
1000
0010
0001
0010
,
1000
0100
0001
0010
,
2000
0000
0000
3001
,
0200
0000
0000
0000
,
0000
0300
0002
0003
,
2000
0000
0000
0000
,
0000
3000
0020
0030
,
1000
0001
0000
0001
,
0000
0001
0000
0100
,
1000
0001
0000
0001
,
0100
1000
0100
0001
,
2002
0000
0000
3003
,
0010
0010
0001
0001
,
0100
0100
1000
1000
,
0010
0001
0100
1000
,
0010
1000
0100
0001
,
0100
0100
0001
0001
,
0010
0010
1000
1000
,
0100
0001
0010
1000
,
0100
1000
0010
0001
,
1000
1000
0001
0001
,
1000
0001
1000
0001
,
0100
0100
0010
0010
,
0100
0010
0100
0010
,
1000
0001
1000
0001
,
0100
0010
0100
0010
,
1000
0001
0100
0010
,
1001
0000
0110
0000
,
1000
1000
1000
1000
,
0001
0001
0001
0001
,
0100
0100
0100
0100
,
0010
0010
0010
0010
,
1000
1000
0001
0001
,
0100
0100
0010
0010
,
1000
0001
0100
0010
,
2002
0000
0000
3003
,
0010
0010
0001
0001
,
0100
0100
1000
1000
,
0010
0001
0100
1000
,
0010
1000
0100
0001
,
0100
0100
0001
0001
,
0010
0010
1000
1000
,
0100
1000
0010
0001
,
0100
0001
0010
1000
,
0100
0100
0100
0100
,
0010
0010
0010
0010
,
0100
0100
0010
0010
,
0100
0010
0100
0010
,
1000
1000
1000
1000
,
0001
0001
0001
0001
,
1000
1000
0001
0001
,
1000
0001
1000
0001
,
2002
0000
0000
0000
,
0000
0000
0000
0000
,
3003
0000
0000
0000
;

//---------------dance-double - ----------------
#NOTES:
     dance-double:
     :
     Easy:
     4:
     0.254240,0.293734,0.017278,0.164145,0.000000,206.000000,204.000000,2.000000,19.000000,0.000000,0.000000,0.254240,0.293734,0.017278,0.164145,0.000000,206.000000,204.000000,2.000000,19.000000,0.000000,0.000000:
00000000
00000000
00000000
00000000
,
00000000
00000000
00000000
00000000
,
00000000
00000000
00000000
00000000
,
00000000
00000000
00000000
00000000
,
00000000
00000000
00000000
00000000
,
00010000
00010000
00001000
00001000
,
00010000
00010000
00001000
00001000
,
01000000
01000000
00001000
00001000
,
00020000
00000000
00000000
00030000
,
00000100
00001000
00000100
00001000
,
00000001
00000100
00000001
00000100
,
00000001
00001000
00000001
00001000
,
00000100
00000100
00010000
00010000
,
00001000
00001000
00001000
00001000
,
01000000
01000000
00010000
00010000
,
10000000
01000000
00100000
00010000
,
00002000
00000000
00000000
00003000
,
00020000
00000000
00000000
00000000
,
00030000
00000000
00000200
00000300
,
00000020
00000000
00000000
00000000
,
00000030
00000000
00020000
00030000
,
00000000
00001000
00000000
00001000
,
00000000
01000000
00000000
01000000
,
00000000
10000000
00000000
10000000
,
02000000
03000000
00020000
00030000
,
00002000
00000000
00000000
00003000
,
00000100
00000100
00000001
00000001
,
00000010
00000010
00001000
00001000
,
00000100
00000001
00000010
00001000
,
00000100
00000100
00010000
00010000
,
00001000
00001000
00001000
00001000
,
00100000
00100000
00010000
00010000
,
01000000
01000000
10000000
10000000
,
00100000
00010000
01000000
10000000
,
00100000
00100000
10000000
10000000
,
01000000
01000000
00010000
00010000
,
00100000
10000000
01000000
00010000
,
00001000
00000100
00000001
00000010
,
00000100
00000100
00001000
00001000
,
00000010
00000010
00000001
00000001
,
00000100
00001000
00000010
00000001
,
00001000
00000100
00000001
00001001
,
00000020
00000030
00002000
00003000
,
00020000
00030000
00200000
00300000
,
20000000
30000000
02000000
03000000
,
00020000
00030000
00000200
00000300
,
00000001
00000100
00001000
00000000
,
00010000
01000000
10000000
00000000
,
10000000
00100000
00010000
00000000
,
00001000
00000010
00000001
00000000
,
00000010
00000010
00001000
00001000
,
00010000
00010000
00100000
00100000
,
10000000
10000000
01000000
01000000
,
00010000
00010000
00000100
00000100
,
00000001
00000010
00001000
00000100
,
00001000
00010000
00100000
10000000
,
10000000
01000000
00010000
00100000
,
00010000
00001000
00000100
00000001
,
00000010
00000010
00000100
00000100
,
00000001
00000010
00000100
00001000
,
00010000
00010000
00001000
00001000
,
00010000
00100000
01000000
10000000
,
00100000
00100000
01000000
01000000
,
10000000
01000000
00100000
00010000
,
00001000
00001000
00000010
00000010
,
00000001
00000010
00001000
00000100
,
00022000
00000000
00000000
00000000
,
00000000
00000000
00000000
00000000
,
00033000
00000000
00000000
00000000
;

//---------------dance-single - ----------------
#NOTES:
     dance-single:
     :
     Beginner:
     3:
     0.156740,0.234987,0.025918,0.086392,0.000000,127.000000,124.000000,3.000000,10.000000,0.000000,0.000000,0.156740,0.234987,0.025918,0.086392,0.000000,127.000000,124.000000,3.000000,10.000000,0.000000,0.000000:
// measure 0
0000
0000
0000
0000
,  // measure 1
0000
0000
0000
0000
,  // measure 2
0000
0000
0000
0000
,  // measure 3
0000
0000
0000
0000
,  // measure 4
0000
0000
0000
0000
,  // measure 5
0010
0000
0010
0000
,  // measure 6
0100
0000
0100
0000
,  // measure 7
0010
0000
0010
0000
,  // measure 8
0100
0000
0000
0000
,  // measure 9
0001
0000
0001
0000
,  // measure 10
1000
0000
1000
0000
,  // measure 11
0001
0000
0001
0000
,  // measure 12
1000
0000
1000
0000
,  // measure 13
0001
0000
0010
0000
,  // measure 14
0100
0000
1000
0000
,  // measure 15
1000
0000
0100
0000
,  // measure 16
0010
0000
0001
0000
,  // measure 17
0200
0000
0000
0000
,  // measure 18
0000
0000
0300
0000
,  // measure 19
0002
0000
0000
0000
,  // measure 20
0000
0000
0003
0000
,  // measure 21
0020
0000
0000
0000
,  // measure 22
0000
0000
0030
0000
,  // measure 23
2000
0000
0000
0000
,  // measure 24
0000
0000
3000
0000
,  // measure 25
2002
0000
3003
0000
,  // measure 26
1000
0000
1000
0000
,  // measure 27
0001
0000
0001
0000
,  // measure 28
1000
0000
1000
0000
,  // measure 29
0001
0000
0001
0000
,  // measure 30
0100
0100
0100
0000
,  // measure 31
0010
0010
0010
0000
,  // measure 32
0100
0100
0100
0000
,  // measure 33
0020
0000
0030
0000
,  // measure 34
1000
0000
0001
0000
,  // measure 35
1000
1000
1000
0000
,  // measure 36
0001
0000
1000
0000
,  // measure 37
0001
0001
0001
0000
,  // measure 38
0100
0000
0010
0000
,  // measure 39
0100
0100
0100
0000
,  // measure 40
0010
0000
0100
0000
,  // measure 41
0010
0010
0010
0000
,  // measure 42
1000
0000
0001
0000
,  // measure 43
0100
0000
0010
0000
,  // measure 44
1000
0000
0100
0000
,  // measure 45
0010
0000
0001
0000
,  // measure 46
1000
1000
1000
0000
,  // measure 47
0001
0001
0001
0000
,  // measure 48
0100
0100
0100
0000
,  // measure 49
0020
0000
0030
0000
,  // measure 50
1000
0000
0001
0000
,  // measure 51
1000
0000
0100
0100
,  // measure 52
0100
0000
1000
0000
,  // measure 53
0001
0000
0010
0010
,  // measure 54
0010
0000
0001
0000
,  // measure 55
1000
0000
0100
0100
,  // measure 56
0100
0000
0010
0000
,  // measure 57
0001
0000
1001
0000
,  // measure 58
0100
0000
0100
0000
,  // measure 59
0010
0000
0010
0000
,  // measure 60
0100
0000
0100
0000
,  // measure 61
0010
0000
0010
0000
,  // measure 62
1000
1000
1000
0000
,  // measure 63
0001
0001
0001
0000
,  // measure 64
0100
0100
0100
0000
,  // measure 65
0010
0010
0010
0000
,  // measure 66
2002
0000
0000
0000
,  // measure 67
0000
0000
0000
0000
,  // measure 68
3003
0000
0000
0000
;
