#TITLE:Twist of Fate;
#SUBTITLE:;
#ARTIST:Jehezukiel;
#TITLETRANSLIT:;
#SUBTITLETRANSLIT:;
#ARTISTTRANSLIT:;
#CREDIT:;
#BANNER:Twist of Fate.png;
#BACKGROUND:Twist of Fate-bg.png;
#LYRICSPATH:;
#CDTITLE:;
#MUSIC:Twist of Fate.ogg;
#OFFSET:-0.126;
#SAMPLESTART:52.460;
#SAMPLELENGTH:13.900;
#SELECTABLE:YES;
#DISPLAYBPM:141.000;
#BPMS:0.000=141.000;
#STOPS:;
#BGCHANGES:0.000=Twist of Fate.avi=1.000=1=1=0,
99999=-nosongbg-=1.000=0=0=0 // don't automatically add -songbackground-
;

//---------------dance-single - ----------------
#NOTES:
     dance-single:
     :
     Hard:
     11:
     0.518,0.511,0.135,0.525,0.063:
0000
0000
0000
0000
,
0000
0000
0000
0000
,
0000
0000
0000
0000
,
0000
0000
0000
0000
,
0000
0000
0000
0000
,
1000
0001
0100
0001
0000
1000
0100
1000
,
0000
0010
0100
0010
0000
1000
0100
1000
,
0001
1000
0100
1000
0000
0001
0010
0001
,
1000
0001
0100
0010
,
1000
0000
0100
1000
0100
0000
1000
0000
0010
0000
0100
0000
0001
0000
0100
0000
,
0010
0100
0001
0100
0001
0010
0100
1000
,
0001
0000
0100
0010
0100
0000
0000
0000
0001
0000
1000
0001
1000
0000
0000
0000
,
0010
0100
0010
0000
1000
0100
0010
0000
,
2020
3030
0202
0303
,
2002
0000
0000
3003
,
1001
0000
1000
0010
0100
0001
0100
0020
,
0000
1030
0001
2000
0000
3010
0100
0001
,
1000
0010
0100
0010
1000
0001
0001
0200
,
0000
0310
1000
0002
0000
1003
0100
1000
,
0010
0100
0001
0100
0010
0100
0100
0002
,
0000
1003
1000
0010
0100
0001
0100
0020
,
0000
1030
0100
0001
0100
1000
0010
0010
,
0000
1000
0100
0001
2000
0000
3002
0000
,
0103
0010
1000
0200
0000
1300
0000
0001
,
0100
0010
0100
0002
0000
1003
0001
0200
,
0000
1300
0001
1001
,
1000
0100
1000
0020
0000
0130
0001
0100
,
0020
1000
0100
1030
,
0001
0100
0010
2000
0000
3001
0100
0010
,
2000
0100
0010
3001
,
2002
0000
0000
0000
3003
0000
0100
0010
,
1001
0000
0000
0000
0100
0000
0001
0100
0001
0000
0000
0000
0001
0000
1000
0100
,
1000
0001
0100
0010
2000
0000
3001
0100
,
0020
0000
1030
0100
2000
0000
3010
0100
,
0010
0000
1000
0000
0001
0000
1000
0001
0000
0000
0000
0000
0100
0000
0010
0000
,
1001
0000
0000
0000
1000
0000
0001
0100
0001
0000
0000
0000
1000
0000
0010
0100
,
0010
1000
0001
0100
0002
0000
1003
0010
,
0200
0000
0310
0010
2000
0000
3001
0100
,
0001
0000
1000
0000
0001
0000
1000
0000
0001
0100
0000
0000
0100
0010
0000
0000
,
0020
0000
0000
0000
0130
0000
0001
0100
0001
0000
0000
0000
1000
0000
0010
1000
,
0010
1000
0100
0010
0002
0000
0103
0010
,
2000
0000
3010
0100
0002
0000
0103
0010
,
0010
0000
1000
0000
0001
0000
1000
0100
0000
0000
0000
0000
0010
0000
1000
0000
,
2200
0000
0000
0000
3300
0000
0001
0010
0002
0000
0000
0000
0003
0000
1000
0010
,
1000
0010
0100
0001
1001
0000
0010
0100
,
2000
0000
3001
0010
0200
0000
0310
0001
,
2000
3100
0002
0103
,
2000
3010
0002
0013
,
2100
0100
0010
3010
,
0012
0010
0100
0103
,
2100
0100
0100
0000
0001
0001
3001
0000
,
0102
0100
0100
0000
1000
1000
1003
0000
,
0210
0010
0010
0010
0010
0010
0310
0000
,
2000
0001
0000
0001
0000
0001
0000
0001
,
0000
0100
0000
0100
0000
3100
0000
0001
,
0200
0010
0000
0010
0000
0010
0000
0310
,
2000
0100
0000
3100
0010
0000
0100
0000
,
0002
0100
0000
0100
0000
0100
0000
0103
,
0000
0001
0100
0001
0000
1000
0100
1000
,
0020
0100
0000
0100
0000
0130
0001
1000
,
0000
0100
0001
1000
0000
0001
1000
0000
,
2000
0000
3002
0000
,
0203
0000
0000
0000
0320
0000
1030
0100
,
2000
0000
3001
0100
0002
0000
0003
0000
,
1000
0010
0100
0001
,
2002
0003
0200
0300
,
0002
0000
0000
0000
,
3003
0000
0000
0000
;

//---------------dance-double - Copied from----------------
#NOTES:
     dance-double:
     Copied from:
     Easy:
     5:
     0.253,0.312,0.102,0.347,0.000:
00000000
00000000
00000000
00000000
,
00000000
00000000
00000000
00000000
,
00000000
00000000
00000000
00000000
,
00000000
00000000
00000000
00000000
,
00000000
00000000
00000000
00000000
,
01000000
00000000
01000000
00000000
,
00100000
00000000
00010000
00000000
,
00000100
00000000
00000100
00000000
,
00000010
00000000
00001000
00000000
,
00010000
00001000
00010000
00000100
,
00001000
00000001
00001000
00000100
,
00010000
00001000
01000000
00010000
,
10000000
01000000
00100000
00010000
,
00002000
00003000
00020000
00030000
,
00022000
00000000
00000000
00033000
,
00000000
00001000
00000100
00001000
,
00000000
00000001
00000100
00000001
,
00000000
00001000
00000100
00001000
,
00000000
00001000
00000000
00010000
,
00000000
00010000
01000000
00010000
,
00000000
10000000
01000000
10000000
,
00000000
00010000
01000000
00010000
,
00000000
00010000
00000000
00001000
,
00000010
00000010
00001001
00000000
,
00000100
00000100
00011000
00000000
,
01000000
01000000
10010000
00000000
,
00100000
00100000
10010000
00000000
,
02000000
03000000
00200000
00300000
,
10000000
01000000
00100000
00010000
,
00022000
00000000
00033000
00000000
,
00002000
00000000
00003000
00000010
,
00000002
00000003
00002000
00003000
,
00000001
00000100
00001000
00000000
,
00020000
00030000
20000000
30000000
,
10000000
01000000
00010000
00000000
,
20000000
30000000
00020000
00030000
,
10000000
00100000
00010000
00000000
,
00002000
00003000
00000002
00000003
,
00000001
00000010
00001000
00000100
,
00000002
00000013
00002000
00003010
,
00000001
00000100
00001000
00000100
,
00010000
00001000
00010000
00001000
,
01000000
00010000
00100000
10000000
,
20000000
31000000
00020000
01030000
,
10000000
00100000
00010000
00100000
,
00001000
00010000
00001000
00010000
,
00000020
00000030
00000200
00000300
,
00000002
00000003
00002000
00003000
,
00002002
00000000
00000000
00003003
,
00022000
00000000
00000000
00033000
,
20020000
00000000
00000000
30030000
,
00200000
00300000
02000000
03000000
,
00022000
00000000
00000000
00033000
,
00011000
00000000
00000000
00000000
,
00000100
00000000
00001000
00000000
,
00000100
00000000
00000001
00000000
,
00000100
00000000
00001000
00000000
,
00010000
00000000
00100000
00000000
,
10000000
00000000
01000000
00000000
,
00100000
00000000
00010000
00000000
,
00000100
00000000
00001000
00000010
,
00000002
00000000
00000003
00000000
,
00002000
00000000
00003000
00000000
,
00010000
00000000
10000000
00000000
,
00010000
10000000
00010000
10000000
,
00020000
00030000
00002000
00003000
,
00022000
00000000
00000000
00000000
,
00033000
00000000
00000000
00000000
;

//---------------dance-single - Copied from----------------
#NOTES:
     dance-single:
     Copied from:
     Medium:
     7:
     0.341,0.397,0.178,0.474,0.000:
0000
0000
0000
0000
,
0000
0000
0000
0000
,
0000
0000
0000
0000
,
0000
0000
0000
0000
,
0000
0000
0000
0000
,
2000
3000
0002
0003
,
0200
0300
0020
0030
,
2000
3000
0200
0300
,
0020
0030
0002
0003
,
1000
0001
1000
0000
0010
0000
0100
0000
,
0001
1000
0001
0000
0100
0000
0010
0000
,
1000
0100
1000
0000
0001
0100
0001
0000
,
1000
0010
0100
0001
,
2002
3003
2200
3300
,
0202
0000
0000
0303
,
0010
1001
0100
0100
,
1000
0101
0010
0010
,
0001
1100
0010
0010
,
1000
0000
0101
0000
1000
0001
1000
0000
,
0010
1100
0010
0010
,
0100
0011
0100
0100
,
0001
1010
0100
0100
,
1000
0000
1001
0000
0100
0010
0100
0000
,
0001
0000
0100
0001
0000
0000
1000
0000
,
0001
0000
1000
0100
0000
0000
0001
0000
,
1000
0000
0100
0010
0000
0000
1000
0000
,
0001
0100
0001
0100
0000
0000
0010
0000
,
1000
0100
0010
0001
,
0100
0010
0100
0010
0000
0000
1001
0000
,
0010
0001
0100
1000
,
0220
0000
0000
0000
0330
0000
1000
0001
,
2000
3000
0002
0003
,
0100
0010
0100
0000
0010
0000
0100
0000
,
0001
0100
1000
0000
,
1000
0100
1000
0000
0001
0000
1000
0100
,
2000
3000
0002
0003
,
0010
0100
0010
0000
0100
0000
0010
0000
,
1000
0100
0001
0000
,
1000
0010
0100
0001
,
2002
3003
0220
0330
,
1000
0001
1000
0000
0001
0000
0100
0000
,
0010
1000
0100
0000
,
0010
0001
0010
0000
0001
0000
0100
0010
,
0200
0300
0020
0030
,
0001
0000
0100
0000
1000
0000
0010
1000
,
0010
0000
0100
0001
0100
0000
0010
1000
,
0020
0030
0200
0300
,
0002
0003
2000
3000
,
2002
0000
0000
3003
,
0220
0000
0000
0330
,
2000
0100
0100
3100
,
0002
0100
0100
0103
,
0200
0010
0010
0310
,
2002
0000
3003
0000
,
0020
0030
0200
0300
,
0002
0003
2000
3000
,
0001
0100
0010
1000
,
0002
0003
2000
3000
,
0020
0030
0200
0300
,
2000
3000
0002
0003
,
1000
0100
0010
0001
,
2002
0000
3003
0000
,
0220
0000
0330
0000
,
2000
3000
0002
0003
,
1000
0100
0010
0001
,
1001
0000
0010
0000
,
0200
0000
0000
0000
,
0300
0000
0000
0000
;

//---------------dance-double - ----------------
#NOTES:
     dance-double:
     :
     Hard:
     11:
     0.450,0.482,0.127,0.339,0.000: // measure 1
00000000
00000000
00000000
00000000
,  // measure 2
00000000
00000000
00000000
00000000
,  // measure 3
00000000
00000000
00000000
00000000
,  // measure 4
00000000
00000000
00000000
00000000
,  // measure 5
00000000
00000000
00000000
00000000
,  // measure 6
10000000
01000000
10000000
01000000
00000000
01000000
00010000
01000000
,  // measure 7
00000000
00010000
00001000
00010000
00000000
00001000
00010000
00001000
,  // measure 8
00000000
00000100
00001000
00000100
00000000
00001000
00000010
00001000
,  // measure 9
00000000
00000001
00000100
00000000
00000010
00000000
00001000
00000000
,  // measure 10
00000100
00010000
00000100
00000000
00010000
00001000
00010000
00000000
,  // measure 11
00001000
00010000
00100000
00000000
01000000
10000000
00100000
00000000
,  // measure 12
10000000
01000000
10000000
00000000
00010000
01000000
00010000
00000000
,  // measure 13
00100000
00010000
00001000
00000000
00010000
00000100
00001000
00000000
,  // measure 14
00000020
00001000
00000100
00001030
,  // measure 15
00002000
00000100
00010000
00003100
,  // measure 16
00010000
00000000
00001000
00000000
00010000
00001000
01000000
00001000
,  // measure 17
00000000
01000000
00010000
01000000
00000000
10000000
01000000
10000000
,  // measure 18
00000000
00000000
00100000
00000000
10000000
01000000
10000000
00100000
,  // measure 19
00000000
00010000
00100000
00010000
00000000
00000100
00010000
00000100
,  // measure 20
00000000
00000000
00001000
00000100
00001000
00000010
00000000
00000100
,  // measure 21
00000010
00000000
00000001
00000100
00000001
00000100
00000000
00000010
,  // measure 22
00001000
00000000
00000100
00010000
00000100
00010000
00000000
00001000
,  // measure 23
00010000
00000000
00001000
01000000
00000000
00000000
01100000
00000000
,  // measure 24
10000000
01000000
00100000
00020000
00000000
00000000
01030000
00000000
,  // measure 25
00001000
00010000
00000100
00002000
00000000
00003010
00000100
00000001
,  // measure 26
00000000
00000010
00000100
00000000
00001000
00000100
00010000
00000000
,  // measure 27
00001000
00010000
00001000
01000000
00000000
00001000
00100000
00010000
,  // measure 28
02000000
00100000
00010000
03100000
,  // measure 29
10000000
01000000
00100000
00010000
00000000
01000000
00001000
00100000
,  // measure 30
00002000
00010000
00010000
00013000
,  // measure 31
00020200
00000000
00000000
00000000
00030300
00000000
00001000
00000100
,  // measure 32
00000020
00000130
00000002
00000103
,  // measure 33
00000001
00000100
00000010
00001000
00001100
00000000
00000101
00000000
,  // measure 34
00001100
00000000
00000100
00010000
00011000
00000000
00001000
00000000
,  // measure 35
00100000
00010000
01000000
00000000
01100000
00000000
10000000
00010000
,  // measure 36
10010000
00000000
10000000
01000000
11000000
00000000
00100000
00000000
,  // measure 37
00010000
00100000
00001000
00100000
00001000
00000000
00010000
00000010
,  // measure 38
00001000
00000000
00001000
00000010
00000100
00000000
00001000
00000100
,  // measure 39
00001000
00010100
00011000
00101000
,  // measure 40
00020000
00000000
01030000
00100000
20000000
00000000
30100000
00000000
,  // measure 41
10000000
01000000
10000000
00100000
02000000
00000000
03010000
00100000
,  // measure 42
00020000
00000000
00130000
00100000
00200000
00000000
00301000
00000000
,  // measure 43
00010000
00000010
00001000
00000001
00002000
00000000
00003010
00001000
,  // measure 44
00000200
00010300
00002000
01003000
,  // measure 45
00010000
00100000
01000000
10000000
00200000
00000000
10300000
01000000
,  // measure 46
20000000
00000000
30010000
01000000
00020000
00000000
10030000
01000000
,  // measure 47
20000000
31000000
00200000
00310000
,  // measure 48
00002000
00010000
00003200
00001000
,  // measure 49
00000302
00000010
00000010
00000103
,  // measure 50
00002000
00000000
00000100
00000000
00000100
00000000
00000000
00003010
,  // measure 51
00000200
00001000
00000001
00001300
,  // measure 52
00000200
00010000
00001000
00010300
,  // measure 53
00020000
00000100
01000000
01030000
,  // measure 54
20000000
01000000
00000000
01000000
00000000
01000000
00000000
31000000
,  // measure 55
00000000
00100000
00000000
00100000
00000000
01000000
00010000
00200000
,  // measure 56
00000000
00001000
00000000
00302000
00000000
00000100
00000000
00003100
,  // measure 57
00000000
00002000
00000000
00000010
00000000
00000001
00000000
00003100
,  // measure 58
00000010
00001000
00000010
00000100
00000000
00000010
00001000
00000100
,  // measure 59
00000000
00001000
00000100
00010000
00000000
00001000
01000000
00010000
,  // measure 60
00000000
10000000
01000000
00100000
00000000
01000000
00010000
00100000
,  // measure 61
00000000
00100000
00001000
00010000
00000000
00010000
00000100
00001000
,  // measure 62
00001000
00000010
00000100
00000001
,  // measure 63
00001000
00000000
00000010
00000000
00000100
00000000
00000010
00001000
,  // measure 64
00000010
00000000
00010000
00001000
00010000
00000000
00000000
00001000
,  // measure 65
01000000
00010000
10000000
00100000
,  // measure 66
22000000
33000000
00220000
00330000
,  // measure 67
00022000
00000000
00000000
00000000
,  // measure 68
00033000
00000000
00000000
00000000
;

//---------------dance-double - ----------------
#NOTES:
     dance-double:
     :
     Medium:
     7:
     0.359,0.397,0.195,0.508,0.000:
00000000
00000000
00000000
00000000
,
00000000
00000000
00000000
00000000
,
00000000
00000000
00000000
00000000
,
00000000
00000000
00000000
00000000
,
00000000
00000000
00000000
00000000
,
20000000
30000000
00020000
00030000
,
00002000
00003000
00000002
00000003
,
00002000
00003000
00020000
00030000
,
00100000
01000000
10000000
00010000
,
20000000
31000000
10000000
00010000
,
00020000
01030000
00001000
00010000
,
00020000
00030100
00001000
00000001
,
00000002
00001003
00000100
00010000
,
00002000
00003000
00020000
00030000
,
00022000
00000000
00000000
00033000
,
00001000
00011000
00100000
00100000
,
01000000
10010000
01000000
01000000
,
00100000
00011000
00001000
00001000
,
00000100
00001100
00000001
00000001
,
00000010
00000000
00001100
00000000
00000010
00001000
00000010
00000000
,
00001000
00001100
00010000
00010000
,
00001000
00000000
01001000
00000000
01000000
00010000
01000000
00000000
,
00100000
10100000
00100000
01100000
,
10000000
01000000
10000000
01000000
00000000
00000000
00000000
00000000
,
00100000
00001000
00100000
00001000
00000000
00000000
00000000
00000000
,
00010000
00000010
00010000
00000010
00000000
00000000
00000000
00000000
,
00000100
00000010
00000100
00000010
00000000
00000000
00001001
00000000
,
00000001
00000100
00000010
00001000
,
00010000
00001000
00010000
00001000
00000000
00000000
00011000
00000000
,
00100000
00001000
00100000
00010000
,
02200000
00000000
03300000
10000000
,
02020000
03030000
22000000
33000000
,
00100000
01000000
10010000
11000000
,
00100000
00010000
00002000
00003000
,
00010000
00000100
00010000
00000000
00000020
00000000
00001000
00000000
,
00000130
00000101
00001000
00001100
,
00000001
00000100
00000001
00000000
00001000
00000000
00000100
00000000
,
00010000
00010000
00001000
00000000
,
00010000
00001000
00000100
00000010
,
00000002
00000000
00002003
00000000
,
00003010
00000100
00000010
00000000
00000100
00000000
00000010
00000000
,
00001000
00000000
00000100
00001000
00000100
00000000
00010000
00000000
,
00001000
00000000
01000000
00010000
01000000
00000000
00100000
00000000
,
22000000
33000000
02020000
03030000
,
00100000
01000000
10010000
10000000
,
01000000
00000000
00100000
01000000
00100000
00000000
01000000
00000000
,
20000000
30010000
02000000
03001000
,
00020000
00030100
00002000
00003001
,
00000020
00001000
00000100
00010030
,
00020000
00000000
00001000
00000000
01030000
00000000
10000000
01000000
,
20000000
00100000
30200000
00010000
,
00320000
00000010
00030020
00000001
,
00000032
00000100
00000203
00010300
,
00011000
00000000
00020000
00030000
,
00002000
00003000
02000000
03000000
,
00020000
00030000
20000000
30000000
,
00200000
00300000
00002000
00003000
,
00020000
00030000
00000020
00000030
,
00002000
00003000
00000200
00000300
,
00000002
00000003
00002000
00003000
,
00000200
00000300
00020000
00030000
,
00002000
00000000
00003000
00000000
,
00020000
00000000
00000000
00000000
00030000
00000000
01000000
00100000
,
01000000
00000000
10000000
01000000
10000000
00000000
00000000
00010000
,
10000000
01000000
00010000
01000000
,
20000000
30000000
00020000
00000000
,
00002000
00000000
00000000
00000000
,
00033000
00000000
00000000
00000000
;

//---------------dance-single - Copied from----------------
#NOTES:
     dance-single:
     Copied from:
     Easy:
     5:
     0.254,0.312,0.127,0.347,0.000:
0000
0000
0000
0000
,
0000
0000
0000
0000
,
0000
0000
0000
0000
,
0000
0000
0000
0000
,
0000
0000
0000
0000
,
0100
0000
0100
0000
,
1000
0000
0001
0000
,
0100
0000
0100
0000
,
0001
0000
1000
0000
,
0001
1000
0001
0100
,
1000
0001
1000
0100
,
1001
0000
1001
0000
,
1000
0100
0010
0001
,
2000
3000
0002
0003
,
2002
0000
0000
3003
,
0000
1000
0100
1000
,
0000
0001
0100
0001
,
0000
0100
0010
0100
,
0000
0010
0000
0100
,
0000
0001
0010
0001
,
0000
1000
0010
1000
,
0000
0010
0100
0010
,
0000
0100
0000
0100
,
0010
0010
1001
0000
,
0100
0100
1001
0000
,
0001
0001
1001
0000
,
1000
1000
1001
0000
,
0200
0300
0020
0030
,
1000
0100
0010
0001
,
2002
0000
3003
0000
,
2000
0000
3000
1001
,
0002
0003
2000
3000
,
0001
0100
1000
0000
,
2000
3000
0002
0003
,
1000
0100
0001
0000
,
0002
0003
2000
3000
,
0001
0010
1000
0000
,
0200
0300
0020
0030
,
0001
0010
0100
1000
,
0002
0013
2000
3010
,
0001
0100
1000
0100
,
0001
1000
0001
1000
,
0100
0001
0010
1000
,
2000
3100
0002
0103
,
1000
0010
0001
0010
,
1000
0001
1000
0001
,
0020
0030
0200
0300
,
0002
0003
2000
3000
,
2002
0000
0000
3003
,
0220
0000
0000
0330
,
2002
0000
0000
3003
,
0020
0030
0200
0300
,
2002
0000
0000
3003
,
1001
0000
0000
0000
,
0100
0000
1000
0000
,
0100
0000
0001
0000
,
0100
0000
1000
0000
,
0001
0000
0010
0000
,
1000
0000
0100
0000
,
0010
0000
0001
0000
,
0100
0000
1000
0010
,
0002
0000
0003
0000
,
2000
0000
3000
0000
,
0001
0000
1000
0000
,
0001
1000
0001
1000
,
0002
0003
2000
3000
,
2002
0000
0000
0000
,
3003
0000
0000
0000
;

//---------------dance-single - Copied from Copied f----------------
#NOTES:
     dance-single:
     Copied from Copied f:
     Beginner:
     2:
     0.140,0.199,0.025,0.093,0.000:
0000
0000
0000
0000
,
0000
0000
0000
0000
,
0000
0000
0000
0000
,
0000
0000
0000
0000
,
0000
0000
0000
0000
,
1000
0000
0000
0000
,
1000
0000
0000
0000
,
0001
0000
0000
0000
,
0001
0000
0000
0000
,
1000
0000
1000
0000
,
0001
0000
0001
0000
,
1000
0000
0001
0000
,
0100
0000
0010
0000
,
2000
0000
3000
0000
,
0002
0000
0003
0000
,
0000
1000
0000
1000
,
0000
0001
0000
0001
,
0000
1000
0000
0100
,
0000
0001
0000
0100
,
0000
1000
0000
1000
,
0000
0001
0000
0001
,
0000
0010
0000
0001
,
0000
1000
0000
0010
,
0010
0000
0000
0000
,
0100
0000
0000
0000
,
0010
0000
0100
0000
,
1000
1000
1000
0000
,
0010
0000
0100
0000
,
0001
0001
0001
0000
,
2000
0000
3000
0000
,
0002
0000
0003
0000
,
1000
0000
1000
0000
,
0001
0000
0001
0000
,
1000
0000
0001
0000
,
0100
0000
0100
0000
,
0001
0000
1000
0000
,
0001
0000
0001
0000
,
0100
0000
0010
0000
,
0200
0000
0300
0000
,
0010
0000
0010
0000
,
1000
0000
0001
0000
,
0100
0000
0100
0000
,
0001
0000
1000
0000
,
0100
0000
0100
0000
,
1000
0000
0001
0000
,
1000
0000
1000
0000
,
0001
0000
0001
0000
,
0100
0000
0100
0000
,
0020
0000
0030
0000
,
0200
0000
0300
0000
,
2002
0000
0000
0000
,
0000
0000
0000
3003
,
0000
0000
0000
0000
,
0010
0000
0000
0000
,
0100
0000
0000
0000
,
0010
0000
0000
0000
,
0100
0000
0000
0000
,
0001
0000
1000
0000
,
0001
0000
1000
0000
,
0010
0000
0100
0000
,
0010
0000
0100
0000
,
1001
0000
0000
0000
,
1000
0000
0000
0000
,
0001
0000
1000
0000
,
0001
0001
0001
0000
,
1000
0000
0001
0000
,
2002
0000
0000
0000
,
3003
0000
0000
0000
;

//---------------dance-single - ----------------
#NOTES:
     dance-single:
     :
     Challenge:
     15:
     0.699,0.822,0.212,0.398,0.436:
0000
0000
0000
0000
,
0000
0000
0000
0000
,
0000
0000
0000
0000
,
0000
0000
0000
0000
,
0000
0000
0000
0000
,
0010
1000
0001
1000
0000
0001
1000
0001
,
0000
1000
0001
1000
0000
0100
1000
0100
,
1000
0000
0010
0000
0100
0000
0000
0000
0001
0000
0100
0000
0010
0000
1000
0010
,
1000
0001
1000
0000
0001
0100
0001
0000
1000
0100
1000
0000
0001
1000
0001
0000
,
0001
0000
0100
0001
0100
0000
0010
1000
0010
0000
0100
0000
0001
0000
0100
0010
,
1000
0000
0001
0000
1000
0000
0010
0000
0100
0010
1000
0010
0100
0000
0010
0000
,
0100
0000
0001
0100
0001
0000
1000
0000
0010
0000
1000
0100
1000
0000
0010
0000
,
0100
0000
0001
1000
0100
0000
1000
0000
0020
0000
0000
0000
0230
0000
0000
0000
,
0302
0003
2000
3000
,
0220
0000
0000
0000
0330
0000
0000
0000
0010
0100
0010
0000
0010
0100
0010
0100
,
0010
0000
1000
0000
0100
0000
1000
0000
0010
0000
0100
0001
0100
0000
0001
0000
,
0010
0000
0100
0000
1000
0000
0010
0000
1000
0000
0010
1000
0010
0000
1000
0100
,
1000
0000
1000
0000
0010
0000
0100
0000
0001
0000
0100
0001
0100
0000
0010
0000
,
1000
0000
0100
0000
1000
0000
0001
0000
0100
0000
0001
1000
0001
0000
1000
0001
,
1000
0000
0010
0000
0100
0000
0001
0000
1000
0001
0000
0010
0000
0001
1000
0000
,
0001
0000
0100
0000
0010
0000
1000
0000
0001
0100
0000
0010
0000
0100
0001
0000
,
1000
0010
0000
0100
0000
0010
1000
0000
0001
0100
0000
0010
0000
0100
0001
0000
,
1000
0100
0000
0010
0000
0000
1000
0000
0001
0100
0000
0010
0000
1000
0010
1000
,
0020
0000
1030
0200
0000
1300
1001
1000
,
0001
0100
0010
2000
0000
3001
0100
0010
,
1000
0000
0001
0100
0001
0000
1000
0100
1000
0000
0010
0000
0100
0000
0001
0000
,
0100
0010
0100
0000
0001
0000
1000
0000
0010
0000
1000
0100
1000
0000
0010
0000
,
0200
0000
0001
0000
0000
0000
0010
0000
0000
0000
0301
0000
0101
0000
0100
0010
,
1000
0001
0100
0010
1000
0100
0010
0001
,
0200
0001
0001
0301
,
2002
0000
0000
0000
3003
0000
1000
0010
,
0100
0000
0000
0000
1100
0000
1000
0010
0100
0000
0000
0000
0110
0000
0100
0001
,
1000
0001
0100
0010
2000
0000
3001
0100
,
0002
0000
0100
0000
1003
0000
0010
0000
2000
0000
0100
0000
3001
0000
0100
0001
,
0100
0000
0010
0000
0100
0000
0001
0100
0002
0000
1003
0000
0010
0000
1000
0000
,
0001
0000
1000
0000
1100
0000
1000
0010
0100
0000
0001
0000
0101
0000
0100
0010
,
1000
0001
0100
0010
0200
0000
0301
1000
,
0020
0000
1000
0000
0130
0000
1000
0000
0002
0000
0100
0000
0013
0000
0100
0001
,
2000
0000
0000
0000
3010
0000
0100
0000
0001
0100
0001
0000
1000
0100
1000
0100
,
1000
0000
0001
0000
1001
0000
1000
0010
0100
0000
0001
0000
0101
0000
0001
0100
,
0010
1000
1100
1000
0020
0000
0130
0001
,
2000
0000
0010
0000
3100
0000
0001
0000
0200
0000
0010
0000
1300
0000
0010
0100
,
0010
0000
1000
0000
0010
0000
0100
0001
0100
0000
0010
0000
1000
0000
0100
0000
,
2000
0000
3010
0000
1010
0000
0100
0001
0200
0000
0301
0000
0101
0000
0001
0100
,
0010
1000
0010
0100
0002
0000
1003
0010
,
1010
0000
1000
0100
1000
0000
0010
0000
0110
0000
0100
0001
0100
0000
0010
0000
,
1000
0010
1000
0010
1000
0010
1000
0000
0001
0100
0001
0100
0001
0100
0001
0000
,
1000
0100
1000
0100
1000
0100
1000
0000
0010
0001
0010
0001
0010
0001
0010
0000
,
1000
0001
1000
0000
0001
1000
0001
0000
1000
0001
1000
0000
0001
1000
0001
0000
,
0100
0010
0100
0000
0010
0100
0010
0000
0100
0010
0100
0000
0100
0010
0100
0010
,
1000
0001
1000
0001
1000
0001
1000
0000
0001
1000
0001
1000
0001
1000
0001
0000
,
1000
0001
1000
0001
1000
0001
1000
0000
0001
1000
0001
0000
1000
0001
1000
0000
,
1000
0100
0010
0000
0001
0010
0100
0000
1000
0100
0010
0001
0010
0100
1000
0000
,
0002
0100
0000
0100
0000
0100
0000
0103
,
2000
0100
0000
0100
0000
0100
0000
3100
,
0020
0100
0000
0100
0000
0100
0000
0130
,
2000
0000
0010
3001
,
0002
0100
0000
0103
2000
0100
0000
3100
,
0002
0100
0000
0103
2000
0010
0000
3010
,
0002
0010
0000
0013
2000
0100
0000
3100
,
0002
0000
1000
0103
,
1000
0000
0010
0100
0001
0000
0100
0010
1000
0000
0001
0000
0101
0000
0000
0000
,
1100
0110
0011
0110
1100
0110
1001
1001
,
0200
0000
0000
0000
0301
0000
0010
0000
2002
0000
0000
0000
3003
0000
0001
0100
,
0002
0000
1003
0010
0200
0000
0302
0000
,
2003
0000
3020
0000
,
0200
0000
0000
0000
,
0330
0000
0000
0000
;

//---------------dance-double - ----------------
#NOTES:
     dance-double:
     :
     Challenge:
     15:
     0.653,0.766,0.203,0.296,0.364: // measure 1
00000000
00000000
00000000
00000000
,  // measure 2
00000000
00000000
00000000
00000000
,  // measure 3
00000000
00000000
00000000
00000000
,  // measure 4
00000000
00000000
00000000
00000000
,  // measure 5
00000000
00000000
00000000
00000000
,  // measure 6
10000000
00010000
00000000
00010000
00000000
00010000
01000000
00001000
,  // measure 7
00000000
00010000
00000000
00010000
00000000
00010000
00000100
00001000
,  // measure 8
00000000
00000000
00000001
00000000
00000000
00000000
00000001
00000000
00000000
00000000
00000001
00000000
00001000
00000000
00000100
00001000
,  // measure 9
00000100
00001000
00000100
00000000
00010000
00001000
00010000
00000000
00001000
00100000
00001000
00000000
00100000
00010000
00100000
00000000
,  // measure 10
00010000
00000000
10000000
01000000
00100000
00000000
00010000
00100000
01000000
00000000
10000000
00000000
00010000
00000000
01000000
00000000
,  // measure 11
00001000
00010000
00000100
00001000
00000001
00000100
00000010
00001000
,  // measure 12
00000100
00000000
00010000
00001000
00010000
00000000
00001000
00000000
00100000
00000000
00010000
01000000
00010000
00000000
01000000
00000000
,  // measure 13
00100000
10000000
00100000
00000000
10000000
00000000
01000000
00000000
10000000
00000000
00100000
01000000
00100000
00000000
10000000
00000000
,  // measure 14
00020000
00030000
20000000
30000000
,  // measure 15
02200000
00000000
00000000
00000000
03300000
00000000
00000000
00000000
00100000
01000000
00100000
00000000
01000000
00100000
01000000
00100000
,  // measure 16
01000000
00000000
00010000
00000000
01000000
00000000
00100000
00000000
10000000
00000000
01000000
10000000
01000000
00000000
10000000
00000000
,  // measure 17
00100000
00000000
01000000
00000000
00010000
00000000
01000000
00000000
00001000
00000000
00010000
00001000
00010000
00000000
00000100
00000000
,  // measure 18
00001000
00000000
00000010
00000000
00000100
00000000
00000001
00000000
00001000
00000000
00000001
00001000
00000001
00000000
00001000
00000000
,  // measure 19
00000100
00000000
00010000
00000000
00001000
00000000
01000000
00000000
00010000
00000000
01000000
00010000
01000000
00000000
00010000
00000000
,  // measure 20
00100000
00000000
00001000
00000000
00010000
00000000
00000100
00000000
00001000
00000010
00000000
00001000
00000000
00000100
00001000
00000000
,  // measure 21
00000010
00000000
00000100
00000000
00000001
00000000
00000100
00000000
00000010
00001000
00000000
00000100
00000000
00001000
00000100
00000000
,  // measure 22
00010000
00001000
00000000
00010000
00000000
00000000
00001000
00000000
00100000
00010000
00000000
00100000
00000000
00000000
00010000
00000000
,  // measure 23
10000000
01000000
00000000
00100000
00000000
00000000
10000000
00000000
00010000
01000000
00000000
00100000
00000000
01000000
00010000
00000000
,  // measure 24
01000000
00100000
10000000
00020000
00000000
00130000
00001000
00010000
,  // measure 25
00000100
00001000
00000010
00001020
00000000
00001030
00000100
00001000
,  // measure 26
00000001
00000100
00000110
00000000
00001010
00000000
00001000
00000100
,  // measure 27
00010000
00000000
00001000
00000000
01000000
00000000
00010000
00000000
01000000
00000000
00100000
10000000
00100000
00000000
01000000
00000000
,  // measure 28
00020000
10000000
01000000
10030000
,  // measure 29
10000000
00100000
01000000
00001000
00010000
00000010
00001000
00000001
,  // measure 30
00000200
00000010
00000010
00000310
,  // measure 31
00002002
00000000
00000000
00000000
00003003
00000000
00000010
00001000
,  // measure 32
00001100
00000000
00000000
00000000
00001010
00000000
00001000
00000100
00010000
00000000
00000000
00000000
00011000
00000000
00010000
00001000
,  // measure 33
00100000
00010000
01000000
00100000
10010000
00000000
10000000
01000000
,  // measure 34
20000000
00000000
00100000
00000000
31000000
00000000
00010000
00000000
00200000
00000000
00001000
00000000
00301000
00000000
00010000
00001000
,  // measure 35
00010000
00000000
00000100
00000000
00001000
00000000
00000010
00000100
00000001
00000000
00000100
00000000
00000010
00000000
00001000
00000000
,  // measure 36
00001100
00000000
00000000
00000000
00010100
00000000
00010000
00001000
01000000
00000000
00000000
00000000
01010000
00000000
01000000
00010000
,  // measure 37
10000000
00100000
10000000
00010000
01010000
00000000
10000000
00100000
,  // measure 38
02000000
00000000
00010000
00000000
03100000
00000000
00010000
00000000
20000000
00000000
01000000
00000000
00100000
00000000
31000000
00010000
,  // measure 39
00200000
00000000
00301000
00010000
00000020
00000000
00001030
00000100
,  // measure 40
00000010
00000000
00000001
00000000
00000010
00000000
00000100
00000010
00000100
00000000
00000010
00000000
00000001
00000000
00001000
00000001
,  // measure 41
00001000
00000100
00010000
00001000
01000000
00010000
10000000
01000000
,  // measure 42
11000000
00000000
10000000
00000000
00100000
00000000
01000000
00000000
01010000
00000000
01000000
00000000
00001000
00000000
00010000
00001000
,  // measure 43
00010000
00000000
00000100
00000000
00001000
00000000
00000010
00000100
00000001
00000000
00000100
00000000
00000010
00001000
00000100
00001000
,  // measure 44
00000010
00000000
00000000
00000000
00001010
00000000
00001000
00000100
00010000
00000000
00000000
00000000
00011000
00000000
00010000
00001000
,  // measure 45
01000000
00000000
00010000
00000000
00100000
00010000
01000000
00000000
00100000
00000000
10000000
00000000
01000000
00000000
10000000
00100000
,  // measure 46
01000000
00000000
00010000
00100000
00010000
00000000
01000000
00000000
00001000
00000000
00010000
00000100
00010000
00000000
00000100
00000000
,  // measure 47
00001000
00000010
00001000
00000010
00001000
00000010
00001000
00000000
00000100
00000001
00000100
00000001
00000100
00000001
00000100
00000000
,  // measure 48
00000010
00001000
00000010
00001000
00000010
00000000
00001000
00000000
00000100
00010000
00000100
00010000
00000100
00000000
00010000
00000000
,  // measure 49
00001000
01000000
00001000
00000000
01000000
00001000
01000000
00000000
00001000
01000000
00001000
00000000
01000000
00001000
01000000
00000000
,  // measure 50
00010000
10000000
00010000
00000000
10000000
00010000
10000000
00000000
00010000
10000000
00010000
00000000
01000000
00000000
00001000
00000000
,  // measure 51
00010000
00001000
00010000
00000000
00001000
00010000
00001000
00000000
00010000
00001000
00010000
00000000
00001000
00010000
00001000
00000000
,  // measure 52
00010000
00001000
00010000
00001000
00010000
00001000
00010000
00000000
00001000
00010000
00001000
00010000
00001000
00000000
01000000
00000000
,  // measure 53
00010000
00100000
01000000
00000000
10000000
01000000
00100000
00000000
00001000
00010000
00000100
00000000
00001000
00000100
00000010
00000000
,  // measure 54
00000002
00000100
00000000
00000100
00000000
00000100
00000000
00000103
,  // measure 55
00002000
00000100
00000000
00000100
00000000
00000100
00000000
00003100
,  // measure 56
00020000
00001000
00000000
00001000
00000000
00001000
00000000
00031000
,  // measure 57
02000000
00000000
00010000
13000000
,  // measure 58
00020000
01000000
00000000
01030000
20000000
01000000
00000000
31000000
,  // measure 59
00200000
00010000
00000000
00301000
00020000
00000010
00000000
00030100
,  // measure 60
00002000
00000010
00000000
00003100
00000002
00000100
00000000
00000013
,  // measure 61
00002000
00000000
00000001
00003100
,  // measure 62
00000001
00000000
00000100
00000010
00000100
00000000
00000010
00010000
00000010
00000000
00010000
00000000
00011000
00000000
00000000
00000000
,  // measure 63
00101000
00101000
00011000
00011000
00010100
00010100
00010000
00001000
,  // measure 64
02000000
00000000
00000000
00000000
03010000
00000000
10000000
00000000
00200000
00000000
00000000
00000000
00300000
00000000
10000000
00100000
,  // measure 65
00020000
00000000
00130000
00001000
00020000
00000000
00030020
00000000
,  // measure 66
00000230
00000000
00020300
00000000
,  // measure 67
00002000
00000000
00000000
00000000
,  // measure 68
00033000
00000000
00000000
00000000
;
