#TITLE:Tropical April;
#SUBTITLE:;
#ARTIST:Risk Junk;
#TITLETRANSLIT:;
#SUBTITLETRANSLIT:;
#ARTISTTRANSLIT:;
#GENRE:;
#CREDIT:;
#MENUCOLOR:;
#METERTYPE:DDR X;
#BANNER:Tropical April.png;
#BACKGROUND:Tropical April-bg.png;
#LYRICSPATH:;
#CDTITLE:;
#MUSIC:Tropical April.ogg;
#OFFSET:0.096;
#SAMPLESTART:31.937;
#SAMPLELENGTH:13.913;
#SELECTABLE:YES;
#LISTSORT:;
#BPMS:0.000=182.000;
#STOPS:;
#BGCHANGES:;
#ATTACKS:;

//---------------dance-single - ----------------
#NOTES:
     dance-single:
     :
     Hard:
     13:
     0.632,0.743,0.385,0.277,0.123:
0000
0000
0000
0000
,
0000
0000
0000
0000
,
0000
0000
0000
0000
,
0000
0000
0000
0000
,
0000
0000
0000
0000
,
0000
0000
0000
0000
,
0000
0000
0000
0000
,
0000
0000
0000
0000
,
0000
0000
0000
0000
,
0000
0000
0000
0000
,
2000
0000
0000
3000
,
0002
0000
0000
0003
,
0200
0000
0000
0300
,
0020
0000
0000
0030
,
0002
0200
0303
0020
,
2000
3030
0010
0110
,
0001
0101
0000
0001
0101
0000
0001
0101
,
0000
0001
0101
0000
0000
0000
0000
0000
,
1000
1100
0000
1000
1100
0000
1000
1100
,
0000
1000
1100
0000
0000
0000
0000
0000
,
0001
0100
0001
0100
0001
0000
1000
0010
,
1000
0010
1000
0000
0001
0100
0010
1000
,
0001
0100
0001
1000
0001
1000
0001
0100
0001
1000
0000
0000
,
2002
0000
0000
3003
,
0000
0010
1000
0100
,
1000
0001
1000
0001
1000
0100
0010
0001
,
1000
0001
1000
0001
0200
0000
0310
1000
,
0100
1000
0100
1000
0100
0000
1000
0010
,
0000
0001
0010
0000
1000
0100
0010
0001
,
0100
0000
1001
0000
0010
1000
0100
0000
,
1001
0000
1100
0000
0011
0000
1000
0010
,
0100
0110
0000
0001
0101
0000
1000
1100
,
0000
1000
0100
0010
0001
0100
0010
0000
,
0101
0000
1010
0000
0001
0100
0010
1000
,
0010
1000
0100
1000
0010
0100
0001
0100
,
1000
0100
0001
1000
1000
0000
0001
0010
,
0000
0001
0010
0100
1000
0010
1000
0100
,
0010
0001
0100
0001
1000
0100
1000
0001
,
0100
0001
1000
0010
0100
0001
0100
0010
,
2000
0000
3002
0000
0103
0010
0100
0010
,
0000
1100
0011
0110
,
1000
0001
1000
0001
1000
0010
0100
0001
,
1000
0001
1000
0001
0200
0000
0310
1000
,
0001
0100
0001
0100
0001
0000
1000
0010
,
0000
0100
0001
0000
0010
0100
0001
1000
,
0010
0000
1001
0000
0010
0100
0001
0000
,
1001
0000
0011
0000
1100
0000
0001
1000
,
0010
0110
0000
1000
1010
0000
0001
0101
,
0000
0010
0100
0001
1000
0001
0100
0000
,
0110
0000
1001
0000
1000
0100
0010
0001
,
1000
0000
0010
0100
0001
0100
0010
0100
,
0001
0000
0001
1000
1000
0000
0001
0010
,
0000
1000
0010
1000
0001
1000
0100
0010
,
0002
0000
0203
0000
0301
0100
0010
0000
,
0002
0000
2003
0000
3001
0100
0010
0000
,
0001
1001
0000
1000
1001
0000
0100
0110
,
0000
0010
0220
0000
0000
0000
0330
0000
,
1000
0100
1000
0020
0000
0130
0001
0100
,
0010
0000
0000
0010
1000
0000
0000
1000
0100
0000
0000
0100
0001
0000
0000
0001
,
0100
0010
0100
0001
1000
0100
0010
0100
,
1000
0001
0100
0001
1000
0010
0100
0010
,
1000
0001
0100
0002
0000
1003
0010
0100
,
0001
0000
0000
0001
0100
0000
0000
0100
0010
0000
0000
0010
1000
0000
0010
0000
,
0100
0000
0001
0100
0001
0000
0100
0000
0010
0000
1000
0010
1000
0000
0010
0000
,
0100
0000
0010
0100
0010
0000
0100
0000
0001
0000
1000
0100
1000
0000
0100
0000
,
0010
0000
0001
0000
0100
0000
0001
0000
0010
0000
0001
0000
1000
0001
1000
0000
,
0001
0100
0010
1000
0010
1000
0001
1000
,
0001
0100
0001
0000
0100
0001
0100
0000
0010
1000
0010
0000
1000
0010
1000
0000
,
0010
0000
0100
0000
0001
0100
0001
0100
0002
0000
0000
0000
2003
0000
0000
0000
,
3010
0000
0100
0001
0100
0000
0001
0000
0100
0001
0100
0000
0010
0000
1000
0000
,
0100
0000
1000
0001
1000
0000
0001
0000
1000
0001
1000
0000
0010
0000
0100
0000
,
0001
1000
0100
1000
0001
0100
0001
1000
,
0000
0101
1100
0101
,
0110
0000
0001
2000
0100
0000
0100
0000
,
3100
0000
0001
0010
0100
1000
0100
0010
,
0002
0000
0100
0000
0103
0000
0010
1010
,
0000
0010
0100
0001
0100
0010
1000
0100
,
0020
0230
0302
2003
,
3020
0000
0000
0000
0100
0000
0000
0000
0130
0000
0000
0000
1000
0000
0001
1000
,
0001
0100
0000
0001
0100
0000
0010
1000
,
0100
0010
0001
0100
0010
1000
0001
0000
,
1000
0100
1000
0100
0010
0001
0010
0001
,
0200
0000
0010
0000
0301
0000
0100
0010
,
2000
0000
0001
0000
3002
0000
0103
0010
,
0000
1000
0010
0100
0001
0100
0010
1000
,
1100
0000
0101
0000
0010
0100
0110
0000
,
1001
0000
1100
0000
0010
0001
0100
0000
,
0001
0101
0000
1000
1100
0000
0010
0110
,
0000
1000
1001
0000
0000
0000
0000
0000
,
0001
0000
0100
0001
0100
0000
0010
1000
0010
0000
0100
0010
0100
0000
0001
0000
,
1000
0001
2002
0000
0000
0000
0000
0000
,
0000
0000
0000
0000
,
3003
0000
0000
0000
;

//---------------dance-double - ----------------
#NOTES:
     dance-double:
     :
     Hard:
     13:
     0.614,0.708,0.292,0.385,0.088:
00000000
00000000
00000000
00000000
,
00000000
00000000
00000000
00000000
,
00000000
00000000
00000000
00000000
,
00000000
00000000
00000000
00000000
,
00000000
00000000
00000000
00000000
,
00000000
00000000
00000000
00000000
,
00000000
00000000
00000000
00000000
,
00000000
00000000
00000000
00000000
,
00000000
00000000
00000000
00000000
,
00000000
00000000
00000000
00000000
,
02000000
00000000
03002000
00000000
,
00023000
00000000
00000000
00030000
,
00000200
00000000
00020300
00000000
,
00032000
00000000
00000000
00003000
,
02000000
00200000
03300000
00002000
,
00020000
00033000
00000020
00000130
,
00000001
00000100
00000000
00000010
00010000
00000000
00001000
01000000
,
00000000
00010000
10000000
00000000
00000000
00000000
00000000
00000000
,
01000000
00001000
00000000
00010000
00000100
00000000
00001000
00000001
,
00000000
00000010
00000001
00000000
00000000
00000000
00000000
00000000
,
00000001
00001000
00000100
00001000
00000001
00000000
00001000
00000100
,
00010000
00001000
00010000
00000000
00001000
01000000
00010000
01000000
,
00010000
00100000
00010000
00100000
00000000
00000000
01000000
10000000
01000000
10000000
00000000
00000000
,
00200000
00000000
00000000
00300000
,
00000000
10000000
01000000
00001000
,
00000100
00000000
00000001
00000100
00000010
00000100
00000001
00001000
,
00000100
00000010
00000001
00001000
00000200
00000000
00010300
00001000
,
00100000
00010000
01000000
00010000
00100000
00010000
10000000
01000000
,
00100000
00010000
01000000
00001000
00010000
00001000
00010000
00000100
,
00002000
00000000
00003020
00000000
00000130
00000001
00001000
00000000
,
00000020
00000000
00002030
00000000
00003200
00000000
00010300
00001000
,
00100000
00010000
01000000
00100000
10000000
01000000
00100000
00010000
,
00000000
00100000
00001000
00010000
00000100
00001000
00000010
00000000
,
00000001
00001000
00000100
00010000
00001000
00010000
00000100
00001000
,
00000002
00000000
00002003
00000000
00003200
00000000
00010300
00001000
,
00200000
00000000
00310000
01000000
00200000
00000000
10300000
01000000
,
00000000
10000000
01000000
00100000
00001000
00010000
00000010
00001000
,
00000001
00000100
00000000
00000001
00001000
00000100
00010000
00001000
,
00000000
00100000
00010000
01000000
00100000
10000000
01000000
00100000
,
00020000
00000000
01000000
00000000
01030000
00100000
01000000
00001000
,
00000000
00010000
00000100
00000000
00001100
00000000
00000101
00000000
,
00001100
00000000
00000100
00010000
00001000
00010000
00000100
00010000
,
00001000
00000000
00100000
00010000
01000000
00000000
00100000
10000000
,
02000000
00000000
10000000
00000000
03010000
00000000
01000000
10000000
,
00000000
00100000
01000000
00010000
01000000
00001000
00010000
00001000
,
00010000
00000010
00001000
00000101
,
00002002
00000000
00003003
00000000
00001010
00000000
00001000
00000100
,
00010000
00001000
00010000
00000100
00001000
00000100
00001000
00000010
,
00000000
00000100
00000001
00001000
00000100
00010000
00001000
00000000
,
00100000
00010000
01000000
00010000
00100000
00010000
10000000
01000000
,
00200000
00000000
00301000
00000000
00020000
00000000
00030010
00001000
,
00000200
00000000
00001300
00000010
00000100
00000000
00000001
00001000
,
00000000
00000100
00010000
00001000
00010000
00000100
00010000
00001000
,
02000000
03200000
10300000
01010000
,
00210000
00301000
00010100
00001010
,
00000001
00001001
00000000
00001000
00001100
00000000
00010000
00011000
,
00000000
01000000
01010000
00000000
00000000
00000000
00000000
00000000
,
10000000
00100000
01000000
00002000
00000000
00013000
00000010
00000100
,
00000001
00000000
00000000
00000001
00000100
00000000
00000000
00000100
00000010
00000000
00000000
00000010
00001000
00000000
00000000
00001000
,
00000100
00010000
00001000
00010000
00000100
00001000
00000010
00000100
,
00000001
00001000
00000100
00010000
00001000
00100000
00010000
00000000
,
01000000
00100000
10000000
00020000
00000000
00130000
00001000
00010000
,
00000010
00000000
00000000
00000010
00001000
00000000
00000000
00001000
00000001
00000000
00000000
00000001
00000100
00000000
00000000
00000100
,
00000010
00000000
00001000
00000010
00001000
00000000
00000000
00000000
00001000
00000000
00000100
00001000
00000100
00000000
00000000
00000000
,
00010000
00000000
00001000
00010000
00001000
00000000
00000000
00000000
00100000
00000000
00010000
00100000
00010000
00000000
01000000
00000000
,
00100000
10000000
00100000
01000000
00010000
00100000
00001000
00010000
,
00000010
00001000
00000010
00000100
00000001
00001000
00000100
00001000
,
00000100
00001000
00000100
00000000
00001000
00000100
00001000
00000000
00000100
00001000
00000100
00000000
00010000
00000000
00001000
00000000
,
01000000
00000000
00010000
00000000
10000000
00100000
10000000
00100000
20000000
00000000
00000000
00000000
30010000
00000000
00000000
00000000
,
00100000
00010000
01000000
00100000
10000000
01000000
00100000
00001000
,
00010000
00000100
00001000
00000001
00001000
00000100
00001000
00000010
,
00000100
00000001
00001000
00000100
00010000
00001000
01000000
00010000
,
00000000
10100000
00110000
00011000
,
00001010
00000000
00000010
00000100
00000001
00000100
00000010
00001000
,
00000100
00000000
00010000
00001000
00010000
00000100
00010000
00001000
,
00020000
00000000
00032000
00000000
00203000
00000000
00310000
01000000
,
00000000
00100000
10000000
01000000
00100000
00000000
00001000
00000000
,
00011000
00000000
00001010
00000000
00000010
00001000
00000010
00000000
,
00001001
00000000
00001100
00000000
00001010
00000000
00010000
00001000
,
00100000
00010000
00100000
00010000
10000000
01000000
10000000
01000000
,
00000000
01000000
00010000
00100000
00001000
00010000
00000010
00000000
,
00001000
00000100
00000010
00000001
00001000
00000100
00010000
00001000
,
00200000
00000000
00320000
00000000
02030000
00000000
03100000
10000000
,
02000000
00000000
13000000
00100000
20000000
00000000
30010000
00100000
,
00000000
00100000
00001000
00010000
00000100
00000000
00001000
00000010
,
00001001
00002020
00003030
00001100
,
00022000
00033000
00110000
01001000
,
01010000
01010000
00000000
10010000
10010000
00000000
00110000
00110000
,
00000000
00011000
00011000
00000000
00000000
00000000
00000000
00000000
,
00001000
00000000
00000100
00000010
00000100
00000000
00001000
00000100
00001000
00000000
00000100
00000000
00010000
00000000
00001000
00000000
,
00100000
00010000
20020000
00000000
00000000
00000000
00000000
00000000
,
00000000
00000000
00000000
00000000
,
30030000
00000000
00000000
00000000
;

//---------------dance-single - ----------------
#NOTES:
     dance-single:
     :
     Medium:
     10:
     0.442,0.531,0.169,0.423,0.000:
0000
0000
0000
0000
,
0000
0000
0000
0000
,
0000
0000
0000
0000
,
0000
0000
0000
0000
,
0000
0000
0000
0000
,
0000
0000
0000
0000
,
0000
0000
0000
0000
,
0000
0000
0000
0000
,
0000
0000
0000
0000
,
0000
0000
0000
0000
,
2000
0000
0000
3000
,
0002
0000
0000
0003
,
0200
0000
0000
0300
,
0020
0000
0000
0030
,
0002
2000
3003
0020
,
0200
0330
0010
0100
,
0001
1000
0000
0001
1000
0000
0001
1000
,
0000
0001
1000
0000
0000
0000
0000
0000
,
1000
0001
0000
1000
0001
0000
1000
0001
,
0000
1000
0001
0000
0000
0000
0000
0000
,
0001
0100
0000
0100
0001
0000
1000
0010
,
0000
0010
1000
0000
0001
0000
0010
0000
,
1000
0100
0010
0001
,
2002
0000
0000
3003
,
0000
0010
1000
0100
,
1000
0000
0001
0002
0000
0000
0000
0000
,
0003
0000
1000
0010
1000
0000
0001
0100
,
0002
0000
0000
0000
0003
0000
0100
0010
,
0000
0100
0010
0000
1000
0000
0001
0000
,
0100
0010
0000
1010
,
2020
0000
3030
0000
0202
0000
0303
1000
,
0001
1000
0000
0001
1000
0000
0001
0100
,
0000
0001
1000
0000
0010
0100
0010
0000
,
1000
0000
0010
0000
1000
0001
1000
0000
,
0001
0000
0100
0000
0010
0000
1000
0001
,
2000
0000
0000
3001
0100
0000
0001
0100
,
0000
0010
1000
0100
,
0010
0001
0000
0010
0001
0000
0010
0001
,
0000
1000
0001
0000
1000
0000
0100
0000
,
0020
0000
0000
0000
0000
0031
0100
0001
,
0000
1001
1001
1001
,
0001
0000
1000
2000
0000
0000
0000
0000
,
3000
0000
0001
0010
0001
0000
1000
0100
,
2000
0000
0000
0000
3000
0000
0010
0100
,
0000
0010
0100
0000
0001
0000
1000
0000
,
0100
0010
0000
0011
,
0022
0000
0033
0000
2200
0000
3300
0001
,
1000
0001
0000
0001
1000
0000
0001
0100
,
0000
0001
1000
0000
0010
0100
0010
0000
,
1000
0000
0010
0000
0100
0001
0100
0000
,
0020
0000
0130
0000
0010
0000
1000
0001
,
2000
0000
0000
3001
0100
0000
0001
0100
,
0000
0010
1000
0100
,
1010
0202
0303
0011
,
2200
3300
0010
0100
,
0001
0001
0000
1000
1000
0000
0010
0010
,
0000
0100
0200
0000
0000
0000
0300
0000
,
0001
0000
0100
0001
0000
0100
0100
0000
,
0002
0100
0100
0103
,
0010
0000
1000
0000
0100
1000
0100
0000
,
1000
0000
0010
0000
0100
0001
0100
0000
,
0010
0000
0100
0001
0000
0100
0100
0000
,
0020
0100
0100
0130
,
0002
0103
2000
3100
,
0002
0013
2000
3010
,
0100
0010
0100
0010
0100
0010
0100
0000
,
0001
1000
0001
1000
0001
1000
1000
0000
,
0002
0103
2000
3100
,
0010
0100
0010
0100
0010
0000
0000
0000
,
1000
0000
0100
1000
0000
0001
0100
0000
,
0010
0000
0001
0100
0000
0010
1000
0000
,
0001
1000
0000
0001
1000
0000
0010
0100
,
0000
0101
1100
0101
,
0110
0000
0001
2000
0000
0000
0100
0000
,
3000
0000
0001
1000
0001
0000
1000
0001
,
2000
0000
0000
0000
3000
0000
0010
0100
,
0000
0010
0100
0000
0010
0000
1000
0000
,
0002
2003
3000
0002
,
0203
0000
0300
0000
0020
0000
0030
0001
,
1000
0001
0000
1000
0100
0000
0010
0001
,
0000
1000
0001
1000
0001
1000
0001
0000
,
1000
0100
0010
0001
,
0200
0000
0302
0013
,
2000
0000
3000
0001
1000
0000
0001
1000
,
0000
0110
1001
0110
,
2000
3002
0003
0020
,
0230
0000
0300
0000
0010
0100
0010
0000
,
0100
0100
0000
0100
0100
0000
0010
0010
,
0000
0010
0010
0000
0000
0000
0000
0000
,
0001
0100
0001
0000
0010
0000
1000
0001
,
1000
2002
0000
0000
,
0000
0000
0000
0000
,
3003
0000
0000
0000
;

//---------------dance-single - ----------------
#NOTES:
     dance-single:
     :
     Easy:
     6:
     0.291,0.318,0.092,0.323,0.000:
0000
0000
0000
0000
,
0000
0000
0000
0000
,
0000
0000
0000
0000
,
0000
0000
0000
0000
,
0000
0000
0000
0000
,
0000
0000
0000
0000
,
0000
0000
0000
0000
,
0000
0000
0000
0000
,
0000
0000
0000
0000
,
0000
0000
0000
0000
,
0002
0000
0000
0000
,
0000
0000
0000
0003
,
2000
0000
0000
0000
,
0000
0000
0000
3000
,
0002
0000
0003
0000
,
2000
0000
3000
0000
,
0001
0000
0000
0001
0000
0000
0001
0000
,
0000
0000
0000
0000
,
1000
0000
0000
1000
0000
0000
1000
0000
,
0000
0000
0000
0000
,
0010
0010
0010
0010
,
0001
0001
0100
0100
,
1000
1000
0010
0010
,
2002
0000
0000
3003
,
0000
0010
1000
0100
,
2000
0002
3003
1001
,
0000
1000
0010
0001
,
0200
0020
0330
0110
,
0000
0010
1000
0001
,
0100
0010
0000
0010
,
0020
0030
0002
0003
,
0001
0000
0000
0001
0000
0000
0001
0000
,
0000
1000
0001
1000
,
0010
0010
0010
0100
,
0002
0003
2000
3000
,
0001
0000
0100
0010
,
0100
0000
0010
0100
,
0010
0100
0000
0010
,
0000
0001
0000
1000
,
0002
0000
0003
1001
,
0000
0001
0001
0001
,
2000
0002
3003
1001
,
0000
0001
0010
1000
,
0020
0200
0330
0110
,
0000
0100
0001
1000
,
0010
1000
0000
0001
,
0002
0003
2000
3000
,
0010
0000
0000
0010
0000
0000
0010
0000
,
0000
0001
1000
0001
,
0100
0100
0100
0000
,
2000
3000
0002
0003
,
0010
0000
1000
0001
,
2000
3000
0001
1000
,
0001
0200
0300
0010
,
0020
0030
1001
0000
,
0010
0000
0000
0010
0000
0000
0010
0000
,
0000
1001
0000
0000
,
0001
0100
0001
0100
,
0002
0000
0000
0003
,
0010
1000
0100
0000
,
1000
0010
0100
0000
,
1000
0100
1000
0100
,
2000
0000
3000
0000
,
0002
0003
2000
3000
,
0002
0003
2000
3000
,
0010
0010
0010
0001
,
0100
0100
0100
1000
,
0010
0001
0100
0000
,
0010
1000
0100
0000
,
1000
0100
0010
0001
,
0001
0010
0100
1000
,
0001
0000
0000
0001
0000
0000
0001
0000
,
0000
0010
0100
1000
,
0002
2000
3003
1001
,
0000
1000
0010
0001
,
0200
0020
0330
0110
,
0000
0010
1000
0001
,
0100
0010
0000
0010
,
0020
0030
0002
0003
,
0001
0000
0000
0001
0000
0000
0001
0000
,
0000
1000
0001
1000
,
0010
0010
0010
0100
,
0002
0003
2000
3000
,
0001
0000
0100
0010
,
0100
1000
0001
1000
,
0001
0001
0000
1000
,
1000
0000
0010
0000
,
0100
0000
0000
0100
0000
0000
0100
0000
,
0000
1001
0000
0000
,
0010
0000
0000
0010
0000
0000
0010
0000
,
0000
2002
0000
0000
,
0000
0000
0000
0000
,
3003
0000
0000
0000
;

//---------------dance-single - ----------------
#NOTES:
     dance-single:
     :
     Beginner:
     4:
     0.162,0.212,0.015,0.108,0.000:
0000
0000
0000
0000
,
0000
0000
0000
0000
,
0000
0000
0000
0000
,
0000
0000
0000
0000
,
0000
0000
0000
0000
,
0000
0000
0000
0000
,
0000
0000
0000
0000
,
0000
0000
0000
0000
,
0000
0000
0000
0000
,
0000
0000
0000
0000
,
0001
0000
0000
0000
,
0000
0000
0000
0000
,
1000
0000
0000
0000
,
0000
0000
0000
0000
,
0010
0000
0000
0000
,
0100
0000
0000
0000
,
0001
0000
0000
0001
0000
0000
0001
0000
,
0000
0000
0000
0000
,
1000
0000
0000
1000
0000
0000
1000
0000
,
0000
0000
0000
0000
,
0010
0000
0010
0000
,
0010
0000
0010
0000
,
0010
0000
0010
0000
,
0020
0000
0000
0030
,
0000
0000
0000
0000
,
0001
0000
0000
0000
,
1000
0000
0000
0000
,
0010
0000
0000
0000
,
0100
0000
0000
0000
,
0001
0000
0001
0000
,
0001
0000
0000
0000
,
1000
0000
1000
0000
,
1000
0000
0000
0000
,
0020
0000
0030
0000
,
0200
0000
0300
0000
,
0001
0000
0001
0000
,
0001
0000
0000
0000
,
1000
0000
1000
0000
,
1000
0000
0000
0000
,
0020
0000
0030
0000
,
0200
0000
0300
0000
,
0000
0001
0000
0001
,
0000
1000
0000
1000
,
0000
0010
0000
0010
,
0000
0100
0000
0100
,
0000
0001
0000
0002
,
0003
0001
0000
0000
,
0010
0000
0000
0010
0000
0000
0010
0000
,
0000
0000
1000
0000
,
0100
0000
1000
0000
,
0100
0000
0001
0000
,
0100
0000
0001
0000
,
0100
0000
0100
0000
,
0020
0000
0030
0000
,
0200
0000
0300
0000
,
0010
0000
0000
0010
0000
0000
0010
0000
,
0000
1001
0000
0000
,
0001
0000
0001
0000
,
0002
0000
0000
0003
,
1000
0000
1000
0000
,
0010
0000
0010
0000
,
1000
0000
1000
0000
,
2000
0000
3000
0000
,
0001
0000
0001
0000
,
0100
0000
0100
0000
,
0001
0000
0001
0000
,
1000
0000
1000
0000
,
0020
0000
0030
0000
,
0200
0000
0300
0000
,
1000
0000
1000
0000
,
0001
0000
0001
0000
,
0001
0000
0000
0001
0000
0000
0001
0000
,
0000
0001
0001
0001
,
0000
1000
0000
1000
,
0000
0010
0000
0010
,
0000
0100
0000
0100
,
0000
0001
0000
0001
,
0000
1000
0000
0001
,
0000
1000
0000
0001
,
0001
0000
0000
0001
,
0000
0000
0001
0000
,
0000
0100
0000
0100
,
0000
0010
0000
0010
,
0000
1000
0000
1000
,
0000
0001
0000
0001
,
0001
0001
0000
1000
,
1000
0000
0010
0000
,
0100
0000
0000
0100
0000
0000
0100
0000
,
0000
0000
0000
0000
,
0010
0000
0000
0010
0000
0000
0010
0000
,
0000
2002
0000
0000
,
0000
0000
0000
0000
,
3003
0000
0000
0000
;

//---------------dance-double - ----------------
#NOTES:
     dance-double:
     :
     Medium:
     10:
     0.379,0.495,0.085,0.323,0.000: // measure 1
00000000
00000000
00000000
00000000
,  // measure 2
00000000
00000000
00000000
00000000
,  // measure 3
00000000
00000000
00000000
00000000
,  // measure 4
00000000
00000000
00000000
00000000
,  // measure 5
00000000
00000000
00000000
00000000
,  // measure 6
00000000
00000000
00000000
00000000
,  // measure 7
00000000
00000000
00000000
00000000
,  // measure 8
00000000
00000000
00000000
00000000
,  // measure 9
00000000
00000000
00000000
00000000
,  // measure 10
00000000
00000000
00000000
00000000
,  // measure 11
00200000
00000000
00300000
00000000
,  // measure 12
00020000
00000000
00030000
00000000
,  // measure 13
00002000
00000000
00003000
00000000
,  // measure 14
00000200
00000000
00000300
00000000
,  // measure 15
00000010
00000100
00000000
00001000
,  // measure 16
00000100
00000000
00001000
00000010
,  // measure 17
00001000
00000001
00000000
00001000
00000001
00000000
00001000
00000001
,  // measure 18
00000000
00001000
00000001
00000000
00000000
00000000
00000000
00000000
,  // measure 19
00010000
00001000
00000000
00010000
00001000
00000000
00010000
00001000
,  // measure 20
00000000
00010000
00001000
00000000
00000000
00000000
00000000
00000000
,  // measure 21
10000000
10000000
10000000
00000000
,  // measure 22
00010000
00010000
00010000
00000000
,  // measure 23
00001000
00001000
00001000
00000000
,  // measure 24
00002002
00000000
00000000
00003003
,  // measure 25
00000000
00000001
00000100
00001000
,  // measure 26
00000010
00000000
00001000
00000020
00000000
00000000
00000000
00000030
,  // measure 27
00000000
00000000
00001000
00000100
00001000
00000000
00000001
00000100
,  // measure 28
00000002
00000000
00000000
00000000
00000003
00000000
00001000
00000100
,  // measure 29
00000000
00001000
00000100
00000000
00010000
00000000
00001000
00000000
,  // measure 30
00100000
00020000
00030000
10000000
,  // measure 31
20000000
30000000
00200000
00300000
,  // measure 32
01000000
00010000
00000000
01000000
00010000
00000000
01000000
00010000
,  // measure 33
00000000
01000000
00001000
00010000
,  // measure 34
00000100
00000000
00001000
00000000
00000001
00000100
00000001
00000000
,  // measure 35
00001000
00000100
00010000
00001000
,  // measure 36
02000000
00000000
03000000
00000000
00100000
00000000
10000000
00010000
,  // measure 37
00000000
01000000
00100000
00001000
,  // measure 38
00010000
00000000
00000000
00010000
00000000
00000000
00000100
00000000
,  // measure 39
00000000
00000100
00001000
00000000
00000010
00000000
00000100
00000000
,  // measure 40
00000002
00000000
00000000
00000000
00000003
00000000
00001000
00000100
,  // measure 41
00000000
00001000
00010000
00001000
,  // measure 42
00010000
00000000
00000100
00000100
00000000
00000000
00010000
00000000
,  // measure 43
00000000
00001000
00100000
00010000
,  // measure 44
02000000
00000000
00100000
00000000
03000000
00000000
00010000
10000000
,  // measure 45
00000000
01000000
10000000
00100000
,  // measure 46
01000000
02000000
03000000
00010000
,  // measure 47
00020000
00030000
00200000
00300000
,  // measure 48
00001000
00010000
00000000
00001000
00010000
00000000
00001000
00010000
,  // measure 49
00000000
00000010
00001000
00000000
00000001
00000000
00001000
00000000
,  // measure 50
00000100
00000000
00000100
00000000
00010000
00000100
00010000
00000000
,  // measure 51
00001000
00000000
00001000
00000000
00100000
00010000
00100000
00000000
,  // measure 52
00020000
00000000
00030000
00000000
01000000
00000000
00100000
01000000
,  // measure 53
00000000
00100000
10000000
01000000
,  // measure 54
00010000
00200000
00300000
00001000
,  // measure 55
00020000
00030000
00000010
00001000
,  // measure 56
00000001
00000001
00000000
00001000
00001000
00000000
00000001
00000001
,  // measure 57
00000000
00001000
00001000
00000000
00000000
00000000
00000000
00000000
,  // measure 58
00000010
00001000
00000100
00001000
,  // measure 59
00000020
00000030
00002000
00003000
,  // measure 60
00000100
00010000
00001000
01000000
,  // measure 61
00001000
00010000
00000100
00001000
,  // measure 62
00000001
00001000
00000100
00010000
,  // measure 63
00002000
00000000
00003000
00100000
,  // measure 64
00010000
01000000
00010000
00000000
10000000
00100000
10000000
00000000
,  // measure 65
00100000
01000000
00001000
00010000
,  // measure 66
00000010
00000000
00000100
00000000
00000001
00001000
00000001
00000000
,  // measure 67
00001000
00000000
00000100
00000000
00010000
00001000
00010000
00000000
,  // measure 68
00002000
00003000
00200000
00300000
,  // measure 69
00010000
01000000
20020000
30030000
,  // measure 70
10000000
00000000
00010000
00000000
00000000
01000000
00000000
00000000
,  // measure 71
00001000
00000000
00010000
00000000
00000000
00000100
00000000
00000000
,  // measure 72
00001000
00000001
00000000
00001000
00000001
00000000
00001000
00000001
,  // measure 73
00000000
00000100
00001100
00000101
,  // measure 74
00000110
00000000
00001000
00000020
00000100
00000000
00000100
00000000
,  // measure 75
00000130
00000000
00000010
00001000
00000100
00000000
00010000
00001000
,  // measure 76
00100000
00000000
00100000
00000000
00100000
00000000
00100000
00010000
,  // measure 77
00000000
01000000
00010000
00000000
10000000
00010000
01000000
00010000
,  // measure 78
00200000
00001000
00301000
00011000
,  // measure 79
00020200
00030300
00002200
00003300
,  // measure 80
00001000
00000010
00000000
00000100
00000001
00000000
00001000
00000100
,  // measure 81
00000000
00000010
00000001
00000000
00001000
00000000
00000100
00000000
,  // measure 82
00010000
00000000
00001000
00000000
00100000
00010000
01000000
00000000
,  // measure 83
00200000
00000000
00000000
00000000
10300000
00000000
01000000
00100000
,  // measure 84
02000000
00000000
00000000
03010000
00020000
00000000
00100000
00100000
,  // measure 85
00000000
00130000
00001000
00010000
,  // measure 86
00000200
00002000
00003300
00000101
,  // measure 87
00002200
00003300
00010000
00001000
,  // measure 88
00100000
00010000
00000000
01000000
10000000
00000000
00100000
01000000
,  // measure 89
00000000
00010000
00100000
00000000
00000000
00000000
00000000
00000000
,  // measure 90
00001000
00000000
00010000
00000000
00000100
00000000
00001000
00000001
,  // measure 91
00000000
00002002
00000000
00000000
,  // measure 92
00000000
00000000
00000000
00000000
,  // measure 93
00003003
00000000
00000000
00000000
;

//---------------dance-double - ----------------
#NOTES:
     dance-double:
     :
     Easy:
     5:
     0.314,0.354,0.115,0.431,0.000:
00000000
00000000
00000000
00000000
,
00000000
00000000
00000000
00000000
,
00000000
00000000
00000000
00000000
,
00000000
00000000
00000000
00000000
,
00000000
00000000
00000000
00000000
,
00000000
00000000
00000000
00000000
,
00000000
00000000
00000000
00000000
,
00000000
00000000
00000000
00000000
,
00000000
00000000
00000000
00000000
,
00000000
00000000
00000000
00000000
,
00200000
00000000
00300000
00000000
,
00020000
00000000
00030000
00000000
,
00002000
00000000
00003000
00000000
,
00000200
00000000
00000300
00000000
,
00010000
00001000
00000000
00001000
,
00010000
00000000
00001000
00000000
,
00100000
00000000
00000000
01000000
00000000
00000000
00100000
00000000
,
00000000
01100000
00000000
00000000
,
01000000
00000000
00000000
00100000
00000000
00000000
01000000
00000000
,
00000000
01100000
00000000
00000000
,
10000000
01000000
10000000
01000000
,
00010000
01000000
00010000
01000000
,
00100000
00100000
01000000
01000000
,
20020000
00000000
00000000
30030000
,
00000000
00100000
00001000
00010000
,
00000200
00000300
00002000
00003000
,
00000020
00000030
00000002
00000003
,
00001000
00000100
00001000
00000000
,
00010000
00001000
00010000
00000000
,
00200000
00300000
20000000
30000000
,
02000000
03000000
00020000
00030000
,
00001000
00000000
00000000
00010000
00000000
00000000
00001000
00000000
,
00000000
00001000
00010000
00000100
,
00001000
00001000
00000001
00000001
,
00002000
00003000
00000200
00000300
,
00010000
00010000
00001000
00001000
,
02000000
03000000
00200000
00300000
,
10000000
00000000
00000000
01000000
00000000
00000000
00010000
00000000
,
00000000
01000000
01000000
01000000
,
00200000
00000000
00300000
10010000
,
00000000
01000000
00001000
00010000
,
00000100
00001100
00000000
00001001
,
00000000
00000001
00000100
00001000
,
00000200
00000300
00020000
00030000
,
00001000
00100000
00010000
01000000
,
00100000
10000000
00000000
00010000
,
00020000
00030000
00100000
00001000
,
00020000
00000000
00000000
00031000
00000000
00000000
00000200
00000000
,
00000000
00001300
00000000
00000000
00001001
00000000
00001001
00000000
,
00001000
00000010
00010000
00001000
,
00020000
00030000
00001000
00100000
,
00020000
00030000
01000000
10000000
,
00200000
00300000
00002000
00003000
,
00010000
00020000
00030000
00000010
,
00000020
00000030
00001000
00000100
,
00010000
00000000
00000000
00001000
00000000
00000000
00010000
00000000
,
00000000
00011000
00000000
00000000
,
00100000
00100000
00100000
00100000
,
02200000
00000000
00000000
03300000
,
00001000
00010000
00001000
00010000
,
00000010
00001000
00000010
00001000
,
00000010
00000010
00000010
00000010
,
00002000
00000000
00003000
00000100
,
00020000
00030000
00002000
00003000
,
02000000
03000000
00200000
00300000
,
10000000
00100000
01000000
00000000
,
00001000
00010000
00000100
00000000
,
00002000
00003000
00000002
00000003
,
00001000
00000100
00000020
00000030
,
00000000
00000000
00011000
00000000
00000000
00010000
00000000
00000000
,
00000000
00000000
00110000
00000000
00000000
00100000
00000000
00000000
,
00100000
00000000
00000000
00100000
00000000
00000000
00100000
00000000
,
00000000
00010000
01000000
10000000
,
01000000
00020000
00000000
00000000
,
00030000
00001000
00000100
00000001
,
00000200
00000300
00002000
00003000
,
00020000
00030000
02000000
03000000
,
10000000
00200000
00300000
00100000
,
00200000
00300000
00001000
00010000
,
00000020
00000000
00000000
00000130
00000000
00000000
00000020
00000000
,
00000000
00000130
00000000
00000000
00001001
00000000
00001001
00000000
,
00000000
00000100
00010000
00001000
,
02000000
03000000
00001000
00010000
,
00000200
00000300
00010000
00000010
,
00002000
00003000
00000010
00010000
,
00001000
00200000
00300000
00010000
,
20000000
30000000
00010000
00100000
,
00001000
00000000
00000000
00001000
00000000
00000000
00010000
00000000
,
00000000
00010000
00000000
00000000
00000000
00000000
00000000
00000000
,
00000010
00001000
00000100
00000010
,
00000001
00002002
00000000
00000000
,
00000000
00000000
00000000
00000000
,
00003003
00000000
00000000
00000000
;
