#TITLE:Trip;
#SUBTITLE:;
#ARTIST:NieN;
#TITLETRANSLIT:;
#SUBTITLETRANSLIT:;
#ARTISTTRANSLIT:;
#GENRE:;
#CREDIT:;
#MENUCOLOR:;
#METERTYPE:DDR;
#BANNER:Trip.png;
#BACKGROUND:Trip-bg.png;
#LYRICSPATH:;
#CDTITLE:;
#MUSIC:Trip.ogg;
#OFFSET:1.947;
#SAMPLESTART:36.000;
#SAMPLELENGTH:15.000;
#SELECTABLE:YES;
#LISTSORT:;
#BPMS:0.000=113.900;
#DISPLAYBPM:113.000;
#STOPS:;
#BGCHANGES:3.500=Trip.avi=1.000=0=0=0,
99999=-nosongbg-=1.000=0=0=0 // don't automatically add -songbackground-
;
#ATTACKS:;

//---------------dance-single - ----------------
#NOTES:
     dance-single:
     :
     Hard:
     9:
     0.379,0.389,0.299,0.273,0.048:
0000
0000
0000
0000
,
0000
0000
0000
0000
,
0000
0000
0000
0000
,
0000
0000
0000
0000
0000
1000
0001
0200
,
0000
0000
0000
0000
,
0300
0000
0000
0000
0000
0001
1000
0200
,
0000
0000
0000
0000
,
0000
0000
0300
0002
,
2003
0000
0000
3020
0000
0130
0010
0200
,
0000
0000
0300
0011
0000
1100
0000
0000
,
1001
0000
0000
0100
0100
0000
0000
0000
,
1001
0000
0000
0000
0000
0000
0000
0000
0000
1000
0100
0000
1000
0000
0010
0000
,
0100
0000
1001
0000
,
0110
0000
0000
0000
0000
0010
0010
0000
,
0001
0000
0100
0000
0000
0001
0000
0000
0100
0000
0010
0000
0100
0010
0000
0000
,
1000
0000
0100
0000
0000
1000
0000
0000
0010
0000
0100
0000
0010
0100
0000
0000
,
0001
0000
0100
0000
0000
0001
0000
0000
0100
0000
0010
0000
0010
0100
0000
0000
,
0000
1001
0000
1001
0000
1001
1001
0000
,
1000
0100
1000
0002
0000
1003
0010
0200
,
0000
0301
0100
0020
0000
1030
0100
2000
,
0000
3001
0100
0002
0000
0013
0100
0100
,
0001
0011
0110
1100
,
0001
0100
0001
0010
0000
0001
1000
0200
,
0000
1300
0001
0200
0000
0310
0010
0020
,
0000
0000
1030
0001
0000
1000
0100
1000
,
0000
0001
0100
0001
1001
1001
0000
0110
,
0000
0001
1000
0100
2000
0000
3001
0000
,
1002
0000
0000
0013
0000
0100
0000
2000
,
0000
0000
0001
0001
0000
3100
1000
0020
,
0100
0000
0000
0100
0000
1000
0000
2030
,
0000
0000
0001
0001
0000
3100
0001
2000
,
0010
0000
0000
0010
0000
0000
3001
0200
,
0010
0000
0000
0010
0000
0000
0310
1000
,
0002
0000
0100
0000
0103
0000
0100
0020
,
0000
1000
1000
1000
1000
0000
0030
0000
,
1000
0100
1000
0010
0000
0000
0100
0001
,
0000
1000
0100
1000
0000
0000
0001
0100
,
0000
0010
0100
0020
0000
0000
0030
0000
,
0110
0110
1001
1001
,
0001
0010
0001
0100
0000
1000
0010
0010
,
0000
1000
0001
0001
0000
1000
0100
0100
,
1000
0000
0000
0001
1000
0001
0000
0000
0100
0000
0100
0000
0010
0000
1001
0000
,
0000
0000
0010
0000
0100
0000
0010
0000
1000
0000
1000
0000
0001
0100
0001
0100
,
0000
0000
1001
0000
1000
0100
0001
0000
,
1000
0100
0010
0000
0100
0001
0100
0020
,
0000
1030
0001
0200
0000
0310
0010
0010
,
0110
1001
1100
0101
,
1000
0100
0010
0200
0000
1300
0010
0200
,
0000
0301
0100
0200
0000
0310
1000
0200
,
1000
0000
1300
0020
0000
0130
0001
1001
,
0000
0100
0010
0000
1001
1001
0000
0110
,
0000
1000
1000
0000
0101
0000
1100
0000
,
1001
0000
0000
0000
;

//---------------dance-double - ----------------
#NOTES:
     dance-double:
     :
     Hard:
     9:
     0.328,0.343,0.237,0.193,0.000:
00000000
00000000
00000000
00000000
,
00000000
00000000
00000000
00000000
,
00000000
00000000
00000000
00000000
,
00000000
00000000
00000000
00000000
00000000
10000000
00010000
02000000
,
00000000
00000000
00000000
00000000
,
03000000
00000000
00000000
00000000
00000000
00001000
00010000
00000200
,
00000000
00000000
00000000
00000000
,
00000300
00000000
00000000
00000001
,
00002000
00000000
00000000
00003100
00000000
00000010
00001000
00000200
,
00000000
00000000
00000000
00010000
00000000
00010300
00000000
00000000
,
00001000
00000000
00100000
00000000
,
01000000
00000000
00000000
00000000
00000000
00000000
10000000
01000000
,
10000000
00000000
00100000
00000000
,
00010000
00000000
00000000
00000000
00000000
00100000
00100000
00000000
,
00002000
00000000
00000000
00010000
00000000
00010000
00013000
00000000
,
00000200
00000000
00000000
00001000
00000000
00001000
00001300
00000000
,
00000020
00000130
00000002
00000103
,
00000000
00001100
00000000
00000101
00000000
00001000
00001001
00000000
,
00000010
00001000
00000100
00002000
00000000
00003100
00000000
00010000
,
00000000
00001000
01000000
00001000
00000000
01000000
00100000
00010000
,
00000000
01000000
01000000
01000000
00000000
00100000
01000000
10000000
,
10010000
11000000
01010000
11000000
,
00100000
10000000
01000000
01000000
00000000
10000000
01000000
00100000
,
00000000
00100000
00001000
00010000
00000000
00010000
00000100
00002000
,
00000000
00000000
00003010
00000100
00000000
00000010
00000100
00000110
,
00000000
00000001
00000100
00000000
00001001
00001001
00000000
00001000
,
00000000
00000100
00001000
00000000
00011000
00000000
00011000
00000000
,
00200000
00000000
00000000
00010000
00000000
01000000
00000000
00320000
,
00000000
00000000
10000000
10000000
00000000
00130000
00001000
00020000
,
00000100
00000000
00000000
00001000
00000000
00000010
00000000
00030200
,
00000000
00000000
00001000
00001000
00000000
00000010
00000310
00000200
,
00000001
00000000
00000000
00001000
00000000
00000000
00001300
00000100
,
00020000
00000000
00000000
00001000
00000000
00000000
00031000
01000000
,
00020000
00000000
10000000
00000000
01000000
00000000
10030000
02000000
,
00000000
10000000
10000000
10000000
10000000
00000000
03000000
00000000
,
10000000
01000000
10000000
00100000
00000000
00000000
00000000
01000000
,
00000000
00001000
00010000
00001000
00000000
00000000
00010000
00000100
,
00000000
00001000
00000010
00000200
00000000
00000000
00000300
00000000
,
00000101
00001100
00011000
00110000
,
00100000
00010000
01000000
00100000
00000000
10000000
01000000
00100000
,
00000000
10000000
00010000
01000000
00000000
00001000
00001000
00001000
,
00010000
00000000
00000100
00000000
00001000
00001000
00000010
00000100
,
00000000
00000001
00000100
00000000
00001001
00001001
00000000
00000000
,
00002000
00000000
00003100
00000000
00010000
00001000
01000000
00000000
,
00010000
00000000
10000000
00000000
00100000
01000000
00010000
01000000
,
00000000
00100000
10000000
01000000
00000000
10000000
00010000
00000000
,
11000000
01010000
00110000
00011000
,
00010000
00000100
00001000
00000010
00000000
00000010
00000100
00000010
,
00000000
00001000
00001000
00001000
00000000
00000001
00000100
00002000
,
00000000
00000000
00003100
00020000
00000000
00031000
00010000
00001000
,
00000000
00100000
00010000
00000000
10010000
10010000
00000000
10000000
,
00000000
01000000
00100000
00000000
10010000
00000000
11000000
00000000
,
01010000
00000000
00000000
00000000
;

//---------------dance-double - ----------------
#NOTES:
     dance-double:
     :
     Medium:
     6:
     0.190,0.320,0.105,0.053,0.000:
00000000
00000000
00000000
00000000
,
00000000
00000000
00000000
00000000
,
00000000
00000000
00000000
00000000
,
00000000
00000000
00000000
00000000
,
02000000
00000000
03000000
00000000
,
00100000
00000000
01000000
00000000
,
00002000
00000000
00003000
00000000
,
00010000
00000000
00001000
00000010
,
00000200
00000000
00000300
00000000
,
00000001
00000000
00000000
00000100
00000000
00001000
00000000
00000000
,
00000100
00000000
00010000
00000000
,
01000000
00000000
00000000
00000000
,
10000000
00000000
00100000
00000000
,
00001000
00000000
00000000
00011000
,
00010000
00000000
00000000
00010000
00000000
00000000
00000100
00000000
,
00010000
00000000
00000000
00010000
00000000
00000100
00000100
00000000
,
00001000
00000000
00000001
00001001
,
00000000
00000010
00000000
00000010
00000000
00000010
00000010
00000000
,
00000001
00000100
00001000
00001001
,
00001000
00000000
00000100
00000000
00010000
00001000
00010000
00000000
,
00001000
01000000
00010000
10010000
,
01010000
01010000
10010000
10010000
,
10000000
01000000
00100000
00010000
,
01000000
00000000
00000000
00010000
00000000
00010000
00100000
00010000
,
00000000
00100000
00000000
00001000
,
00000000
00000000
00010000
00000000
00001000
00001000
00000000
00001000
,
00000000
00010000
00001000
00000100
,
00001000
00000000
00000000
00000001
00000000
00000010
00000000
00000200
,
00000000
00000000
00000300
00000000
,
00010000
00000000
00000000
01000000
00000000
00100000
00000000
20000000
,
00000000
00000000
30000000
00000000
,
00010000
00000000
00000000
10000000
00000000
00000000
00000000
00000000
,
00010000
00000000
00000000
10000000
00000000
00000000
00000000
00000000
,
00200000
00000000
00000000
00000000
00300000
00000000
00100000
01000000
,
00000000
01000000
01000000
00000000
,
10010000
00000000
00000000
00000000
,
00000000
00000000
00000000
00000000
,
00000000
00000000
00000000
00000000
,
00000100
00001000
00010000
00100000
,
00000000
00010000
01000000
10000000
,
00000000
00100000
00000000
00100000
,
10000000
00000000
01000000
00000000
00100000
00000000
00000000
00010000
,
00000000
00000000
00001000
00000000
00010000
00010000
00000000
00000000
,
00000000
00001001
00000000
00000010
,
00000000
00000000
00000010
00000000
00000000
00000100
00000010
00000100
,
00000000
00000000
00000000
00000001
00000000
00000001
00000100
00000000
,
00000001
00000100
00000010
00001000
,
00000100
00010000
01000000
10000000
,
00000000
00000000
10000000
00010000
00000000
01000000
00100000
01000000
,
00000000
00000000
10010000
00000000
00000000
00000000
10000000
00010000
,
00000000
00000000
01000000
00000000
00001000
00001000
00000000
00010000
,
00000000
00001000
00001000
00000000
,
00011000
00000000
00000000
00000000
;

//---------------dance-single - ----------------
#NOTES:
     dance-single:
     :
     Medium:
     6:
     0.190,0.320,0.105,0.053,0.000:
0000
0000
0000
0000
,
0000
0000
0000
0000
,
0000
0000
0000
0000
,
0000
0000
0000
0000
,
2000
0000
3000
0000
,
0001
0000
1000
0000
,
0002
0000
0003
0000
,
1000
0000
0001
0100
,
0020
0000
0030
0000
,
1000
0000
0000
0010
0000
0001
0000
0000
,
0010
0000
0010
0000
,
0010
0000
0000
0000
,
0100
0000
0100
0000
,
0100
0000
0000
1001
,
1000
0000
0000
1000
0000
0000
0001
0000
,
1000
0000
0000
1000
0000
0001
0001
0000
,
0001
0000
1000
1001
,
0000
0100
0000
0100
0000
0100
0100
0000
,
1000
0010
0001
1001
,
0001
0000
0010
0000
1000
0001
1000
0000
,
0100
0010
0100
1001
,
0110
0110
1001
1001
,
0001
0010
0100
1000
,
0010
0000
0000
1000
0000
1000
0100
1000
,
0000
0100
0000
0001
,
0000
0000
1000
0000
0001
0001
0000
0001
,
0000
1000
0001
0010
,
0001
0000
0000
0010
0000
0100
0000
0020
,
0000
0000
0030
0000
,
1000
0000
0000
0010
0000
0100
0000
0020
,
0000
0000
0030
0000
,
1000
0000
0000
0001
0000
0000
0000
0000
,
1000
0000
0000
0001
0000
0000
0000
0000
,
0200
0000
0000
0000
0300
0000
0100
0010
,
0000
0010
0010
0000
,
1001
0000
0000
0000
,
0000
0000
0000
0000
,
0000
0000
0000
0000
,
1000
0100
0010
0001
,
0000
1000
0010
0001
,
0000
0100
0000
0100
,
0001
0000
0010
0000
0100
0000
0000
1000
,
0000
0000
0001
0000
1000
1000
0000
0000
,
0000
1001
0000
0100
,
0000
0000
0100
0000
0000
0010
0100
0010
,
0000
0000
0000
1000
0000
1000
0010
0000
,
1000
0010
0100
0001
,
0010
1000
0010
0001
,
0000
0000
0001
1000
0000
0010
0100
0010
,
0000
0000
1001
0000
0000
0000
0001
1000
,
0000
0000
0010
0000
0001
0001
0000
1000
,
0000
0001
0001
0000
,
1001
0000
0000
0000
;

//---------------dance-double - ----------------
#NOTES:
     dance-double:
     :
     Easy:
     3:
     0.126,0.229,0.123,0.044,0.000:
00000000
00000000
00000000
00000000
,
00000000
00000000
00000000
00000000
,
00000000
00000000
00000000
00000000
,
00000000
00000000
00000000
00000000
,
00020000
00000000
00030000
00000000
,
00000000
00000000
00000000
00000000
,
00002000
00000000
00003000
00000000
,
00000000
00000000
00000000
00000000
,
00000020
00000000
00000030
00000000
,
00000200
00000000
00000300
00000000
,
00000001
00000000
00000001
00000000
,
00000001
00000000
00000000
00000000
,
00001000
00000000
00001000
00000000
,
00001000
00000000
00000000
00000000
,
00000000
00000000
00000000
00011000
,
00000000
00000000
00000000
00011000
,
00000000
00000000
00000000
00011000
,
00000000
00010000
00000000
00010000
,
00000000
01000000
00000000
01000000
,
00000000
10000000
00000000
10000000
,
00000000
00010000
00000000
00010000
,
10000000
00010000
10000000
00010000
,
00000000
10000000
00000000
01000000
,
00000000
00010000
00000000
01000000
,
00000000
00001000
00000000
00010000
,
00000000
00011000
00011000
00000000
,
00000000
00011000
00011000
00000000
,
00000010
00000000
00000000
00000000
,
00000100
00000000
00000000
00000000
,
00100000
00000000
00000000
00000000
,
01000000
00000000
00000000
00000000
,
10000000
00000000
10000000
00000000
,
00010000
00000000
00010000
00000000
,
00001000
00000000
00001000
00000000
,
00000002
00000000
00000003
00000000
,
00001001
00000000
00000000
00000000
,
00000000
00000000
00000000
00000000
,
00000000
00000000
00000000
00000000
,
00000010
00000010
00000010
00000010
,
00000000
00010000
00001000
00010000
,
00000000
01000000
00000000
01000000
,
00000000
01000000
01000000
01000000
,
00000000
00100000
00100000
00000000
,
00000000
10010000
00000000
00000000
,
00000000
10000000
00000000
10000000
,
00000000
00010000
00000000
00010000
,
00100000
00100000
00100000
00000000
,
00000000
00001000
00010000
00001000
,
00000000
00000100
00000000
00000100
,
00000000
00000001
00000000
00001000
,
00000000
00001001
00001001
00000000
,
00000000
00011000
00011000
00000000
,
00011000
00000000
00000000
00000000
;

//---------------dance-single - ----------------
#NOTES:
     dance-single:
     :
     Easy:
     3:
     0.126,0.229,0.123,0.044,0.000:
0000
0000
0000
0000
,
0000
0000
0000
0000
,
0000
0000
0000
0000
,
0000
0000
0000
0000
,
0002
0000
0003
0000
,
0000
0000
0000
0000
,
2000
0000
3000
0000
,
0000
0000
0000
0000
,
0020
0000
0030
0000
,
0200
0000
0300
0000
,
0001
0000
0001
0000
,
0001
0000
0000
0000
,
1000
0000
1000
0000
,
1000
0000
0000
0000
,
0000
0000
0000
1001
,
0000
0000
0000
1001
,
0000
0000
0000
1001
,
0000
0001
0000
0001
,
0000
0100
0000
0100
,
0000
1000
0000
1000
,
0000
0001
0000
0001
,
1000
0001
1000
0001
,
0000
1000
0000
0100
,
0000
0001
0000
0100
,
0000
1000
0000
0001
,
0000
1001
1001
0000
,
0000
1001
1001
0000
,
0010
0000
0000
0000
,
0100
0000
0000
0000
,
0010
0000
0000
0000
,
0100
0000
0000
0000
,
1000
0000
1000
0000
,
0001
0000
0001
0000
,
1000
0000
1000
0000
,
0002
0000
0003
0000
,
1001
0000
0000
0000
,
0000
0000
0000
0000
,
0000
0000
0000
0000
,
0010
0010
0010
0010
,
0000
0001
1000
0001
,
0000
0100
0000
0100
,
0000
0100
0100
0100
,
0000
0010
0010
0000
,
0000
1001
0000
0000
,
0000
1000
0000
1000
,
0000
0001
0000
0010
,
0010
0010
0010
0000
,
0000
1000
0001
1000
,
0000
0100
0000
0100
,
0000
0001
0000
1000
,
0000
1001
1001
0000
,
0000
1001
1001
0000
,
1001
0000
0000
0000
;

//---------------dance-single - Copied from ----------------
#NOTES:
     dance-single:
     Copied from:
     Beginner:
     1:
     0.097,0.137,0.026,0.026,0.000: // measure 1
0000
0000
0000
0000
,  // measure 2
0000
0000
0000
0000
,  // measure 3
0000
0000
0000
0000
,  // measure 4
0000
0000
0000
0000
,  // measure 5
0002
0000
0003
0000
,  // measure 6
0000
0000
0000
0000
,  // measure 7
2000
0000
3000
0000
,  // measure 8
0000
0000
0000
0000
,  // measure 9
0010
0000
0000
0000
,  // measure 10
0100
0000
0000
0000
,  // measure 11
0001
0000
0001
0000
,  // measure 12
0001
0000
0000
0000
,  // measure 13
1000
0000
1000
0000
,  // measure 14
1000
0000
0000
0000
,  // measure 15
0000
0000
0000
0010
,  // measure 16
0000
0000
0000
0010
,  // measure 17
0000
0000
0000
0010
,  // measure 18
0000
1000
0000
1000
,  // measure 19
0000
0001
0000
0001
,  // measure 20
0000
0001
0000
0001
,  // measure 21
0000
1000
0000
1000
,  // measure 22
1000
0000
0000
0000
,  // measure 23
0000
0100
0000
0100
,  // measure 24
0000
0010
0000
0010
,  // measure 25
0000
0100
0000
0010
,  // measure 26
0000
1000
1000
0000
,  // measure 27
0000
0001
0001
0000
,  // measure 28
0100
0000
0000
0000
,  // measure 29
0000
0000
0000
0000
,  // measure 30
0010
0000
0000
0000
,  // measure 31
0000
0000
0000
0000
,  // measure 32
1000
0000
1000
0000
,  // measure 33
0001
0000
0001
0000
,  // measure 34
1000
0000
1000
0000
,  // measure 35
0002
0000
0003
0000
,  // measure 36
1001
0000
0000
0000
,  // measure 37
0000
0000
0000
0000
,  // measure 38
0000
0000
0000
0000
,  // measure 39
0010
0010
0010
0000
,  // measure 40
0000
0001
0000
0001
,  // measure 41
0000
1000
0000
1000
,  // measure 42
0000
0001
0000
1000
,  // measure 43
0000
0001
0001
0000
,  // measure 44
0000
1001
0000
0000
,  // measure 45
0000
1000
0000
1000
,  // measure 46
0000
0001
0000
0000
,  // measure 47
0100
0100
0100
0000
,  // measure 48
0000
1000
0000
1000
,  // measure 49
0000
0001
0000
0001
,  // measure 50
0000
1000
0000
0001
,  // measure 51
0000
1000
1000
0000
,  // measure 52
0000
0001
0001
0000
,  // measure 53
1001
0000
0000
0000
;
