#TITLE:永久のキズナ;
#SUBTITLE:feat. Another Infinity;
#ARTIST:Daisy×Daisy;
#TITLETRANSLIT:Towa No Kizuna;
#SUBTITLETRANSLIT:;
#ARTISTTRANSLIT:;
#GENRE:;
#CREDIT:;
#BANNER:Towa No Kizuna feat. Another Infinity.png;
#BACKGROUND:Towa No Kizuna feat. Another Infinity-bg.png;
#LYRICSPATH:;
#CDTITLE:;
#MUSIC:Towa No Kizuna feat. Another Infinity.ogg;
#OFFSET:1.222000;
#SAMPLESTART:57.111332;
#SAMPLELENGTH:13.333332;
#LASTBEATHINT:0.532800;
#SELECTABLE:YES;
#BPMS:0.000000=144.000000
;
#STOPS:
;
#BGCHANGES:0.000=Towa No Kizuna feat. Another Infinity.avi=1.000=0=0=0=StretchNoLoop====,
99999=-nosongbg-=1.000=0=0=0 // don't automatically add -songbackground-
;
#KEYSOUNDS:;
#ATTACKS:;

//---------------dance-single - ----------------
#NOTES:
     dance-single:
     :
     Hard:
     12:
     0.542512,0.637501,0.119827,0.129044,0.359480,412.000000,399.000000,13.000000,14.000000,0.000000,0.000000,0.542512,0.637501,0.119827,0.129044,0.359480,412.000000,399.000000,13.000000,14.000000,0.000000,0.000000:
0000
0000
0000
0000
,
0000
0000
0000
0000
,
0000
0000
0000
0000
,
0000
0000
0000
0000
,
0000
0000
0000
0000
,
1001
0000
0000
0100
0000
0000
0010
0000
0000
1000
0000
0000
0001
0000
0100
0000
,
0101
0000
0000
0010
0000
0000
1000
0000
0000
0100
0000
0000
1000
0000
0010
0000
,
1010
0000
0000
0001
0000
0000
0101
0000
0000
0010
0000
0000
1000
0000
0100
0000
,
1100
0000
0000
1000
0000
0000
0001
0000
0000
0100
0000
0000
0010
0000
2000
0000
,
0002
0000
0000
3003
,
0010
0000
1000
0000
0010
0000
1000
0001
0000
0000
1000
0000
0100
0000
0010
0000
,
0001
0000
0100
0000
0001
0000
1000
0001
0000
0000
0100
0000
0010
0000
1000
0000
,
0100
0000
1000
0000
0001
0000
0100
0010
0000
0000
0100
0000
0001
0000
1000
0000
,
0010
0000
1000
0000
0100
0000
0001
0000
0100
0000
1000
0001
0000
0000
0000
0000
,
1000
0000
0010
0000
1000
0000
0100
1000
0100
0000
1000
0000
0010
0000
0100
0000
,
0001
0000
0010
0000
0001
0000
0100
0010
0100
0000
0001
0000
1000
0000
0010
0000
,
1000
0000
0000
0100
0000
0000
1000
0000
0010
0000
0001
0000
0010
0000
1000
0000
,
0200
0000
0000
0000
1300
0000
0010
0000
0100
0000
0000
0101
0000
0000
0001
0000
,
1000
0000
0000
0001
0000
0000
0100
0000
0000
0001
0000
0000
1000
0000
0001
0000
,
0100
0000
0000
0010
0000
0000
1000
0000
0000
0010
0000
0000
0100
0000
0001
0000
,
1000
0000
0000
0010
0000
0000
0001
0000
0000
0010
0000
0000
1000
0000
0100
0000
,
0010
0000
0000
0001
0000
0000
0100
0000
0000
0001
0000
0000
0010
0000
0001
0000
,
0100
0010
0100
0010
1000
0100
1000
0010
,
0100
0001
0100
0001
1000
0100
0001
0100
,
1000
0010
1000
0010
0100
0010
0100
0010
,
1000
0001
1000
0001
1000
0010
0001
0010
,
1000
0000
0010
0000
0100
0000
0001
0000
0100
0000
0010
0100
0000
0000
0001
0000
,
1000
0000
0001
0000
1000
0000
0100
1000
0000
0000
0010
0000
0100
0000
0001
0000
,
0100
0000
0010
0000
1000
0000
0001
0000
1000
0000
0100
1000
0000
0000
0010
0000
,
0100
0000
0001
0000
0100
0000
0010
1000
0000
0000
0010
0000
1000
0000
0100
0000
,
0020
0000
0000
0001
0000
0000
0031
0000
0200
0000
0000
0000
0310
0000
1000
0000
,
0002
0000
0000
0100
0000
0000
0103
0000
0010
0000
0100
0000
0001
0000
1000
0000
,
0200
0000
0000
1000
0000
0000
1300
0000
0001
0000
0000
0000
1000
0000
0010
0000
,
0200
0000
0000
0010
0000
0000
0320
0000
2000
0000
0000
0000
0000
0000
0000
0000
,
3030
0000
0000
0000
0000
0001
0010
0100
,
1000
0000
0001
0000
1000
0000
0010
0100
0000
0000
0010
0000
1000
0000
0100
0000
,
0010
0000
0001
0000
0100
0000
0010
1000
0000
0000
0001
0000
1000
0000
0000
0000
,
0001
0000
0100
0000
0010
0000
0100
0001
0000
0000
0100
0000
0010
0000
1000
0000
,
0100
0000
0010
0000
0001
0000
0010
0000
0100
0000
1000
0001
0000
0000
0100
0000
,
0001
0000
1000
0000
0010
0000
0100
0010
0000
0000
1000
0000
0010
0000
0100
0000
,
0001
0000
0010
0000
0100
0000
1000
0001
0000
0000
0100
0000
0010
0000
1000
0000
,
0100
0000
0000
1100
0000
0000
1000
0000
0010
0000
0100
0000
0001
0000
0100
0000
,
0110
1001
0220
0330
,
1000
0000
0001
0000
0100
0000
0001
0100
0000
0000
0010
0000
1000
0000
0100
0000
,
0010
0000
0001
0000
0010
0000
0100
1000
0000
0000
0010
0000
0100
0000
0001
0000
,
0100
0000
0010
0000
1000
0000
0001
0100
0000
0000
0001
0000
0010
0000
0100
0000
,
1000
0000
0001
0000
1000
0000
0010
0000
1000
0000
0100
1000
0000
0000
0010
0000
,
0100
0000
0001
0000
0010
0000
0001
0100
0001
0000
0100
0000
0010
0000
1000
0000
,
0100
0000
0010
0000
0001
0000
0100
0010
0100
0000
0001
0000
1000
0000
0100
0000
,
0010
0000
0000
1010
0000
0000
1000
0000
0100
0000
1000
0000
0001
0000
0100
0000
,
0001
0000
0000
0000
1000
0000
0010
0000
0100
0000
0000
0110
0000
0000
1000
0000
,
0001
0000
0100
0001
0000
0100
0001
0000
1000
0001
0000
1000
0010
0000
0100
0000
,
0001
0000
0010
0001
0000
0010
0001
0000
0100
0010
0000
0100
0010
0000
1000
0000
,
0100
0000
1000
0001
0000
1000
0001
0000
1000
0010
0000
0100
0001
0000
1000
0000
,
0010
0000
0100
0010
0000
0100
0010
0000
1000
0000
0000
0100
0000
0000
0010
0000
,
0001
0000
0100
0001
0000
0100
0001
0000
1000
0001
0000
1000
0001
0000
1000
0000
,
0100
0000
0010
0001
0000
0010
0001
0000
1000
0100
0000
1000
0100
0000
1000
0000
,
0010
0000
0100
0001
0000
0100
0001
0000
1000
0001
0000
1000
0001
0000
0100
0000
,
0010
0000
1000
0100
0000
0010
0001
0000
0100
0010
0000
1000
0001
0000
2002
0000
,
0000
0000
0000
0000
,
0000
0000
0000
0000
,
0000
0000
0000
0000
,
0000
0000
0000
0000
0000
0000
0000
3003
;

//---------------dance-double - ----------------
#NOTES:
     dance-double:
     :
     Hard:
     12:
     0.510909,0.637501,0.147479,0.156696,0.294958,388.000000,372.000000,16.000000,17.000000,0.000000,0.000000,0.510909,0.637501,0.147479,0.156696,0.294958,388.000000,372.000000,16.000000,17.000000,0.000000,0.000000:
00000000
00000000
00000000
00000000
,
00000000
00000000
00000000
00000000
,
00000000
00000000
00000000
00000000
,
00000000
00000000
00000000
00000000
,
00000000
00000000
00000000
00000000
,
10010000
00000000
00000000
10000000
00000000
00000000
00100000
00000000
00000000
01000000
00000000
00000000
00001000
00000000
00010000
00000000
,
00000010
00000000
00000000
00001000
00000000
00000000
00000001
00000000
00000000
00001000
00000000
00000000
00000100
00000000
00010000
00000000
,
00001000
00000000
00000000
01000000
00000000
00000000
00100000
00000000
00000000
10000000
00000000
00000000
00010000
00000000
01000000
00000000
,
00001000
00000000
00000000
00010000
00000000
00000000
00000010
00000000
00000000
00000100
00000000
00000000
00000001
00000000
00001000
00000000
,
00000200
00000000
00000000
00000300
,
00010000
00000000
00001000
00000000
01000000
00000000
00001000
00010000
00000000
00000000
00001000
00000000
01000000
00000000
00010000
00000000
,
10000000
00000000
00100000
00000000
01000000
00000000
00010000
01000000
00000000
00000000
00000000
00000000
10100000
00000000
00000000
00000000
,
00010000
00000000
01000000
00000000
00001000
00000000
00010000
00001000
00000000
00000000
00010000
00000000
00000100
00000000
00001000
00000000
,
00000010
00000100
00000001
00000000
00001001
00000000
00001100
00000000
,
00001000
00000000
00000100
00000000
00010000
00000000
00000100
00010000
00000000
00000000
00001000
00000000
01000000
00000000
00010000
00000000
,
10000000
00000000
00010000
00000000
01000000
00000000
00010000
01000000
00000000
00000000
00000000
00000000
00100000
00000000
10000000
00000000
,
01000000
00000000
00000000
01000000
00000000
00000000
10000000
00000000
00010000
00000000
01000000
00000000
00001000
00000000
00010000
00000000
,
00000100
00000000
00000000
00000000
00001001
00000000
00000000
00000000
00000100
00000000
00000000
00010000
00000000
00000000
00001000
00000000
,
00200000
00000000
00000000
00010000
00000000
00000000
00010000
00000000
00000000
00310000
00000000
00000000
01000000
00000000
00100000
00000000
,
20000000
00000000
00000000
01000000
00000000
00000000
01000000
00000000
00000000
31000000
00000000
00000000
10000000
00000000
00010000
00000000
,
02000000
00000000
00000000
00001000
00000000
00000000
00001000
00000000
00000000
03001000
00000000
00000000
00010000
00000000
00000100
00000000
,
00002000
00000000
00000000
00000001
00000000
00000000
00000001
00000000
00000000
00003001
00000000
00000000
00000010
00000000
00000100
00000000
,
00000001
00000100
00001000
00000100
00000001
00001000
00000100
00010000
,
00001000
01000000
00010000
00100000
00010000
01000000
00100000
10000000
,
01000000
00010000
01000000
10000000
01000000
00100000
00001000
00010000
,
00000100
00001000
00000010
00001000
00000100
00001000
00000001
00000100
,
00000001
00000010
00001000
00000010
00000001
00000100
00000010
00001000
,
00000100
00010000
00001000
00010000
00000100
00010000
00001000
01000000
,
00010000
01000000
10000000
01000000
00010000
00100000
01000000
10000000
,
00100000
01000000
00100000
00000000
10010000
00000000
11000000
00000000
,
00200000
00000000
00000000
01000000
00000000
00000000
01300000
00000000
00020000
00000000
00000000
00000000
00130000
00000000
00001000
00000000
,
00020000
00000000
00000000
00000100
00000000
00000000
00030100
00000000
00001000
00000000
00000001
00000000
00001000
00000000
00000010
00000000
,
00002000
00000000
00000000
00000100
00000000
00000000
00003100
00000000
00020000
00000000
00000000
00000000
00031000
00000000
01000000
00000000
,
00200000
00000000
00000000
10000000
00000000
00000000
10300000
00000000
00020000
00000000
00000000
00000000
00000000
00000000
00000000
00000000
,
01030000
00000000
00000000
00000000
00000000
10000000
00100000
01000000
,
00010000
00000000
10000000
00000000
00010000
00000000
10000000
00010000
00000000
00000000
01000000
00000000
00010000
00000000
01000000
00000000
,
00001000
00000000
00010000
00000000
00001000
00000000
00010000
00001000
00000000
00000000
00000000
00000000
00010000
00000000
00000100
00000000
,
00001000
00000000
00000010
00000000
00000100
00000000
00000001
00001000
00000000
00000000
00000001
00000000
00001000
00000000
00000100
00000000
,
00010000
00000000
00000100
00000000
00010000
00000000
00001000
00000000
01000000
00000000
00100000
01000000
00000000
00000000
00010000
00000000
,
10000000
00000000
01000000
00000000
00100000
00000000
00010000
01000000
00000000
00000000
00010000
00000000
00100000
00000000
00001000
00000000
,
00010000
00000000
00000010
00000000
00001000
00000000
00000100
00001000
00000000
00000000
00000000
00000000
00000010
00000000
00000100
00000000
,
00000001
00000000
00000000
00000001
00000000
00000000
00000100
00000000
00000010
00000000
00001000
00000000
00000100
00000000
00000000
00000000
,
00011000
10010000
00011000
00001001
,
00000010
00000000
00001000
00000000
00000100
00000000
00001000
00000001
00001000
00000000
00000100
00000000
00010000
00000000
00001000
00000000
,
01000000
00000000
00100000
00000000
10000000
00000000
00010000
10000000
00010000
00000000
01000000
00000000
00001000
00000000
00010000
00000000
,
00000100
00000000
00001000
00000000
00000010
00000000
00000100
00000001
00000100
00000000
00000010
00000000
00001000
00000000
00000100
00000000
,
00010000
00000000
00001000
00000000
01000000
00000000
00010000
00000000
00100000
00000000
00010000
01000000
00000000
00000000
00100000
00000000
,
10000000
00000000
01000000
00000000
00100000
00000000
00001000
00010000
00001000
00000000
00010000
00000000
00000100
00000000
00001000
00000000
,
00000010
00000000
00000100
00000000
00000001
00000000
00001000
00000001
00001000
00000000
00000010
00000000
00001000
00000000
00000100
00000000
,
00020000
00000000
00000000
00001000
00000000
00000000
00031000
00000000
00001000
00000000
01000000
00000000
00100000
00000000
10000000
00000000
,
00010000
00000000
00000000
00000000
10000000
00000000
00010000
00000000
01000000
00000000
00000000
00010000
00000000
00000000
00200000
00000000
,
00020000
00000000
00000000
00330000
,
10010000
00000000
00000000
00010000
00000000
00000000
01000000
00000000
00000000
00001000
00000000
00000000
00010000
00000000
00000100
00000000
,
00001100
00000000
00000000
00001000
00000000
00000000
00001001
00000000
00000000
00000001
00000000
00000000
00000100
00000000
00000010
00000000
,
00000110
00000000
00000000
00000010
00000000
00000000
00001000
00000000
00000100
00000000
00000000
00010000
00000000
00000000
00001000
00000000
,
00100000
00000000
00010000
00100000
00000000
00010000
00100000
00000000
00010000
01000000
00000000
00010000
01000000
00000000
00100000
00000000
,
10000000
00000000
00010000
10000000
00000000
00010000
10000000
00000000
00010000
00100000
00000000
00010000
00100000
00000000
00001000
00000000
,
00010000
00000000
00000100
00001000
00000000
00000100
00001000
00000000
00000010
00001000
00000000
00000010
00001000
00000000
00000001
00000000
,
00001000
00000000
00000100
00001000
00000000
00000100
00001000
00000000
00000100
00010000
00000000
00001000
00010000
00000000
00022000
00000000
,
00000000
00000000
00000000
00000000
,
00000000
00000000
00000000
00000000
,
00000000
00000000
00000000
00000000
,
00000000
00000000
00000000
00000000
00000000
00000000
00000000
00033000
;

//---------------dance-double - ----------------
#NOTES:
     dance-double:
     :
     Medium:
     8:
     0.358163,0.463637,0.525394,0.230436,0.000000,272.000000,215.000000,57.000000,25.000000,0.000000,0.000000,0.358163,0.463637,0.525394,0.230436,0.000000,272.000000,215.000000,57.000000,25.000000,0.000000,0.000000:
00000000
00000000
00000000
00000000
,
00000000
00000000
00000000
00000000
,
00000000
00000000
00000000
00000000
,
00000000
00000000
00000000
00000000
,
00000000
00000000
00000000
00000000
,
10010000
00000000
00000000
00110000
00000000
00000000
00001000
00010000
,
00011000
00000000
00000000
00001010
00000000
00000000
00001000
00000001
,
00001001
00000000
00000000
00001100
00000000
00000000
00000100
00010000
,
00011000
00000000
00000000
01001000
00000000
00000000
02000000
00000000
,
00200000
00000000
03300000
00000000
,
10000000
00100000
10000000
00000000
00010000
01000000
00010000
00000000
,
10010000
11000000
01010000
00100000
,
00001000
00010000
00001000
00000000
00010000
00000100
00001000
00000000
,
00001100
00001010
00001001
00000000
,
00000001
00000010
00000001
00000000
00001000
00000100
00001000
00000000
,
00001001
00001100
00000101
00001000
,
00000200
00000300
00020000
00030000
,
00001000
01000000
00100000
00000000
,
10010000
00000000
01000000
00000000
10000000
00100000
10000000
00000000
,
10010000
00000000
01000000
00000000
00010000
00100000
00010000
00000000
,
00101000
00000000
00010000
00000000
00000100
00001000
00000100
00000000
,
00001001
00000000
00001000
00000000
00000100
00010000
00000100
00000000
,
00010000
00001000
00010000
00001000
,
00100000
00010000
01000000
00000000
00100000
00000000
00100000
00000000
,
10000000
00010000
10000000
00010000
,
00100000
00001000
00010000
00000000
00001000
00000000
00001000
00000000
,
00010000
00000010
00010000
00000010
,
00001000
00000100
00000010
00000000
00000001
00000000
00000100
00000000
,
00000010
00010000
00000010
00010000
,
00000100
00010000
00001000
00000000
00100000
00000000
00010000
00000000
,
20000000
30000000
20020000
30030000
,
00020000
00030000
00100000
00010000
,
02020000
03030000
00022000
00033000
,
00002200
00003300
00002002
00000000
,
00003003
00000000
00000000
00001001
,
00000010
00001000
00000100
00000000
00001000
00000000
00010000
00000000
,
00100000
00010000
01000000
00000000
00100000
00000000
10000000
00000000
,
01000000
10000000
00010000
00000000
01000000
00000000
00001000
00000000
,
00010000
00000000
00000100
00000000
00001000
00000001
00000100
00000000
,
00000010
00001000
00000100
00000000
00020200
00000000
00030300
00000000
,
00001000
00010000
00000100
00000000
00202000
00000000
00303000
00000000
,
00100000
00010000
01010000
10100000
,
01010000
01100000
10010000
00000000
,
10000000
00010000
10000000
00000000
00010000
10000000
00010000
00000000
,
11000000
01100000
00110000
00100000
,
00001000
00010000
00001000
00000000
00010000
00001000
00010000
00000000
,
00011000
00001010
00000101
00001010
,
00000001
00001000
00000001
00000000
00001000
00000001
00001000
00000000
,
00001001
00001100
00011000
00110000
,
00010000
01000000
00100000
00000000
10000000
00100000
01000000
00000000
,
10010000
00000000
01010000
01000000
,
02002000
00000000
00000000
03003000
,
00020020
00000000
00000000
00030030
,
00001001
00000000
00000000
00001100
00000000
00000000
00000100
00010000
,
00010100
00000000
00011000
00000000
,
00110000
00010000
01000000
10000000
,
11000000
10000000
00100000
00001000
,
00011000
00010000
00000010
00001000
,
00001100
00000000
00000100
00000000
00000001
00000000
00001000
00000002
,
00000000
00000000
00000000
00000000
,
00000000
00000000
00000000
00000000
,
00000000
00000000
00000000
00000000
,
00000000
00000000
00000000
00000000
00000000
00000000
00000000
00000003
;

//---------------dance-double - ----------------
#NOTES:
     dance-double:
     :
     Easy:
     5:
     0.234386,0.347728,0.258088,0.202784,0.000000,178.000000,150.000000,28.000000,22.000000,0.000000,0.000000,0.234386,0.347728,0.258088,0.202784,0.000000,178.000000,150.000000,28.000000,22.000000,0.000000,0.000000:
00000000
00000000
00000000
00000000
,
00000000
00000000
00000000
00000000
,
00000000
00000000
00000000
00000000
,
00000000
00000000
00000000
00000000
,
00000000
00000000
00000000
00000000
,
00011000
00000000
00000000
00000000
,
10010000
00000000
00000000
00000000
,
00011000
00000000
00000000
00000000
,
00001001
00000000
00000000
00000000
,
00022000
00000000
00033000
00000000
,
00100000
00010000
01000000
10000000
,
00100000
01000000
02200000
03300000
,
00100000
00001000
01000000
00010000
,
00100000
00001000
00010000
00011000
,
00010000
00000010
00010000
00000100
,
00001000
00000001
00002000
00003000
,
00000022
00000033
00002200
00003300
,
00000100
00010000
00002000
00003000
,
00200000
00000000
00310000
00000000
,
20000000
00000000
31000000
00000000
,
00200000
00000000
00301000
00000000
,
00020000
00000000
00030100
00000000
,
00001000
00000010
00000001
00000010
,
00001000
00000001
00001000
00000000
,
00000100
00010000
00001000
00010000
,
00000100
00000100
00010000
00000000
,
00001000
01000000
00010000
01000000
,
00001000
01000000
01000000
00000000
,
00010000
00100000
10000000
00100000
,
00010000
01000000
01000000
00000000
,
10100000
00000000
10010000
00000000
,
01000000
00100000
01000000
00000000
,
10010000
00000000
00110000
00000000
,
00001000
00010000
00001000
00000000
,
00011000
00000000
00001010
00000000
,
00000100
00001000
00000010
00000000
,
00000010
00000001
00000100
00000000
,
00000100
00010000
00001000
00000000
,
00001000
00010000
01000000
00000000
,
00100000
10000000
01000000
00000000
,
00100000
00001000
00000100
00000000
,
00000010
00001000
00000100
00000000
,
00010000
00001000
00100000
00000000
,
00010000
01000000
00100000
01000000
,
00010000
10000000
10010000
00000000
,
00100000
00001000
00010000
00000000
,
00010000
00000010
00001000
00000000
,
00000010
00001000
00000010
00000100
,
00000001
00001000
00001001
00000000
,
00000100
00010000
00001000
00000000
,
01000000
00010000
10000000
00000000
,
20020000
00000000
30030000
00000000
,
02200000
00000000
03300000
00000000
,
10010000
00000000
00000000
10010000
00000000
00000000
00000000
00000000
,
00110000
00000000
00011000
00000000
,
00001100
00001000
00001000
00001000
,
00000101
00000001
00000001
00000001
,
00001010
00001000
00001000
00001000
,
00002200
00000000
00003300
00022000
,
00000000
00000000
00000000
00000000
,
00000000
00000000
00000000
00000000
,
00000000
00000000
00000000
00000000
,
00000000
00000000
00000000
00000000
00000000
00000000
00000000
00033000
;

//---------------dance-single - ----------------
#NOTES:
     dance-single:
     :
     Medium:
     7:
     0.341045,0.463637,0.470089,0.304175,0.000000,259.000000,208.000000,51.000000,33.000000,0.000000,0.000000,0.341045,0.463637,0.470089,0.304175,0.000000,259.000000,208.000000,51.000000,33.000000,0.000000,0.000000:
0000
0000
0000
0000
,
0000
0000
0000
0000
,
0000
0000
0000
0000
,
0000
0000
0000
0000
,
0000
0000
0000
0000
,
1001
0000
0000
0110
0000
0000
0001
0000
,
0101
0000
0000
1010
0000
0000
1000
0000
,
1001
0000
0000
0110
0000
0000
1000
0000
,
1100
0000
0000
0101
0000
0000
0010
0000
,
2002
0000
0000
3003
,
0010
0010
0100
0100
,
0001
1000
0001
0000
2002
0000
3003
0000
,
0100
0100
0010
0010
,
1000
0001
1000
0001
1000
0000
1001
0000
,
1000
0010
1000
0000
0100
0000
0010
0000
,
0001
0010
0001
0000
0010
0000
0100
0000
,
2000
3001
0002
1003
,
0020
0130
0200
0310
,
2002
0000
3003
0010
,
0200
0000
0300
0001
,
2000
0000
3000
0010
,
0100
1001
0010
1001
,
0100
0001
0100
0000
1000
0000
1001
0000
,
0010
1000
0010
0000
0001
0000
1001
0000
,
1000
0001
1000
0000
0100
0000
0101
0000
,
0001
1000
0001
0000
0010
0000
1010
0000
,
0001
0100
0001
0000
0100
0000
0110
0000
,
1000
0100
1000
0000
0010
0000
0110
0000
,
1000
0001
1000
0000
0001
1000
0001
0000
,
0100
0010
0100
0000
0010
0000
1010
0000
,
0200
0300
0002
0003
,
0020
0000
0030
1001
,
0200
0000
0302
0000
,
0103
0010
2002
0000
,
3003
0000
0000
0000
,
1000
1001
0001
1001
,
0010
0100
0010
0000
0110
0000
1001
0000
,
0001
0011
1000
1100
,
0100
0010
0100
0000
0110
0000
1001
0000
,
0001
0010
0001
0000
0101
0000
0011
0000
,
1000
0100
1000
0000
1010
0000
1100
0000
,
0100
1000
0010
0001
,
0110
1001
0220
0330
,
1000
0001
0100
0000
0010
0000
1001
0000
,
0001
1000
0010
0000
0100
0000
1001
0000
,
0100
1001
0010
1001
,
1000
0001
1000
0001
1000
0000
0110
0000
,
1000
0010
1000
0000
0001
0000
0010
0000
,
0001
0010
0001
0000
1000
0000
0010
0000
,
0100
0100
0001
0010
,
2002
3003
0100
0010
,
2002
0000
3003
0110
,
2002
0000
3003
0110
,
1100
0000
0000
0011
0000
0000
0001
1000
,
0020
0030
1000
0001
,
0200
0010
0010
0310
,
2000
0001
0001
3001
,
0002
1000
1000
1003
,
0010
0000
1000
0000
0100
0000
0000
2002
,
0000
0000
0000
0000
,
0000
0000
0000
0000
,
0000
0000
0000
0000
,
0000
0000
0000
0000
0000
0000
0000
3003
;

//---------------dance-single - ----------------
#NOTES:
     dance-single:
     :
     Easy:
     4:
     0.239653,0.376705,0.341045,0.276523,0.000000,182.000000,145.000000,37.000000,30.000000,0.000000,0.000000,0.239653,0.376705,0.341045,0.276523,0.000000,182.000000,145.000000,37.000000,30.000000,0.000000,0.000000:
// measure 0
0000
0000
0000
0000
,  // measure 1
0000
0000
0000
0000
,  // measure 2
0000
0000
0000
0000
,  // measure 3
0000
0000
0000
0000
,  // measure 4
0000
0000
0000
0000
,  // measure 5
1001
0000
0000
0000
,  // measure 6
0110
0000
0000
0000
,  // measure 7
1001
0000
0000
1001
0000
0000
0000
0000
,  // measure 8
0110
0000
0000
0000
,  // measure 9
2002
0000
3003
0000
,  // measure 10
0010
0000
0010
0000
,  // measure 11
0100
0001
1000
0000
,  // measure 12
0010
0000
0010
0000
,  // measure 13
0100
1000
0001
0000
,  // measure 14
1000
0100
0001
0100
,  // measure 15
1000
1000
1001
0000
,  // measure 16
0001
0100
1000
0100
,  // measure 17
0001
0001
1001
0000
,  // measure 18
0020
0030
0200
0300
,  // measure 19
0001
0100
1000
0000
,  // measure 20
0200
0300
0020
0030
,  // measure 21
1000
0100
0001
0000
,  // measure 22
2000
0000
3001
0000
,  // measure 23
0001
0100
1000
0000
,  // measure 24
0002
0000
1003
0000
,  // measure 25
1000
0100
0001
0000
,  // measure 26
0020
0000
0130
0000
,  // measure 27
0001
0100
1000
0000
,  // measure 28
0200
0000
0310
0000
,  // measure 29
1000
0100
0001
0000
,  // measure 30
0110
0000
1001
0000
,  // measure 31
1000
0001
1001
0000
,  // measure 32
0110
0000
1001
0000
,  // measure 33
0001
1000
1001
0000
,  // measure 34
0020
0000
0200
0330
,  // measure 35
0001
0100
2000
3000
,  // measure 36
1000
0100
0002
0003
,  // measure 37
0010
0001
0200
0300
,  // measure 38
0010
1000
0200
0300
,  // measure 39
1100
1100
1001
0000
,  // measure 40
0101
0101
1001
0000
,  // measure 41
0010
0010
0001
0001
,  // measure 42
0100
1000
1001
0000
,  // measure 43
0020
1000
0100
1030
,  // measure 44
0100
0010
2002
3003
,  // measure 45
0020
0001
0100
0031
,  // measure 46
0010
0100
1001
0000
,  // measure 47
0020
1000
1000
0130
,  // measure 48
0020
0001
0001
0130
,  // measure 49
2002
3003
0220
0330
,  // measure 50
2002
0000
0000
3003
,  // measure 51
0110
0000
0000
0000
,  // measure 52
1001
0000
0000
0000
,  // measure 53
0110
0000
0000
1001
0000
0000
0000
0000
,  // measure 54
0110
0000
0110
1001
,  // measure 55
1001
1000
0010
0100
,  // measure 56
0001
0100
0010
1000
,  // measure 57
1001
1000
0001
0100
,  // measure 58
0110
0010
1000
2002
,  // measure 59
0000
0000
0000
0000
,  // measure 60
0000
0000
0000
0000
,  // measure 61
0000
0000
0000
0000
,  // measure 62
0000
0000
0000
0000
0000
0000
0000
3003
;

//---------------dance-single - ----------------
#NOTES:
     dance-single:
     :
     Beginner:
     1:
     0.117193,0.174210,0.046087,0.082957,0.000000,89.000000,84.000000,5.000000,9.000000,0.000000,0.000000,0.117193,0.174210,0.046087,0.082957,0.000000,89.000000,84.000000,5.000000,9.000000,0.000000,0.000000:
// measure 0
0000
0000
0000
0000
,  // measure 1
0000
0000
0000
0000
,  // measure 2
0000
0000
0000
0000
,  // measure 3
0000
0000
0000
0000
,  // measure 4
0000
0000
0000
0000
,  // measure 5
0010
0000
0000
0000
,  // measure 6
0010
0000
0000
0000
,  // measure 7
0010
0000
0000
0000
,  // measure 8
0010
0000
0000
0000
,  // measure 9
2002
0000
3003
0000
,  // measure 10
0100
0000
0100
0000
,  // measure 11
0100
0000
0000
0000
,  // measure 12
0010
0000
0010
0000
,  // measure 13
0010
0000
0000
0000
,  // measure 14
1000
0000
1000
0000
,  // measure 15
1000
0000
1000
0000
,  // measure 16
0001
0000
0001
0000
,  // measure 17
0001
0000
0001
0000
,  // measure 18
2002
0000
0000
0000
,  // measure 19
3003
0000
0000
0000
,  // measure 20
0000
0000
0000
0000
,  // measure 21
0000
0000
0000
0000
,  // measure 22
1000
0000
0001
0000
,  // measure 23
1000
0000
1000
0000
,  // measure 24
0001
0000
1000
0000
,  // measure 25
0001
0000
0001
0000
,  // measure 26
0010
0000
0100
0000
,  // measure 27
0010
0000
0010
0000
,  // measure 28
0100
0000
0010
0000
,  // measure 29
0100
0000
0100
0000
,  // measure 30
0020
0000
0030
0000
,  // measure 31
1000
0000
0001
0000
,  // measure 32
0020
0000
0030
0000
,  // measure 33
0001
0000
1000
0000
,  // measure 34
0020
0000
0000
0030
,  // measure 35
0001
0000
0001
0000
,  // measure 36
1000
0000
1000
0000
,  // measure 37
0010
0000
0010
0000
,  // measure 38
0100
0000
0100
0000
,  // measure 39
1000
0000
1000
0000
,  // measure 40
0001
0000
0001
0000
,  // measure 41
1000
0000
1000
0000
,  // measure 42
0001
0000
0001
0000
,  // measure 43
0010
0000
0100
0000
,  // measure 44
0100
0000
0010
0000
,  // measure 45
0100
0000
0010
0000
,  // measure 46
0010
0000
0100
0000
,  // measure 47
0010
0000
1000
0000
,  // measure 48
0100
0000
0001
0000
,  // measure 49
0100
0000
0100
0000
,  // measure 50
1001
0000
0000
0000
,  // measure 51
1001
0000
0000
0000
,  // measure 52
0000
0000
0000
0000
,  // measure 53
0000
0000
0000
0000
,  // measure 54
0000
0000
0010
0000
,  // measure 55
1000
0000
0001
0000
,  // measure 56
1000
0000
0001
0000
,  // measure 57
0010
0000
0100
0000
,  // measure 58
0010
0000
0000
2002
,  // measure 59
0000
0000
0000
0000
,  // measure 60
0000
0000
0000
0000
,  // measure 61
0000
0000
0000
0000
,  // measure 62
0000
0000
0000
0000
,  // measure 63
3003
0000
0000
0000
;
