#TITLE:東京神話;
#SUBTITLE:;
#ARTIST:DJ TECHNORCH feat. 宇宙★海月 vs. BEMANI Sound Team "U1-ASAMi";
#TITLETRANSLIT:Tokyo Shinwa;
#SUBTITLETRANSLIT:;
#ARTISTTRANSLIT:DJ TECHNORCH feat. Uchuu-Kurage vs. BEMANI Sound Team "U1-ASAMi";
#GENRE:;
#CREDIT:;
#BANNER:Tokyo Shinwa.png;
#BACKGROUND:Tokyo Shinwa-bg.png;
#LYRICSPATH:;
#CDTITLE:;
#MUSIC:Tokyo Shinwa.ogg;
#OFFSET:-0.440000;
#SAMPLESTART:47.000137;
#SAMPLELENGTH:12.000000;
#SELECTABLE:YES;
#BPMS:0.000000=196.000000
;
#STOPS:111.875000=1.224491,
207.666672=1.224487
;
#BGCHANGES:;
#KEYSOUNDS:;
#ATTACKS:;

//---------------dance-single - ----------------
#NOTES:
     dance-single:
     :
     Hard:
     15:
     0.760034,0.967608,0.607294,0.453332,0.496100,622.000000,551.000000,71.000000,53.000000,0.000000,0.000000,0.760034,0.967608,0.607294,0.453332,0.496100,622.000000,551.000000,71.000000,53.000000,0.000000,0.000000:
0000
0000
0000
0000
,
0000
0000
0000
0000
,
0000
0000
0000
0000
,
0000
0000
0000
0000
,
1000
0002
0000
0103
0010
0100
0001
2000
,
0000
3001
0100
0010
2000
0000
3000
0000
,
0001
0100
0001
0100
1000
0100
0001
1000
,
0002
0023
0230
1300
,
0110
0000
0001
1000
0100
1000
0001
1001
,
1001
0000
0010
0100
0001
0100
0010
1000
,
1010
0000
0000
0100
0101
0000
0000
0001
,
0011
1001
0110
1001
,
0001
0100
0010
0100
0001
1000
0100
0001
,
0100
0000
1000
0000
0001
0000
1000
0000
0000
0000
0010
0100
0010
0000
1000
0000
,
0001
0100
0010
1000
0001
1000
0010
0001
,
0010
0100
0001
0100
0010
0000
1001
0000
,
2000
0000
3001
0010
0001
0100
0001
1000
,
0100
1000
0001
0100
1000
0100
0010
0000
,
0001
0010
0100
1000
1001
0000
1001
0000
,
1000
0100
0010
0001
1001
0000
1001
0000
,
1100
0000
0001
0100
0010
0001
0010
1000
,
0100
1100
0202
0303
,
0011
0000
0100
0010
1000
0100
0001
0100
,
1000
0001
1000
0100
0000
0010
0002
0000
,
0103
0010
0100
0010
1000
0100
1000
0100
,
0010
0001
0100
1000
0100
0000
1001
0000
,
0010
0000
1000
0010
0100
0010
1000
0001
,
0100
1000
0100
0001
1001
0000
1100
0000
,
0010
0010
0010
0010
1001
1001
1001
0000
,
0002
0203
0320
0230
,
0302
0000
0000
1003
0010
0100
0010
1000
0010
0100
0010
0100
,
0020
2030
3200
0302
,
0203
2300
3200
0320
,
2030
0000
3001
0100
0010
0100
0001
0100
,
1000
0100
0010
0100
0001
1000
0100
0010
,
0001
0011
0101
1001
,
0010
0100
0000
2002
0000
3003
0000
0000
,
1010
1100
0101
0011
,
0100
0000
0000
0010
0000
0000
1000
0000
0010
0000
1000
0000
0010
0000
0100
0000
0010
0000
0100
0000
0001
0000
0100
0000
,
0001
0100
0010
0100
0000
0000
0001
1000
0001
0100
0000
0000
,
1000
0001
1000
0100
0000
0000
1000
0010
0100
0010
0000
0000
,
1000
0010
1000
0001
1000
0100
0010
0001
,
0100
0001
1000
0001
0010
0100
1000
0010
,
1000
0000
0000
0001
0010
0001
0010
0001
0010
0100
1000
0100
,
1000
0010
0001
0100
,
1001
0100
1000
0010
,
0001
0000
0000
0100
0000
0000
0010
0000
0000
0100
0000
0000
0010
0000
1000
0000
0010
0000
1000
0000
0100
0000
1000
0000
,
0010
0100
0010
1000
0100
1000
0100
0010
0001
0100
0010
0100
,
0001
0000
1001
0000
1000
0010
1001
0000
,
1000
0010
1000
0010
1000
0001
0010
0001
0010
0001
1000
0001
,
1000
0100
0010
0001
1000
0100
0010
0001
,
0100
0010
0100
0010
0100
0010
1000
0001
1000
0001
1000
0001
,
2000
0200
3300
0002
0200
0303
0010
1000
,
0200
2000
3300
0002
0020
0033
0100
0010
,
2000
3000
0002
0003
0000
0020
0200
0330
,
1000
0010
1000
0001
0100
0010
1000
0000
,
0001
0000
0200
0300
0002
2000
3003
0100
,
0020
0002
0033
2000
0200
3300
0001
0100
,
0020
0000
0000
0030
,
1000
0100
0010
0001
0100
0100
0100
0100
,
0010
0010
1010
0000
,
0100
0100
0101
0000
,
0001
0010
1001
0000
,
1000
0010
1001
0000
,
1100
0101
1001
0000
,
0011
0110
1001
0000
,
1010
0101
0011
1100
,
0110
1001
2002
3003
,
0220
0000
0000
0000
,
0000
0330
0000
1001
,
1100
1100
0011
1001
,
0011
0000
0000
0101
0000
0001
0100
0000
0000
1001
0000
0000
,
1000
0100
1000
0100
0010
0001
0100
0001
0100
0001
0010
0100
,
1000
0010
1000
0001
0010
0001
1000
0000
0000
1100
0000
0000
,
0101
0110
0101
0110
,
0001
0000
0000
0010
0000
0000
0100
0000
1000
0000
0100
0000
1000
0000
0001
0000
1000
0000
0001
0000
1000
0000
0001
0000
,
1000
0000
1000
0010
0000
0010
0100
0000
0100
0001
0000
0001
,
0010
0001
0010
0001
0100
0010
0100
0010
1000
0100
1000
0100
,
1000
0000
1001
0000
0001
0100
0010
1000
,
0010
0001
0010
1000
0100
0010
0001
0100
,
0010
0100
0010
0100
0010
0100
0001
1000
0001
1000
0001
1000
,
0010
0100
0010
1000
0001
0010
0100
1000
,
1001
1100
0011
1100
,
0100
0001
0100
0010
0100
0001
0100
0010
,
1000
0100
1000
0100
1000
0100
0010
0001
0010
0001
0010
0001
,
1000
0100
0010
0001
0010
0100
1000
0001
0010
0100
1000
0001
,
2000
3000
0002
0003
,
1000
0100
0010
0001
1000
0100
0010
0001
,
0100
0000
0000
0001
0010
0001
1000
0100
1000
0001
0100
0001
,
2000
0000
0000
0000
,
0000
0000
3000
0000
;

//---------------dance-single - ----------------
#NOTES:
     dance-single:
     :
     Medium:
     10:
     0.491212,0.619269,0.641508,0.487546,0.000000,402.000000,327.000000,75.000000,57.000000,0.000000,0.000000,0.491212,0.619269,0.641508,0.487546,0.000000,402.000000,327.000000,75.000000,57.000000,0.000000,0.000000:
0000
0000
0000
0000
,
0000
0000
0000
0000
,
0000
0000
0000
0000
,
0000
0000
0000
0000
,
1000
0001
0000
0001
0010
0000
0100
0001
,
1000
0001
2020
3030
,
0001
0100
1000
0100
,
0002
0023
0230
1300
,
0110
0001
0100
0000
,
1001
0010
0100
0000
,
1010
0000
0101
0000
,
0011
1001
0110
0000
,
0001
0000
0100
0000
0001
0100
1000
0000
,
0100
0000
0001
0000
1000
0100
0001
0000
,
1000
0010
0001
0010
,
1000
0010
0100
0000
0010
0000
1001
0000
,
2000
3001
0011
0101
,
2000
3001
1100
1010
,
0001
0000
0100
0000
1000
0001
1000
0000
,
1000
0010
0100
0000
1000
0001
1000
0000
,
1100
0000
0001
0000
0100
0010
0100
0000
,
0101
0000
1000
0000
0010
0100
0010
0000
,
1010
0100
1010
0101
,
1001
0000
0010
0000
0100
0001
0100
0000
,
0001
0010
0100
0000
0010
0000
1001
0000
,
1000
0010
0100
0000
0010
0000
1001
0000
,
0010
1000
0100
0001
,
0010
0100
0010
0100
0010
0000
1001
0000
,
0010
0010
2002
3003
,
0020
0000
0032
0000
,
0203
0000
2300
0000
,
3020
0000
2030
0000
,
3200
0000
0302
0000
,
0013
1000
0100
1000
,
0010
0001
0100
0001
,
0010
0010
0010
0010
,
1000
0001
0000
2002
0000
0000
3003
0000
,
1010
1010
0011
0011
,
0100
0020
2030
3002
,
0103
0110
1000
1001
,
0001
0010
0100
1001
,
1000
0000
0010
1000
0001
1000
0010
1000
,
0001
1001
1000
1001
,
1000
0010
1000
0000
0001
0010
0001
0000
,
1000
0100
0010
1001
,
0011
0011
1010
1010
,
0001
0100
0010
1000
,
0100
0110
0001
1001
,
0101
0101
1100
1100
,
2000
3000
0002
0003
,
1000
0001
0100
0001
1000
0001
0010
0100
,
1000
0100
0010
1001
,
2000
3000
0002
0003
,
0200
2300
3002
0003
,
2000
3000
0002
0003
,
0100
0010
0200
0300
,
2000
3000
0002
0003
,
0020
0032
0203
0300
,
0020
0000
0200
0330
,
1000
0000
0100
0000
0001
1000
0001
1000
,
0001
0000
1001
0000
,
1000
0000
0101
0000
,
0010
0000
1100
0000
,
1000
0000
0011
0000
,
1000
0100
1001
0000
,
0001
0010
1001
0000
,
0010
0101
0010
1100
,
0110
1001
2002
3003
,
0220
0000
0000
0000
,
0000
0330
0000
1001
,
1100
0000
0000
1001
,
0011
0000
0000
1001
,
1100
0000
0101
0000
,
0110
0110
1001
0000
,
2000
3002
0203
0320
,
2030
0000
3200
0000
0301
0010
0002
0000
,
0203
0310
0020
0130
,
1001
0000
1001
0000
0100
0010
0100
0000
,
1000
0001
1000
0001
0100
0010
0100
0010
,
0100
0001
0010
1000
,
2200
3300
0022
0033
,
0100
0010
0100
0000
1001
0000
1001
0000
,
0010
1000
0100
0000
1000
0001
0010
0000
,
0100
0001
0010
0000
0001
1000
0100
0000
,
0010
1000
0010
0000
0100
0001
0100
0000
,
0010
1000
0100
0000
0010
0001
0100
0000
,
0010
1000
0100
0001
,
1001
0010
0001
0100
,
1001
0010
0001
0100
,
2000
0000
0000
0000
,
0000
0000
3000
0000
;

//---------------dance-single - ----------------
#NOTES:
     dance-single:
     :
     Easy:
     6:
     0.305480,0.425748,0.136855,0.427672,0.000000,250.000000,234.000000,16.000000,50.000000,0.000000,0.000000,0.305480,0.425748,0.136855,0.427672,0.000000,250.000000,234.000000,16.000000,50.000000,0.000000,0.000000:
0000
0000
0000
0000
,
0000
0000
0000
0000
,
0000
0000
0000
0000
,
0000
0000
0000
0000
,
1000
0000
0010
0000
,
0001
0000
0200
0300
,
0001
0100
1000
0000
,
0001
0010
0100
1000
,
1001
0000
0000
0000
,
0110
0000
0000
0000
,
1001
0000
0110
0000
,
0010
0010
0010
0000
,
0001
0100
0001
1000
,
0100
1000
0001
0000
,
0001
0010
0001
1000
,
0010
1000
0001
0000
,
1000
0001
0010
0100
,
1000
0001
1000
0000
,
0001
0100
1000
0000
,
1000
0100
0001
0000
,
1100
0001
0100
0100
,
0101
1000
0010
0010
,
1000
0100
0010
0001
,
0001
0010
0100
1000
,
0001
0100
0010
0000
,
1000
0100
0010
0000
,
0010
1000
0100
0000
,
0010
0010
0010
0000
,
0000
0000
0000
0000
,
0020
0000
0032
0000
,
0203
0000
2300
0000
,
3020
0000
2030
0000
,
3200
0000
0302
0000
,
0013
1000
0100
1000
,
0010
0001
0100
0001
,
0010
0010
0010
0010
,
0000
0000
0000
0000
,
0010
0010
0001
0001
,
0200
0000
0302
0000
,
0013
0010
1000
1000
,
0002
0000
0203
0000
,
1300
0100
0010
0001
,
0002
0000
2003
0000
,
3001
0010
0100
1000
,
1000
0100
0010
0001
,
0010
0001
0100
1000
,
0002
0000
2003
0000
,
3100
0010
0001
1000
,
0002
0000
2003
0000
,
3020
0030
0200
0300
,
0001
0010
0100
0000
,
1000
0100
0010
0000
,
2000
0000
3000
0000
,
0200
0000
0300
0000
,
0020
0000
0030
0000
,
0002
0000
0003
0000
,
2000
3000
0002
0003
,
0020
0030
0200
0300
,
2000
0000
0002
3003
,
0010
0010
0010
0000
,
0001
0000
1001
0000
,
1000
0000
1001
0000
,
0010
0000
0110
0000
,
0100
0000
0110
0000
,
1000
0001
1001
0000
,
0001
1000
1001
0000
,
0010
0100
0010
0100
,
0110
0000
2002
3003
,
0220
0000
0000
0000
,
0000
0330
0000
1000
,
1000
0000
0000
0001
,
0001
0000
0000
1000
,
1000
0000
0001
0000
,
0010
0010
0010
0000
,
2000
3002
0203
0300
,
2000
3200
0302
0003
,
0200
0320
2030
3000
,
0002
0203
0320
0030
,
1000
1000
0100
0100
,
0001
0001
0010
0010
,
2000
3000
0002
0003
,
0100
0100
1001
0000
,
0010
0100
1000
0001
,
1000
0100
0010
0001
,
1000
0100
0001
0100
,
1000
0010
0001
0100
,
0010
0010
0010
0000
,
0100
0100
0100
0000
,
0001
0010
0100
0000
,
2000
0000
0000
0000
,
0000
0000
3000
0000
;

//---------------dance-single - ----------------
#NOTES:
     dance-single:
     :
     Beginner:
     4:
     0.201617,0.309635,0.145409,0.239496,0.000000,165.000000,148.000000,17.000000,28.000000,0.000000,0.000000,0.201617,0.309635,0.145409,0.239496,0.000000,165.000000,148.000000,17.000000,28.000000,0.000000,0.000000:
// measure 0
0000
0000
0000
0000
,  // measure 1
0000
0000
0000
0000
,  // measure 2
0000
0000
0000
0000
,  // measure 3
0000
0000
0000
0000
,  // measure 4
1000
0000
0000
0000
,  // measure 5
0001
0000
0000
0000
,  // measure 6
0100
0000
0100
0000
,  // measure 7
0200
0000
0300
0000
,  // measure 8
1001
0000
0000
0000
,  // measure 9
0110
0000
0000
0000
,  // measure 10
1001
0000
0110
0000
,  // measure 11
0010
0010
0010
0000
,  // measure 12
0001
0000
0001
0000
,  // measure 13
1000
0000
1000
0000
,  // measure 14
0010
0000
0010
0000
,  // measure 15
0100
0000
0100
0000
,  // measure 16
0001
0000
0001
0000
,  // measure 17
1000
0000
1000
0000
,  // measure 18
0001
0000
1000
0000
,  // measure 19
2002
0000
3003
0000
,  // measure 20
0020
0030
0010
0000
,  // measure 21
0200
0300
0100
0000
,  // measure 22
2000
3000
1000
0000
,  // measure 23
0002
0003
0001
0000
,  // measure 24
0001
0000
0010
0000
,  // measure 25
0100
0000
1000
0000
,  // measure 26
0100
0100
0100
0000
,  // measure 27
0010
0010
0010
0000
,  // measure 28
0000
0000
0000
0000
,  // measure 29
0020
0000
0030
0000
,  // measure 30
0200
0000
0300
0000
,  // measure 31
0020
0000
0030
0000
,  // measure 32
0200
0000
0300
0000
,  // measure 33
0010
0000
0100
0000
,  // measure 34
0010
0000
0100
0000
,  // measure 35
0010
0000
0100
0000
,  // measure 36
0000
0000
0000
0000
,  // measure 37
0001
0000
1000
0000
,  // measure 38
0200
0000
0300
0000
,  // measure 39
2000
0000
3002
0000
,  // measure 40
0203
0000
0300
0000
,  // measure 41
1000
0000
0100
0000
,  // measure 42
0010
0000
0001
0000
,  // measure 43
0002
0000
0000
0003
,  // measure 44
2000
0000
0000
3000
,  // measure 45
0010
0000
0100
0000
,  // measure 46
0002
0000
0003
0000
,  // measure 47
0100
0000
0010
0000
,  // measure 48
2000
0000
3000
0000
,  // measure 49
1001
0000
0000
0000
,  // measure 50
1001
0000
0000
0000
,  // measure 51
0010
0010
0010
0010
,  // measure 52
0000
0000
0000
0000
,  // measure 53
0200
0000
0300
0000
,  // measure 54
0020
0000
0030
0000
,  // measure 55
0002
0000
0003
0000
,  // measure 56
1000
0000
0100
0000
,  // measure 57
0010
0000
0001
0000
,  // measure 58
2002
0000
3003
0000
,  // measure 59
0020
0000
0030
0000
,  // measure 60
0000
0000
1001
0000
,  // measure 61
0000
0000
1001
0000
,  // measure 62
0000
0000
0110
0000
,  // measure 63
0000
0000
0110
0000
,  // measure 64
0000
0000
1001
0000
,  // measure 65
0000
0000
0110
0000
,  // measure 66
0010
0000
0010
0000
,  // measure 67
0010
0010
0010
0000
,  // measure 68
2002
0000
0000
0000
,  // measure 69
3003
0000
0000
1000
,  // measure 70
1000
0000
0000
0001
,  // measure 71
0001
0000
0000
1000
,  // measure 72
1000
0000
0001
0000
,  // measure 73
0010
0010
0010
0000
,  // measure 74
1000
0000
0001
0000
,  // measure 75
1000
0000
0001
0000
,  // measure 76
1000
1000
1000
0000
,  // measure 77
0001
0001
0001
0000
,  // measure 78
1000
0000
0100
0000
,  // measure 79
0001
0000
0010
0000
,  // measure 80
1000
1000
0001
0000
,  // measure 81
0001
0001
1000
0000
,  // measure 82
0010
0000
1001
0000
,  // measure 83
0100
0000
1001
0000
,  // measure 84
1000
1000
1000
0000
,  // measure 85
0001
0001
0001
0000
,  // measure 86
0010
0000
0010
0000
,  // measure 87
0100
0000
0100
0000
,  // measure 88
1000
0001
1000
0000
,  // measure 89
0002
0000
0000
0000
,  // measure 90
0000
0000
0003
0000
;
