#TITLE:Time to Say Goodbye;
#SUBTITLE:(Beach Bae Remix);
#ARTIST:Jeff Williams and Casey Lee Williams;
#TITLETRANSLIT:;
#SUBTITLETRANSLIT:;
#ARTISTTRANSLIT:;
#GENRE:;
#CREDIT:;
#BANNER:Time to Say Goodbye (Beach Bae Remix).png;
#BACKGROUND:Time to Say Goodbye (Beach Bae Remix)-bg.png;
#LYRICSPATH:;
#CDTITLE:;
#MUSIC:Time to Say Goodbye (Beach Bae Remix).ogg;
#OFFSET:-0.083000;
#SAMPLESTART:67.521019;
#SAMPLELENGTH:11.900826;
#SELECTABLE:YES;
#BPMS:0.000000=121.000000
;
#STOPS:
;
#BGCHANGES:;
#KEYSOUNDS:;
#ATTACKS:;

//---------------dance-single - ----------------
#NOTES:
     dance-single:
     :
     Hard:
     13:
     0.517748,0.535521,0.279481,0.153264,0.504868,402.000000,371.000000,31.000000,17.000000,0.000000,0.000000,0.517748,0.535521,0.279481,0.153264,0.504868,402.000000,371.000000,31.000000,17.000000,0.000000,0.000000:
0000
0000
0000
0000
,
0000
0000
0000
0000
,
0000
0000
0000
0000
,
0000
0000
0000
0000
,
0000
0000
0000
0000
0000
0000
0000
0000
0000
0000
0000
0000
0000
0000
1000
0001
,
0100
0000
0000
0001
1000
0000
0010
0000
1000
0000
0100
0000
0010
0000
0001
0100
,
0010
0000
0000
1000
0010
0000
0100
0000
0001
0000
0100
0000
0010
0000
1000
0000
,
0001
0000
0100
0010
0100
0010
0100
0000
0002
0000
0003
0000
2000
0000
0000
3020
,
0000
0000
0130
0000
0100
0000
1000
0001
1000
0001
0000
0010
0000
1000
0001
0000
,
1000
0000
0000
1000
0010
0000
0100
0000
0001
0000
0100
0000
1001
0000
0000
0000
,
0001
0000
0000
0001
0100
0000
0010
0000
1000
0000
0100
0000
1001
0000
0000
0000
,
0110
0000
0000
1000
0001
0000
0100
0000
0010
0000
1000
0000
0100
0000
1000
0000
,
0001
0000
0000
0100
0001
0000
0100
0010
0100
0010
0000
1000
0000
0001
1000
0000
,
0001
0000
0000
1000
0100
0000
0010
0000
0001
0000
0000
0100
0010
0000
1000
0000
,
0010
0000
0000
0100
0001
0000
1000
0000
0010
0000
0000
1000
0100
0000
0010
0000
,
0001
0000
0000
0100
0010
0000
1000
0000
0010
0000
0000
0100
0010
0000
0100
0000
,
0001
0001
1001
0001
1000
1000
1001
1000
,
0010
0000
0010
0000
0110
0000
0010
0000
0100
0000
0000
0000
1000
0001
0000
0100
,
0000
0000
0000
0000
0000
0000
1000
0000
0001
0000
0000
0000
0110
0000
0000
1001
,
0000
0000
0000
0000
0001
0000
0100
0000
1000
0000
0000
0000
0110
0000
0000
1001
,
0000
0000
0000
0000
1000
0000
0001
0000
0100
0000
0000
0000
1001
0000
0000
0110
,
0000
0000
0000
0000
0001
0000
1000
0000
0100
0000
0000
0000
1000
0100
0000
0002
,
0000
0000
0000
0100
0000
0000
0103
0000
0010
0000
0000
0000
1010
0000
0000
0020
,
0000
0000
0000
0100
0000
0000
0130
0000
0001
0000
0000
0000
1100
0000
0000
0012
,
0000
0000
0103
0000
0010
0000
0100
0000
0001
0000
0000
0000
0100
0000
0000
2010
,
0000
0000
3001
1000
0000
0010
0000
0100
0000
0010
0000
0010
0000
0010
0000
0100
,
0001
0000
0000
1000
0100
0000
0010
0000
0001
0000
0000
0100
0010
0000
1000
0000
,
0001
0000
0000
1000
0010
0000
0100
0000
0001
0010
0000
0001
0100
0000
0100
0000
,
1000
0001
1000
0010
1000
0000
0001
0100
,
0001
0000
0010
0000
0001
0000
0100
0000
0001
0000
0000
1001
0000
0000
0010
0000
,
0110
0000
0000
0100
0001
0000
0100
0000
0010
0000
1000
0000
0100
0000
0001
0000
,
1000
0000
0000
0001
0100
0000
0001
0000
1000
0010
0000
0010
1000
0000
0001
0000
,
0100
0010
0100
0010
0200
0000
0301
0010
,
0001
0000
0100
0010
0000
1000
0000
0100
0000
0010
0000
0001
0000
0100
0000
1000
,
0001
0000
0000
0000
0010
0100
0010
0100
0010
0100
0000
0001
0000
1000
0000
0001
,
0000
1000
0100
1000
0000
0000
0001
0000
0000
0100
0000
0000
0110
0000
0000
0000
,
1001
0000
0200
0020
0330
0000
0020
0200
,
0330
0000
0001
0000
1000
0010
0000
0100
0000
0001
0000
0100
0000
0010
0000
0000
,
2000
0000
0000
0000
3002
0000
0000
0000
0103
0000
0010
0000
1000
0001
0000
1000
,
0000
0001
0100
0001
0000
0000
0100
0000
0000
0010
0000
0000
1001
0000
0100
0000
,
0010
0000
2000
0100
3100
0000
0002
0010
,
0013
0001
0100
0010
1000
0010
0100
0001
,
1000
0000
0000
0000
0010
0100
0010
0100
0010
0100
0000
0001
0000
0110
0000
1001
,
0000
0010
0100
0010
0000
0000
1100
0000
0000
0101
0000
0000
1000
0000
0010
0000
,
0100
0000
0000
0000
0001
0010
0100
0000
0001
0000
0000
0000
1000
0010
0100
0000
,
1000
0000
0000
0000
0001
0100
0000
0010
0000
0100
0000
0001
0000
1000
0000
0000
,
0101
0000
0000
0000
2000
0000
0000
0000
3001
0000
0100
0000
0010
1000
0000
0001
,
0000
1000
0100
1000
0000
0000
0011
0000
0000
0110
0000
0000
1100
0000
0001
0000
,
0100
0000
0010
0000
1000
0010
1000
0010
1000
0000
0001
0000
0100
0000
0010
0000
,
1000
0000
0000
0000
0001
0100
0000
0010
0000
1000
0000
0001
0000
1001
0000
0000
,
0010
1000
0010
0001
0010
1000
0010
0001
,
0100
1000
0100
0001
0100
1000
0100
0001
,
0010
1000
0100
1000
0010
0001
0100
0001
,
0010
0000
1000
0000
0100
0000
0010
0100
0001
1000
0000
0001
0000
1000
0001
0000
,
1001
0000
0000
0000
;

//---------------dance-double - ----------------
#NOTES:
     dance-double:
     :
     Hard:
     13:
     0.434032,0.486837,0.081140,0.198341,0.410206,337.000000,328.000000,9.000000,22.000000,0.000000,0.000000,0.434032,0.486837,0.081140,0.198341,0.410206,337.000000,328.000000,9.000000,22.000000,0.000000,0.000000:
00000000
00000000
00000000
00000000
,
00000000
00000000
00000000
00000000
,
00000000
00000000
00000000
00000000
,
00000000
00000000
00000000
00000000
,
00000000
00000000
00000000
00000000
00000000
00000000
00000000
00000000
00000000
00000000
00000000
00000000
00000000
00000000
00010000
00001000
,
01000000
00000000
00010000
00000000
01000000
00000000
00100000
00000000
01000000
00000000
00010000
00000000
10000000
00000000
00010000
01000000
,
00010000
00100000
00001000
00010000
00000100
00001000
00000010
00000100
,
00000002
00000000
00000000
00000000
00000013
00000000
00000000
00000000
00000200
00000000
00000000
00000000
00000320
00000000
00000000
00001030
,
00000000
00000000
00000001
00000000
00001000
00000000
00000010
00000100
00000010
00000100
00000000
00000001
00000000
00001000
00000100
00000000
,
00002000
00000000
00003000
00000100
00010000
00001000
01000000
00000000
,
00020000
00000000
00000000
00030000
00000000
00000000
10000000
00000000
00010000
00000000
01000000
00000000
00001000
00000000
00000000
00000000
,
00020000
00000000
00030000
00000100
00001000
00000010
00000100
00000000
,
00000001
00000000
00001000
00000000
00000010
00000000
00001000
00000000
00000100
00001000
00000000
00000100
00000000
00010000
00000100
00000000
,
00020000
00000000
00030000
00001000
01000000
00010000
10000000
00000000
,
00200000
00000000
00000000
00300000
00000000
00000000
10000000
00000000
00010000
00000000
01000000
00000000
00001000
00000000
00000000
00000000
,
00010000
00000100
00001000
00000001
00001000
00000100
00010000
00000010
,
00002000
00000100
01000000
00013000
,
10020000
00000000
00000000
00000000
01000000
00000000
00000000
00000000
10030000
00000000
00000000
00000000
00100000
00000000
00000000
00002000
,
00000000
00000000
00000000
00000000
00013000
00000000
00000010
00000000
00000100
00000000
00000000
00000000
00000001
00000000
00000000
00002000
,
00000000
00000000
00000000
00000000
00003100
00000000
00010000
00000000
00001000
00000000
00000000
00000000
00100000
00000000
00000000
00020000
,
00000000
00000000
00000000
00000000
01030000
00000000
00100000
00000000
10000000
00000000
00000000
00000000
00100000
00000000
00000000
00002000
,
00000000
00000000
00000000
00000000
00013000
00000000
00000100
00020000
00000000
00000000
00000000
00000000
00030010
00000000
00000000
00000210
,
00000000
00000000
00000000
00000000
00000301
00000000
00001000
00000000
00000100
00000000
00000000
00000000
00010000
00000000
00000000
00002000
,
00000000
00000000
00000000
00000000
01003000
00000000
00100000
00000000
10000000
00000000
00000000
00000000
00100000
00000000
00000000
02000000
,
00000000
00000000
00000000
00000000
03010000
00000000
00100000
00000000
00001000
00000000
00000000
00000000
00010000
00000000
00000000
00000010
,
00000000
00000000
00000000
00001000
00000000
00000001
00000000
00000100
00000000
00000010
00000000
00001000
00000000
00000100
00000000
00000000
,
00010000
00000000
00000000
00000100
00000000
00000000
00010000
00000000
00001000
00000000
01000000
00000000
00010000
00000000
10000000
00000000
,
00100000
00000000
00000000
00100000
00000000
00000000
00100000
00000000
00000000
10000000
00000000
00000000
00010000
00000000
01000000
00000000
,
00001000
00010000
00000100
00010000
00001000
00000000
00010000
00000000
,
00000010
00000000
00000100
00000000
00000001
00000000
00000100
00000000
00000010
00000000
00000000
00001000
00000000
00000000
00000100
00000000
,
00001000
00000000
00000000
00000100
00000000
00000000
00001000
00000000
00000000
00000000
00010000
00000000
00000100
00000000
00010000
00000000
,
00001000
00000000
00000000
01000000
00000000
00000000
00010000
00000000
00000000
10000000
00000000
00000000
00100000
00000000
01000000
00000000
,
00000000
00000000
10000000
00000000
00010000
00000000
01000000
00000000
00010000
00000000
00000000
00000000
00100000
00000000
00000000
00001000
,
00000000
00010000
00000000
00000100
00000000
00001000
00000000
00000010
00000000
00000100
00000000
00000001
00000000
00001001
00000000
00000000
,
00000010
00000000
00000000
00000000
00001000
00000100
00001000
00000100
00001000
00000010
00000000
00000100
00000000
00000001
00000000
00001000
,
00000000
00000100
00001000
00000100
00000000
00000000
00010000
00000000
00000000
00001000
00000000
00000000
01000000
00000000
00010000
00000000
,
10000000
00000000
00200000
02000000
03300000
00000000
02000000
00200000
,
03300000
00000000
10000000
00000000
00010000
00000000
01000000
00000000
00001000
00000000
00000000
00010000
00000000
00000000
00000010
00000000
,
00000100
00000000
00000000
00000000
00000001
00000100
00000001
00000100
00000000
00000010
00000000
00001000
00000000
00000100
00000000
00001000
,
00000000
00000010
00001000
00000010
00000000
00000000
00010000
00000000
00000000
00001000
00000000
00000000
01000000
00000000
00010000
00000000
,
01000000
00100000
01000000
00010000
01000000
00000000
01000000
00010000
,
00000000
00000000
01000000
00000000
00001000
00000000
00010000
00000000
00000100
00000000
00000000
00001000
00000000
00000000
00000010
00000000
,
00000100
00000000
00000000
00000000
00000001
00000100
00000001
00000100
00000001
00001000
00000000
00000010
00000000
00010000
00000000
00001000
,
00000000
00100000
00010000
00100000
00000000
00000000
00010000
00000000
00000000
01000000
00000000
00000000
10010000
00000000
10000000
00000000
,
00100000
00000000
11000000
00100000
00010000
00000000
00011000
00010000
,
00000100
00000000
00000000
00000000
00000010
00001000
00000000
00000010
00000000
00000100
00000000
00000010
00000000
00001000
00000000
00000000
,
00000100
00000000
00000001
00000100
00000001
00000000
00001000
00000000
00000100
00010000
00000000
00001000
00000000
00010000
00000000
00001000
,
00000000
01000000
00010000
01000000
00000000
00000000
00010000
00000000
00000000
01000000
00000000
00000000
00100000
00000000
01000000
00000000
,
00010000
00000000
11000000
10000000
00100000
00000000
01010000
00010000
,
00100000
00000000
00000000
00000000
00001000
00010000
00000000
00000100
00000000
00010000
00000000
00001000
00000000
00010000
00000000
00000000
,
00000010
00000100
00000001
00000100
00000010
00000100
00000001
00001000
,
00000100
00010000
00001000
00010000
00000100
00010000
00001000
01000000
,
00010000
01000000
00100000
01000000
10000000
01000000
00100000
01000000
,
00010000
00000000
10000000
00000000
00100000
00000000
01000000
00010000
01000000
00010000
00000000
00100000
00000000
00001000
00010000
00000000
,
00011000
00000000
00000000
00000000
;

//---------------dance-single - ----------------
#NOTES:
     dance-single:
     :
     Medium:
     7:
     0.329710,0.389470,0.414713,0.180310,0.000000,256.000000,210.000000,46.000000,20.000000,0.000000,0.000000,0.329710,0.389470,0.414713,0.180310,0.000000,256.000000,210.000000,46.000000,20.000000,0.000000,0.000000:
0000
0000
0000
0000
,
0000
0000
0000
0000
,
0000
0000
0000
0000
,
0000
0000
0000
0000
,
0000
0000
0000
0000
,
0100
0000
0001
0000
1000
0001
1000
0000
,
0001
0000
0010
0000
1000
0001
1000
0000
,
0001
0100
0010
0000
0001
0000
1000
0000
,
0020
0030
1000
0010
,
0001
0000
0100
0010
0100
0000
0001
0000
,
1000
0000
0010
0100
0010
0000
1000
0000
,
0010
0000
0001
1000
0001
0000
0100
0000
,
0010
0000
1000
0001
1000
0000
0100
0000
,
0002
0103
2000
3010
,
0020
0031
2000
3100
,
0001
0010
0100
1000
,
0002
0100
0100
0103
,
2000
0100
3100
0001
,
0200
0300
1001
0110
,
0020
0030
1001
0110
,
0001
0100
0001
0000
0010
0000
0010
0000
,
1000
0010
1000
0000
0100
0000
0100
0000
,
0002
0003
1100
0011
,
2000
3000
0011
1100
,
0010
0100
0010
0000
1000
0000
0001
0000
,
0100
0010
0100
0000
0001
0000
1000
0000
,
0001
0100
1000
1001
,
1000
0100
0001
1001
,
0001
0010
0100
0000
1000
0000
1001
0000
,
1000
0100
0010
0000
0001
0000
1001
0000
,
0010
0100
0001
0000
1010
0000
0101
0000
,
0100
0010
1000
0000
0101
0000
1010
0000
,
0001
1000
0010
0000
1000
0001
0010
0000
,
0001
0010
0100
1000
,
0000
0000
1001
0000
0010
0100
0010
0000
,
1100
0000
0101
0000
0010
0010
0010
0000
,
0001
0220
0330
0220
,
0330
0000
0001
1000
0001
0000
0110
0000
,
1100
0000
0011
0000
0100
0001
0100
0000
,
0011
0000
1100
0000
0010
1000
0010
0000
,
0010
1001
1001
0100
,
0000
1001
0110
1001
,
0000
0000
1001
0000
0100
0010
0100
0000
,
1010
0000
0011
0000
0100
0100
0100
0000
,
1000
0220
0330
0220
,
0330
0000
1000
0001
1000
0000
0110
0000
,
0101
0000
1010
0000
0010
0001
0010
0000
,
1010
0000
0101
0000
0100
1000
0100
0000
,
0100
1001
1001
0010
,
0000
1001
0110
0001
,
0010
0001
0100
1000
,
0001
0100
1000
0010
,
1000
0100
0001
0010
,
0200
0300
1000
0001
,
1001
0000
0000
0000
;

//---------------dance-single - ----------------
#NOTES:
     dance-single:
     :
     Easy:
     4:
     0.202205,0.243419,0.081140,0.162279,0.000000,157.000000,148.000000,9.000000,18.000000,0.000000,0.000000,0.202205,0.243419,0.081140,0.162279,0.000000,157.000000,148.000000,9.000000,18.000000,0.000000,0.000000:
0000
0000
0000
0000
,
0000
0000
0000
0000
,
0000
0000
0000
0000
,
0000
0000
0000
0000
,
0000
0000
0000
0000
,
0100
0001
1000
0000
,
0100
0001
1000
0000
,
0001
0010
0001
0000
,
1000
0010
1000
0000
,
0002
0000
0103
0000
,
2000
0000
3010
0000
,
0002
0000
1003
0000
,
2000
0000
3001
0000
,
0020
0000
1030
0001
,
0020
0000
0031
1000
,
0001
0010
0100
1000
,
2002
0000
0000
3003
,
0220
0000
0330
0001
,
0200
0300
0100
0000
,
0020
0030
0010
0000
,
0001
0001
0010
0010
,
1000
1000
0100
0100
,
0002
0003
0100
0010
,
2000
3000
0010
0100
,
0010
0010
1000
0001
,
0100
0100
0001
1000
,
0001
0100
1000
0000
,
1000
0100
0001
0000
,
0001
0010
1000
0000
,
1000
0010
0001
0000
,
0010
0001
0010
0001
,
0100
1000
0100
1000
,
0001
0010
1000
0010
,
0001
0010
0100
1000
,
0000
1001
0010
0010
,
0000
1001
0000
1001
,
0000
0020
0030
0020
,
0030
0001
0010
0100
,
1000
0001
1000
0001
,
0010
0100
0010
0010
,
0000
1000
0001
0100
,
0000
0001
1000
0100
,
0000
1001
0100
0100
,
0010
0001
0100
1000
,
0000
0200
0300
0200
,
0300
0010
1000
0100
,
0001
1000
0010
0010
,
1000
0001
0100
0100
,
0000
1001
0100
0010
,
0000
1001
0010
0100
,
0010
0001
0000
1000
,
0000
0001
0000
1000
,
0000
0001
0000
1000
,
0000
0001
1000
0001
,
1001
0000
0000
0000
;

//---------------dance-single - ----------------
#NOTES:
     dance-single:
     :
     Beginner:
     2:
     0.139096,0.194735,0.063109,0.072124,0.000000,108.000000,101.000000,7.000000,8.000000,0.000000,0.000000,0.139096,0.194735,0.063109,0.072124,0.000000,108.000000,101.000000,7.000000,8.000000,0.000000,0.000000:
0000
0000
0000
0000
,
0000
0000
0000
0000
,
0000
0000
0000
0000
,
0000
0000
0000
0000
,
0000
0000
0000
0000
,
0000
0001
0000
0001
,
0000
1000
0000
1000
,
0000
0010
0000
0010
,
0000
0100
0000
0100
,
0200
0000
0300
0000
,
0020
0000
0030
0000
,
2000
0000
3000
0000
,
0002
0000
0003
0000
,
0010
0000
1000
1000
,
0001
0000
1000
1000
,
0001
0000
0100
0000
,
1001
0000
0000
0000
,
0110
0000
0000
0000
,
0200
0300
0100
0000
,
0020
0030
0010
0000
,
0001
0000
0010
0000
,
1000
0000
0100
0000
,
0002
0003
0001
0000
,
2000
3000
1000
0000
,
0010
0000
0001
0000
,
0100
0000
1000
0000
,
0001
0000
1000
0000
,
0001
0000
1000
0000
,
0010
0000
0100
0000
,
0010
0000
0100
0000
,
0010
0000
0010
0000
,
0100
0000
0100
0000
,
0001
0000
1000
0000
,
0001
0000
1000
0000
,
0000
1001
0000
1000
,
0000
1001
0000
0001
,
0000
0010
0000
0010
,
0000
0010
0100
0010
,
0000
1001
0000
0010
,
0000
0100
0000
0010
,
0000
1000
1000
1000
,
0000
0001
0001
0001
,
0000
1001
0000
0100
,
0000
1001
0000
0010
,
0000
0100
0000
0100
,
0000
0100
0010
0100
,
0000
1000
0000
0001
,
0000
1000
0000
0001
,
0000
1000
1000
1000
,
0000
0001
0001
0001
,
0000
0001
0000
1000
,
0000
0001
0000
1000
,
0000
0001
0000
1000
,
0000
0001
0000
0001
,
0001
0000
0000
0000
;

//---------------dance-double - ----------------
#NOTES:
     dance-double:
     :
     Medium:
     7:
     0.298800,0.365128,0.081140,0.108186,0.000000,232.000000,223.000000,9.000000,12.000000,0.000000,0.000000,0.298800,0.365128,0.081140,0.108186,0.000000,232.000000,223.000000,9.000000,12.000000,0.000000,0.000000:
// measure 0
00000000
00000000
00000000
00000000
,  // measure 1
00000000
00000000
00000000
00000000
,  // measure 2
00000000
00000000
00000000
00000000
,  // measure 3
00000000
00000000
00000000
00000000
,  // measure 4
00000000
00000000
00000000
00000000
,  // measure 5
00100000
00000000
00010000
00000000
01000000
00010000
00100000
00000000
,  // measure 6
10000000
00000000
01000000
00000000
10000000
00100000
01000000
00000000
,  // measure 7
00001000
00000000
00010000
00000000
00000100
00001000
00000010
00000000
,  // measure 8
00000200
00000000
00000300
00000000
00000001
00001000
00000100
00000000
,  // measure 9
00001000
00000000
00000000
00000100
00000100
00000000
00010000
00000000
,  // measure 10
00001000
00000000
00000000
00100000
00100000
00000000
00010000
01000000
,  // measure 11
10000000
00000000
00000000
00100000
00100000
00000000
10000000
01000000
,  // measure 12
00010000
00000000
01000000
00000000
00100000
10000000
01000000
00000000
,  // measure 13
20000000
00000000
30000000
00010000
00100000
00000000
00001000
00010000
,  // measure 14
00002000
00000000
00003000
00010000
00000100
00000000
00001000
00000001
,  // measure 15
00000100
00000000
00000010
00001000
00000100
00000000
00010000
00000000
,  // measure 16
00002000
00100000
00010000
00103000
,  // measure 17
00020000
00000000
01000000
00000000
10030000
00000000
00100000
01000000
,  // measure 18
00020000
00000000
00030000
00000100
00001000
00000000
00000010
00000000
,  // measure 19
00000200
00000000
00000300
00000010
,  // measure 20
00001001
00000000
00001000
00000100
00001000
00000000
00010000
00000000
,  // measure 21
00011000
00000000
00100000
00010000
00100000
00000000
01000000
00000000
,  // measure 22
00020000
00000000
00030000
10000000
01000000
00000000
10000000
00000000
,  // measure 23
00020000
00000000
00000000
00000000
00030000
00000000
00100000
00001000
,  // measure 24
00100000
00000000
00001000
00010000
00001000
00000000
00010000
00000000
,  // measure 25
00000100
00001000
00000010
00000000
00000100
00000000
00001001
00000000
,  // measure 26
00000001
00001000
00000001
00001000
,  // measure 27
00000100
00010000
00001000
01000000
,  // measure 28
00010000
10000000
00010000
10000000
,  // measure 29
00100000
00010000
00100000
00001000
,  // measure 30
00000010
00001000
00100000
00010000
,  // measure 31
00001000
00010000
00000010
00001000
,  // measure 32
00000001
00001000
00000001
00000000
00001000
00000001
00001000
00000000
,  // measure 33
00000010
00000000
00000100
00000000
,  // measure 34
00000001
00000000
00001000
00000000
00000100
00001000
00000100
00000000
,  // measure 35
00010000
00000000
00001000
00000000
01000000
00010000
01000000
00000000
,  // measure 36
00100000
00000000
10000000
00010000
00000000
00000000
10000000
00010000
,  // measure 37
00000000
00000000
10000000
01000000
00100000
00000000
00010000
00000000
,  // measure 38
00000100
00000000
00001000
00000001
00001000
00000000
00000010
00000000
,  // measure 39
00001000
00000000
00000100
00010000
00000100
00000000
00010000
00000000
,  // measure 40
00001000
01000000
00010000
01000000
,  // measure 41
00100000
00000000
10000000
01000000
10000000
00100000
10000000
00000000
,  // measure 42
00010000
00000000
00200000
00000000
00301000
00010000
00001000
00000000
,  // measure 43
00010000
00000100
00001000
00000000
00000010
00001000
00000100
00000000
,  // measure 44
00000001
00000000
00001000
00000100
00000000
00000000
00001000
00000100
,  // measure 45
00000000
00000000
00000001
00000000
00001000
00000100
00010000
00000000
,  // measure 46
00001000
00000000
00100000
00010000
01000000
00000000
10010000
00000000
,  // measure 47
00100000
00000000
10000000
01000000
00100000
00000000
00110000
00000000
,  // measure 48
00011000
00000000
00000100
00010000
00001000
00000000
00000100
00010000
,  // measure 49
00001000
00000000
00000100
00001000
00000010
00000000
00001001
00000000
,  // measure 50
00000100
00001000
00010000
00100000
,  // measure 51
10000000
01000000
00100000
00010000
,  // measure 52
00001000
00000100
00000010
00000001
,  // measure 53
00000100
00010000
00022000
00033000
,  // measure 54
00011000
00000000
00000000
00000000
;

//---------------dance-double - ----------------
#NOTES:
     dance-double:
     :
     Easy:
     4:
     0.190614,0.243419,0.108186,0.144248,0.000000,148.000000,136.000000,12.000000,16.000000,0.000000,0.000000,0.190614,0.243419,0.108186,0.144248,0.000000,148.000000,136.000000,12.000000,16.000000,0.000000,0.000000:
// measure 0
00000000
00000000
00000000
00000000
,  // measure 1
00000000
00000000
00000000
00000000
,  // measure 2
00000000
00000000
00000000
00000000
,  // measure 3
00000000
00000000
00000000
00000000
,  // measure 4
00000000
00000000
00000000
00000000
,  // measure 5
00100000
00010000
01000000
00000000
,  // measure 6
10000000
01000000
00100000
00000000
,  // measure 7
00001000
00000000
00010000
00000000
,  // measure 8
00000200
00000300
00001000
00000100
,  // measure 9
00001000
00000000
00000100
00010000
,  // measure 10
00001000
00000000
00100000
00010000
,  // measure 11
01000000
00000000
00100000
10000000
,  // measure 12
00010000
00000000
00100000
00000000
,  // measure 13
20000000
30000000
00100000
01000000
,  // measure 14
00020000
00030000
00000100
00001000
,  // measure 15
00000020
00000030
00020000
00030000
,  // measure 16
00002000
00000000
00000000
00003000
,  // measure 17
00000200
00000000
00000300
00000001
,  // measure 18
00002002
00003003
00000100
00000010
,  // measure 19
00000200
00000000
00000300
00000000
,  // measure 20
00000001
00000000
00001000
00000000
,  // measure 21
00010000
00000000
10000000
00000000
,  // measure 22
00020000
00030000
10000000
01000000
,  // measure 23
00020000
00000000
00000000
00030000
,  // measure 24
00100000
00000000
00010000
00000000
,  // measure 25
00001000
00000000
00000100
00000000
,  // measure 26
00000001
00000001
00000001
00000000
,  // measure 27
00001000
00001000
00001000
00000000
,  // measure 28
00010000
00010000
00010000
00000000
,  // measure 29
10000000
10000000
10000000
00000000
,  // measure 30
00100000
00001000
00100000
00000000
,  // measure 31
00001000
00010000
00001000
00000000
,  // measure 32
00010000
00000010
00001000
00000000
,  // measure 33
00000020
00000030
00000200
00000300
,  // measure 34
00000000
00000001
00000100
00001000
,  // measure 35
00000000
00010000
01000000
10000000
,  // measure 36
00000000
10010000
00000000
10010000
,  // measure 37
00000000
00100000
00100000
01100000
,  // measure 38
00000000
10000000
01000000
00010000
,  // measure 39
00000000
00001000
00000100
00000001
,  // measure 40
00000000
00000110
00000000
00001001
,  // measure 41
00000000
00000001
00000010
00000100
,  // measure 42
00001000
00000010
00000001
00000010
,  // measure 43
00001000
00000100
00001000
00000100
,  // measure 44
00000000
00011000
00000000
00011000
,  // measure 45
00000000
00100000
00010000
01000000
,  // measure 46
10000000
00100000
00010000
00100000
,  // measure 47
10000000
01000000
00100000
00010000
,  // measure 48
00000000
00011000
00000000
00011000
,  // measure 49
00000000
00010000
00000010
00000100
,  // measure 50
00001000
00001000
00000001
00000001
,  // measure 51
00001000
00000100
00010000
00001000
,  // measure 52
00010000
00010000
01000000
01000000
,  // measure 53
00001000
00010000
00022000
00033000
,  // measure 54
00011000
00000000
00000000
00000000
;
