#TITLE:This song doesn't make any sense;
#SUBTITLE:;
#ARTIST:STAMDS;
#TITLETRANSLIT:;
#SUBTITLETRANSLIT:;
#ARTISTTRANSLIT:;
#GENRE:;
#CREDIT:;
#MENUCOLOR:;
#METERTYPE:DDR;
#BANNER:This song doesn't make any sense.png;
#BACKGROUND:This song doesn't make any sense-bg.png;
#LYRICSPATH:;
#CDTITLE:;
#MUSIC:This song doesn't make any sense.ogg;
#OFFSET:0.000;
#SAMPLESTART:26.840;
#SAMPLELENGTH:22.580;
#SELECTABLE:YES;
#LISTSORT:;
#BPMS:0.000=175.000,16.000=200.000,44.000=175.000,116.000=380.000,244.000=175.000,252.000=195.000,316.000=200.000,318.000=250.000,320.000=270.000,322.000=300.000,324.000=340.000,326.000=370.000,332.000=132.000;
#STOPS:;
#BGCHANGES:;
#ATTACKS:;

//---------------dance-double - ----------------
#NOTES:
     dance-double:
     :
     Hard:
     15:
     0.959,1.000,0.367,0.089,0.267:
00000000
00000000
00000000
00000000
,
00000000
00000000
00000000
00000000
,
00000000
00000000
00000000
00000000
,
00000000
00000000
00000000
00000000
,
00100000
00100000
00100000
00020000
,
10030000
01000000
10000000
01000000
10000000
01000000
10000000
00100000
,
01000000
00010000
01000000
00010000
01000000
00001000
01000000
00001000
,
00010000
00001000
00010000
00001000
00010000
00000010
00010000
00000010
,
00001000
00000010
00001000
00000010
00000100
00000001
00001000
00000010
,
00001000
00000100
00001000
00000100
00010000
00000100
00010000
00000100
,
00010000
00001000
00010000
00001000
01000000
00001000
01000000
00010000
,
00200000
00300000
10010000
01000000
,
00220000
00330000
00001000
00010000
,
00002200
00003300
00001000
00000010
,
00000100
00000000
00000001
00000000
00001000
00000000
00000001
00001000
00000001
00001000
00000001
00000000
00001000
00000000
00000010
00000000
,
00001000
00000000
00000100
00000000
00010000
00000000
00000100
00010000
00000100
00010000
00000100
00000000
00010000
00000000
00001000
00000000
,
01000000
00000000
00010000
00000000
01000000
00000000
00010000
01000000
00010000
10000000
00010000
00000000
10000000
00000000
00000000
00000000
,
00100000
00000000
00010000
00000000
00100000
00000000
00010000
00000000
00100000
00000000
00001000
00000000
00010000
00001000
00010000
00001000
,
00010000
00000000
00001000
00000000
00010000
00000000
00001000
00000000
00010000
00000000
00000010
00000000
00010000
00000010
00010000
00000010
,
00001000
00000000
00000010
00000000
00001000
00000000
00000001
00000000
00000100
00000000
00000001
00000000
00000010
00000001
00000010
00000001
,
00000010
00000000
00000001
00000000
00000100
00000000
00000001
00000000
00001000
00000000
00000001
00000000
00001000
00000100
00001000
00000100
,
00001000
00000000
00000100
00000000
00010000
00000000
00001000
00000000
01000000
00000000
00010000
00000000
01000000
00010000
01000000
00010000
,
01000000
00000000
00100000
00000000
10000000
00000000
00100000
00000000
01000000
00000000
00010000
00000000
01000000
00010000
01000000
00010000
,
01000000
00000000
00100000
00000000
01000000
00000000
00001000
00000000
00010000
00000000
00001000
00000000
00010000
00001000
00010000
00001000
,
00010000
00000100
00001000
00000010
00000100
00000001
00000100
00000010
,
00000001
00000001
00000010
00000100
00001000
00010000
00001000
00000100
,
00000010
00000010
00000100
00010000
00001000
00100000
00001000
00010000
,
00000100
00000100
00010000
00001000
01000000
00010000
10000000
01000000
,
00100000
10000000
00100000
10000000
00200000
00000000
00000000
00000000
02300000
00000000
00000000
00000000
03010000
10000000
00010000
10000000
,
00010000
00100000
10000000
01000000
,
00100000
00000000
00010000
00000000
00000100
00000000
00010000
00000100
,
00010000
00000100
00001000
00000010
,
00000100
00000001
00001000
00000001
00000100
00000000
00000010
00001000
,
00000100
00000000
00001000
00000100
00001000
00000000
00000100
00000000
,
00010000
00000000
00001000
00000000
00100000
00000000
00001000
00100000
,
00001000
00100000
00010000
01000000
,
00100000
10000000
00100000
01000000
00100000
10000000
00100000
01000000
,
00100000
10000000
10010000
01000000
,
10000000
00000000
00100000
00000000
10100000
00000000
00100000
10000000
,
00100000
01000000
00010000
00100000
,
00001000
00010000
00000100
00010000
00001000
00000000
00010000
00000100
,
00010000
00000000
00000100
00001000
00000100
00000000
00001000
00000000
,
00000010
00000000
00000100
00000010
00000100
00000000
00000001
00001000
,
00000001
00000000
00001000
00000100
00001000
00000000
00000010
00000000
,
00001000
00000001
00001000
00000100
00001000
00000001
00001000
00000100
,
00001000
00000000
00000010
00000100
00000010
00000000
00001000
00000100
,
00001000
00000000
00000100
00010000
00000100
00000000
00010000
00001000
,
00010000
00000000
00001000
00010000
00001000
00000000
01000000
00001000
,
01000000
00000000
00010000
01000000
00010000
00000000
10000000
00010000
,
10000000
00000000
10000000
00100000
10000000
00000000
01000000
00100000
,
01000000
00000000
00010000
00100000
00010000
00000000
00100000
00001000
,
00010000
00000000
00010000
00000100
00001000
00000000
00001000
00000010
,
00000100
00000010
00001000
00000010
00000100
00000010
00001000
00000010
,
00000100
00000000
00000001
00000010
00000001
00000000
00000100
00000010
,
00000100
00000000
00001000
00000100
00001000
00000000
00000010
00001000
,
00000010
00000000
00010000
00000100
00010000
00000000
00001000
00010000
,
00001000
00010000
00001000
00010000
00001000
00000000
00100000
00001000
,
00100000
00000000
00010000
00100000
00010000
00000000
01000000
00100000
,
10000000
00000000
00010000
01000000
00100000
00000000
10000000
00100000
,
01000000
00010000
01000000
00100000
10000000
00100000
01000000
00010000
,
00100000
00001000
00010000
00001000
00010000
00000100
00001000
00000010
,
00000100
00000000
00000000
00000000
,
00000001
00000001
00000001
00000001
00000001
00000001
00000001
00000001
,
00000101
00000000
00000000
00000000
00001010
00000000
00000000
00000010
00000000
00001000
00000100
00000000
00001000
00000000
00000100
00000000
,
00001100
00000000
00000000
00000000
00010100
00000000
00000000
00000100
00000000
00010000
00001000
00000000
00010000
00000000
00001000
00000000
,
00101000
00000000
00000000
00000000
00110000
00000000
00000000
00010000
00000000
01000000
00010000
00000000
01000000
00000000
00100000
00000000
,
01100000
00000000
00000000
00000000
10010000
00000000
00000000
10000000
00000000
00010000
01000000
00000000
00100000
00000000
10000000
00000000
,
01000000
00000000
00100000
00000000
01000000
00000000
00100000
00000000
01000000
00010000
00000000
00010000
00100000
00000000
00010000
00000000
,
00100000
00000000
00001000
00000000
00010000
00000000
00001000
00000000
00010000
00000100
00000000
00000100
00001000
00000000
00000010
00000000
,
00000100
00000000
00000001
00000000
00001000
00000000
00000001
00000000
00001000
00000001
00000000
00000001
00001000
00000000
00000010
00000000
,
00001000
00000000
00000100
00000000
00010000
00000000
00001000
00000000
00100000
00001000
00000000
00001000
00100000
00000000
00010000
00000000
,
00110000
00000000
00000000
00000000
10010000
00000000
10000000
00000000
00010000
01000000
00000000
01000000
00010000
00000000
00100000
00000000
,
00001000
00000000
00010000
00000000
00001000
00000000
00010000
00000000
00000100
00001000
00000000
00001000
00000100
00000000
00001000
00000000
,
00000010
00000000
00000100
00000000
00000001
00000000
00001000
00000000
00000010
00001000
00000000
00000100
00001000
00000000
00000010
00000000
,
00001000
00000000
00000100
00000000
00010000
00000000
00001000
00000000
00100000
00001000
00100000
00001000
00100000
00000000
00010000
00000000
,
01010000
01010000
01010000
00000000
01100000
01100000
01100000
00000000
,
10010000
10010000
01100000
01100000
10010000
10010000
10010000
00000000
,
00000000
10000000
01000000
00000000
00100000
00010000
00001000
00000000
,
00000100
00000010
00001000
00000001
00000100
00000010
00001000
00000100
,
00001000
00000100
00001000
00000100
00010000
00000100
00010000
00000100
,
00010000
00001000
00010000
00001000
00100000
00001000
00100000
00001000
,
00100000
00010000
00100000
00010000
10000000
01000000
00100000
00010000
,
01000000
00100000
10000000
01000000
00100000
00010000
01000000
00100000
,
00000000
10010000
10010000
10010000
10010000
00000000
01100000
00000000
;

//---------------dance-double - ----------------
#NOTES:
     dance-double:
     :
     Medium:
     12:
     0.679,0.744,0.500,0.078,0.000:
00000000
00000000
00000000
00000000
,
00000000
00000000
00000000
00000000
,
00000000
00000000
00000000
00000000
,
00000000
00000000
00000000
00000000
,
00100000
00100000
00100000
10010000
,
10000000
01000000
10000000
00000000
10000000
00000000
10000000
00000000
,
00100000
00100000
00100000
10010000
,
00010000
00100000
00010000
00000000
00100000
00000000
00100000
00000000
,
00001000
00001000
00010000
00010000
,
00001000
00010000
00001000
00000000
00010000
00000100
00010000
00000000
,
00000100
00001000
00000100
00000000
00001000
00000010
00001000
00000000
,
00000002
00000003
00001001
00000100
,
00002000
00003000
00011000
00001000
,
00020000
00030000
00110000
00010000
,
01010000
00000000
10010000
00000000
10000000
01000000
00010000
00000000
,
10100000
00000000
01010000
00000000
01000000
00010000
00100000
00000000
,
00011000
00000000
00010100
00000000
00000100
00001000
00000010
00000000
,
00000110
00000000
00001001
00000000
00000001
00000000
00000001
00001000
,
00000001
00000000
00001000
00000000
00001100
00000000
00000100
00010000
,
00000100
00000000
00010000
00000000
00011000
00000000
00001000
01000000
,
00001000
01000000
01010000
00110000
,
10010000
00000000
01000000
00000000
01010000
00000000
00100000
00010000
,
00100000
00000000
00010000
00000000
00011000
00000000
00010000
00000100
,
00001000
00001100
00001010
00000101
,
00000001
00000001
00000001
00000001
00001000
00001000
00001000
00001000
,
00000010
00000010
00000100
00001000
00000100
00000000
00001000
00000000
,
00000100
00000100
00010000
00001000
00010000
00000000
00001000
00000000
,
00100000
00100000
00010000
01000000
00010000
00000000
00100000
00000000
,
10000000
00010000
02000000
00000000
03200000
00000000
10300000
00000000
,
00100000
01000000
00100000
01000000
,
00100000
00000000
01000000
00000000
00100000
00000000
00100000
10000000
,
00100000
01000000
00100000
01000000
,
00010000
01000000
00010000
00100000
,
00001000
00010000
00001000
00010000
,
00001000
00000000
00010000
00000000
00001000
00000000
00010000
00001000
,
00010000
00001000
00010000
00001000
,
00010000
00001000
00010000
00000000
00001000
00010000
00001000
00000000
,
00010000
00000100
00010000
00000100
,
00001000
00000000
00000100
00000000
00001000
00000000
00000010
00001000
,
00000010
00001000
00000001
00000100
,
00000001
00000000
00000010
00000000
00000001
00000000
00001000
00000001
,
00001000
00000001
00000100
00000001
,
00001000
00000010
00001000
00000100
,
00010000
00000000
00000100
00010000
00000100
00000000
00010000
00000000
,
00001000
00010000
00001000
01000000
,
00010000
00100000
01000000
10000000
,
10000000
00000000
01000000
00000000
00100000
00000000
00010000
10000000
,
00010000
00010000
00100000
01000000
,
00100000
00001000
00010000
00000100
,
00001000
00000100
00001000
00000000
00000010
00000000
00000100
00000000
,
00000001
00000000
00000010
00000000
00000100
00000000
00001000
00000100
,
00001000
00000000
00000100
00000000
00010000
00000000
00001000
00010000
,
00001000
00000000
00010000
00001000
00010000
00000000
00001000
00000000
,
01000000
00100000
10000000
00100000
,
01000000
00010000
00100000
00010000
,
00100000
00001000
00010000
00001000
,
00010000
00000100
00001000
00000100
,
00001000
00000000
00000010
00001000
00000010
00000000
00001000
00000000
,
00000001
00000100
00000010
00001000
,
00000100
00000000
00010000
00000100
00010000
00000000
00000100
00000000
,
00010000
00001000
01000000
00010000
,
20000000
00000000
00000000
30000000
,
00100000
00100000
00100000
00100000
00100000
00100000
00100000
00000000
,
10010000
00000000
01100000
00000000
01000000
01000000
01000000
00000000
,
01100000
00000000
10010000
00000000
00100000
00100000
00100000
00000000
,
00110000
00000000
00011000
00000000
00001000
00010000
00001000
00000000
,
00011000
00000000
00001100
00000000
00001000
00000100
00001000
00000000
,
00000110
00000000
00001001
00000000
00000010
00000010
00000010
00000000
,
00001001
00000000
00000110
00000000
00000100
00000100
00000100
00000000
,
00000011
00000000
00001100
00000000
00001000
00001000
00001000
00000000
,
00011000
00000000
00110000
00000000
00100000
00100000
00100000
00000000
,
01010000
00000000
00000000
10000000
01000000
00100000
00010000
00000000
,
00110000
00000000
00000000
00100000
00010000
00001000
00000100
00000000
,
00001100
00000000
00000000
00001000
00000100
00000010
00000001
00000000
,
00001001
00000000
00001100
00000000
00000001
00000010
00000100
00000000
,
00000010
00000010
00000010
00000000
00001000
00001000
00001000
00000000
,
00000100
00000100
00000100
00000010
00000010
00000010
00000010
00000000
,
00000000
00000001
00000001
00000000
00000000
00000010
00000010
00000000
,
00000001
00000010
00000100
00001000
,
00010000
00100000
01000000
10000000
,
01000000
00100000
00010000
00001000
,
00010000
00001000
00010000
00001000
,
00010000
00001000
00010000
00001000
00010000
00001000
00010000
00001000
,
00000000
00020000
00000000
00000000
00031000
00000000
00011000
00000000
;

//---------------dance-double - ----------------
#NOTES:
     dance-double:
     :
     Easy:
     7:
     0.473,0.744,0.667,0.211,0.000:
00000000
00000000
00000000
00000000
,
00000000
00000000
00000000
00000000
,
00000000
00000000
00000000
00000000
,
00000000
00000000
00000000
00000000
,
00010000
00010000
00010000
00010000
,
10010000
01000000
00100000
01000000
,
00010000
00010000
00020000
00030000
,
00001000
00001000
00002000
00003000
,
00000010
00000010
00000020
00000030
,
00000100
00000001
00000100
00000001
,
00001000
00000100
00001000
00000100
,
00002002
00003003
00000110
00000000
,
00002200
00003300
00001100
00000000
,
00022000
00033000
00011000
00000000
,
00100000
00010000
01000000
10000000
,
00100000
00010000
01000000
10000000
,
00100000
10000000
01000000
00010000
,
00110000
00110000
00011000
00000000
,
00011000
00011000
00001100
00000000
,
00001010
00001010
00000101
00000000
,
00000110
00000110
00001001
00000000
,
00001100
00001100
00011000
00000000
,
00011000
00011000
00110000
00000000
,
01100000
01100000
10010000
00000000
,
01100000
01100000
01100000
01100000
,
20020000
30030000
00100000
00010000
,
00022000
00033000
00001000
00000100
,
00002002
00003003
00000010
00000001
,
00000100
00002020
00003030
00000100
,
00001000
00000000
00000010
00000000
,
00001000
00000000
00000010
00000000
,
00001000
00000000
00000100
00000000
,
00001000
00000000
00000100
00000000
,
00010000
00000000
00001000
00000000
,
00010000
00000000
00001000
00000000
,
00100000
00000000
00010000
00000000
,
00100000
00100000
00100000
00000000
,
00010000
00000000
01000000
00000000
,
00010000
00000000
10000000
00000000
,
00010000
00000000
01000000
00000000
,
00010000
00000000
00100000
00000000
,
00001000
00000000
00010000
00000000
,
00001000
00000000
00010000
00000000
,
00000100
00000000
00001000
00000000
,
00000010
00000000
00000001
00000000
,
00000100
00000000
00000100
00000000
,
00000010
00000000
00001001
00000000
,
00000010
00000000
00000100
00000000
,
00001000
00000000
00001100
00000000
,
00000100
00000000
00010000
00000000
,
00001000
00000000
00011000
00000000
,
00010000
00000000
00001000
00000000
,
01000000
00000000
01010000
00000000
,
00100000
00000000
00100000
00000000
,
10000000
00000000
10010000
00000000
,
00100000
00000000
00100000
00000000
,
00010000
00000000
01010000
00000000
,
01000000
00000000
00001000
00000000
,
00010000
00000000
00000100
00000000
,
00001000
00000000
00000010
00000000
,
00000001
00000000
00000100
00000000
,
00002002
00000000
00003003
00000000
,
00000010
00000010
00000010
00000010
,
00000001
00000001
00001000
00001000
,
00000001
00001000
00000001
00001000
,
00000100
00000100
00000010
00000010
,
00010000
00010000
00010000
00010000
,
00001000
00001000
00010000
00010000
,
00001000
00010000
00001000
00010000
,
00000100
00001000
01000000
00010000
,
00001000
01000000
00010000
10000000
,
00100000
00000000
10010000
01100000
,
10010000
00000000
01100000
10010000
,
01100000
00000000
01100000
00000000
,
00010000
00001000
00010000
00000000
,
00001100
00001100
00001100
00001100
,
00000101
00000101
00001100
00001100
,
00000001
00000100
00001000
00000000
,
00010000
00100000
10000000
00000000
,
10000000
00000000
01000000
00000000
,
00010000
00000000
00001000
00000000
,
00000100
00000000
00000001
00000000
,
00000010
00000010
00000010
00000010
,
00000000
00000000
00000110
00001001
;

//---------------dance-single - ----------------
#NOTES:
     dance-single:
     :
     Beginner:
     4:
     0.246,0.326,0.022,0.200,0.000:
0000
0000
0000
0000
,
0000
0000
0000
0000
,
0000
0000
0000
0000
,
0000
0000
0000
0000
,
0010
0010
0010
0010
,
0010
0000
0000
0000
,
0200
0000
0300
0000
,
0200
0000
0300
0000
,
0200
0000
0300
0000
,
0001
0001
0001
0001
,
0002
0000
0003
0000
,
1000
0000
0000
0000
,
0001
0000
0000
0000
,
1000
0000
0000
0000
,
0001
0000
0001
0000
,
0001
0000
0001
0000
,
1000
0000
1000
0000
,
2000
0000
3000
0000
,
0200
0000
0300
0000
,
0020
0000
0030
0000
,
0002
0000
0003
0000
,
0020
0000
0030
0000
,
0002
0000
0003
0000
,
0020
0000
0030
0000
,
0100
0100
0100
0000
,
0002
0000
0003
0000
,
0020
0000
0030
0000
,
2000
0000
3000
0000
,
0100
0200
0300
0000
,
0010
0000
0000
0000
,
0010
0000
0000
0000
,
0100
0000
0000
0000
,
0100
0000
0000
0000
,
0010
0000
0010
0000
,
0010
0000
0000
0000
,
0100
0000
0100
0000
,
0100
0000
0000
0000
,
0001
0000
0000
0000
,
0001
0000
0000
0000
,
1000
0000
0000
0000
,
1000
0000
0000
0000
,
0001
0000
0001
0000
,
0001
0000
0000
0000
,
1000
0000
1000
0000
,
1000
0000
0000
0000
,
0010
0000
0000
0000
,
0100
0000
0000
0000
,
0001
0000
0001
0000
,
0001
0000
0000
0000
,
0100
0000
0000
0000
,
0010
0000
0000
0000
,
1000
0000
1000
0000
,
1000
0000
0000
0000
,
0001
0000
0001
0000
,
1000
0000
1000
0000
,
0001
0000
0001
0000
,
1000
0000
1000
0000
,
0001
0000
1000
0000
,
0001
0000
1000
0000
,
0001
0000
0001
0000
,
1000
0000
1000
0000
,
1001
0000
0000
0000
,
0020
0000
0030
0000
,
0100
0100
0100
0000
,
0001
0001
0001
0000
,
0010
0010
0010
0000
,
1000
1000
1000
0000
,
0100
0000
0001
0000
,
0010
0000
1000
0000
,
0100
0000
1000
0000
,
0010
0000
0001
0000
,
0100
0000
1000
1000
,
1000
0000
0010
0010
,
0010
0000
0001
0000
,
0100
0000
1000
0000
,
0010
0010
0010
0010
,
0010
0000
0100
0100
,
0000
0001
0000
1000
,
0000
0010
0010
0000
,
0100
0000
0100
0000
,
0100
0000
0100
0000
,
0100
0000
0100
0000
,
0100
0000
0100
0000
,
0000
0000
0220
0330
;

//---------------dance-single - ----------------
#NOTES:
     dance-single:
     :
     Hard:
     15:
     0.952,1.000,0.367,0.089,0.267:
0000
0000
0000
0000
,
0000
0000
0000
0000
,
0000
0000
0000
0000
,
0000
0000
0000
0000
,
0010
0010
0010
0002
,
1003
0100
1000
0100
1000
0100
1000
0010
,
0100
0001
0100
0001
1000
0010
1000
0001
,
1000
0001
1000
0001
1000
0010
1000
0010
,
1000
0010
1000
0010
0100
0001
1000
0010
,
1000
0100
1000
0100
1000
0010
1000
0010
,
1000
0001
1000
0001
0100
0010
0100
0000
,
0020
0030
1001
0100
,
0022
0033
1000
0001
,
2200
3300
1000
0010
,
0100
0000
0001
0000
1000
0000
0001
1000
0001
1000
0001
0000
1000
0000
0010
0000
,
1000
0000
0000
0000
0001
0000
0100
0001
0100
0001
0100
0000
0001
0000
1000
0000
,
0100
0000
0000
0000
1000
0000
0001
1000
0001
1000
0001
0000
1000
0000
0000
0000
,
0010
0000
1000
0000
0010
0000
1000
0000
0010
0000
1000
0000
0001
1000
0001
1000
,
0001
0000
1000
0000
0001
0000
1000
0000
0001
0000
0010
0000
0001
0010
0001
0010
,
0001
0000
0010
0000
0001
0000
0010
0000
0001
0000
0100
0000
0001
0100
0001
0100
,
0001
0000
0100
0000
0001
0000
1000
0000
0001
0000
1000
0000
0100
1000
0100
1000
,
0100
0000
1000
0000
0010
0000
1000
0000
0100
0000
1000
0000
0010
1000
0010
1000
,
0010
0000
1000
0000
0010
0000
0100
0000
0001
0000
0100
0000
0001
0100
0001
0100
,
0001
0000
0010
0000
0100
0000
1000
0000
0001
0000
1000
0000
0001
1000
0001
1000
,
0001
0100
1000
0010
0100
0001
0100
0010
,
0001
0001
0010
0100
1000
0001
1000
0100
,
0010
0010
0100
1000
0001
1000
0010
1000
,
0100
0100
1000
0010
0100
0001
0100
0010
,
1000
0010
1000
0010
2000
0000
0000
0000
3200
0000
0000
0000
1300
0001
1000
0001
,
1000
0010
1000
0100
,
0010
0000
0001
0000
0100
0000
0001
0100
,
0001
0100
1000
0010
,
0100
0001
1000
0001
0100
0000
0010
1000
,
0100
0000
1000
0100
1000
0000
0100
0000
,
0001
0000
1000
0000
0010
0000
1000
0010
,
1000
0010
0001
0100
,
0010
1000
0010
0100
0010
1000
0010
0100
,
0010
1000
1001
0100
,
1000
0000
0010
0000
1010
0000
0010
1000
,
0010
0100
0001
0010
,
1000
0001
0100
0001
1000
0000
0001
0100
,
0001
0000
0100
1000
0100
0000
1000
0000
,
0010
0000
0100
0010
0100
0000
0001
1000
,
0001
0000
1000
0100
1000
0000
0010
0000
,
1000
0001
1000
0100
1000
0001
1000
0100
,
1000
0000
0010
0100
0010
0000
1000
0100
,
1000
0000
0100
0001
0100
0000
0001
1000
,
0001
0000
1000
0001
1000
0000
0100
1000
,
0100
0000
0001
0100
0001
0000
1000
0001
,
1000
0000
1000
0010
1000
0000
0100
0010
,
0100
0000
0001
0010
0001
0000
0010
0001
,
0010
0000
0001
1000
0001
0000
1000
0010
,
0100
0010
1000
0010
0100
0010
1000
0010
,
0100
0000
0001
0010
0001
0000
0100
0010
,
0100
0000
1000
0100
1000
0000
0010
1000
,
0010
0000
0001
0100
0001
0000
1000
0001
,
1000
0001
1000
0001
1000
0000
0010
1000
,
0010
0000
0001
0010
0001
0000
0100
0010
,
1000
0000
0001
0100
0010
0000
1000
0010
,
0100
0001
0100
0010
1000
0010
0100
0001
,
0010
0001
1000
0001
1000
0001
1000
0001
,
0100
0000
0000
0000
,
0001
0001
0001
0001
0001
0001
0001
0001
,
0101
0000
0000
0000
1010
0000
0000
0010
0000
1000
0100
0000
1000
0000
0100
0000
,
1100
0000
0000
0000
0101
0000
0000
0100
0000
0001
1000
0000
0001
0000
1000
0000
,
1010
0000
0000
0000
0011
0000
0000
0001
0000
0100
0001
0000
0100
0000
0010
0000
,
0110
0000
0000
0000
1001
0000
0000
1000
0000
0001
0100
0000
0010
0000
1000
0000
,
0100
0000
1000
0000
0100
0000
1000
0000
0100
1000
0000
1000
0010
0000
0100
0000
,
0010
0000
1000
0000
0001
0000
1000
0000
0001
0100
0000
0100
0001
0000
0010
0000
,
0001
0000
0100
0000
0010
0000
1000
0000
0010
1000
0000
0010
1000
0000
0010
0000
,
1000
0000
0100
0000
1000
0000
0010
0000
1000
0010
0000
1000
0010
0000
1000
0000
,
1001
0000
0000
0000
1001
0000
0000
0000
0001
0100
0000
0100
0001
0000
0010
0000
,
0001
0000
1000
0000
0001
0000
1000
0000
0001
1000
0000
1000
0001
0000
1000
0000
,
0010
0000
0100
0000
0001
0000
1000
0000
0010
1000
0000
0100
1000
0000
0010
0000
,
1000
0000
0100
0000
1000
0000
0010
0000
1000
0010
1000
0010
1000
0000
0001
0000
,
0101
0101
0101
0000
0110
0110
0110
0000
,
1001
1001
0110
0110
1001
1001
1001
0000
,
0000
1000
0100
0000
0010
0001
1000
0000
,
0100
0010
1000
0001
0100
0010
1000
0100
,
1000
0100
1000
0100
1000
0010
1000
0010
,
1000
0001
1000
0001
0100
0010
0100
0010
,
1000
0100
0010
0001
0100
0010
1000
0100
,
0010
0001
0100
0010
0100
0010
0100
0010
,
0000
1001
1001
1001
1001
0000
0110
0000
;

//---------------dance-single - ----------------
#NOTES:
     dance-single:
     :
     Medium:
     12:
     0.676,0.744,0.500,0.078,0.000: // measure 1
0000
0000
0000
0000
,  // measure 2
0000
0000
0000
0000
,  // measure 3
0000
0000
0000
0000
,  // measure 4
0000
0000
0000
0000
,  // measure 5
0010
0010
0010
1001
,  // measure 6
1000
0100
1000
0000
1000
0000
1000
0000
,  // measure 7
0010
0010
0010
1001
,  // measure 8
0001
0010
0001
0000
0010
0000
0010
0000
,  // measure 9
1000
1000
0001
0001
,  // measure 10
1000
0001
1000
0000
0001
0100
0001
0000
,  // measure 11
0100
1000
0100
0000
1000
0010
1000
0000
,  // measure 12
0002
0003
1001
0100
,  // measure 13
2000
3000
1001
1000
,  // measure 14
0002
0003
0011
0001
,  // measure 15
0101
0000
1001
0000
1000
0100
0001
0000
,  // measure 16
1010
0000
0101
0000
0100
0001
0010
0000
,  // measure 17
1001
0000
0101
0000
0100
1000
0010
0000
,  // measure 18
0110
0000
1001
0000
0001
0000
0001
1000
,  // measure 19
0001
0000
1000
0000
1100
0000
0100
0001
,  // measure 20
0100
0000
0001
0000
1001
0000
1000
0100
,  // measure 21
1000
0100
0101
0011
,  // measure 22
1001
0000
0100
0000
0101
0000
0010
0001
,  // measure 23
0010
0000
0001
0000
1001
0000
0001
0100
,  // measure 24
1000
1100
1010
0101
,  // measure 25
0001
0001
0001
0001
1000
1000
1000
1000
,  // measure 26
0010
0010
0100
1000
0100
0000
1000
0000
,  // measure 27
0100
0100
0001
1000
0001
0000
1000
0000
,  // measure 28
0010
0010
0001
0100
0001
0000
0010
0000
,  // measure 29
1000
0001
0200
0000
0320
0000
1030
0000
,  // measure 30
0010
0100
0010
0100
,  // measure 31
0010
0000
0100
0000
0010
0000
0010
1000
,  // measure 32
0010
0100
0010
0100
,  // measure 33
0001
0100
0001
0010
,  // measure 34
1000
0001
1000
0001
,  // measure 35
1000
0000
0001
0000
1000
0000
0001
1000
,  // measure 36
0001
1000
0001
1000
,  // measure 37
0001
1000
0001
0000
1000
0001
1000
0000
,  // measure 38
0001
0100
0001
0100
,  // measure 39
1000
0000
0001
0000
1000
0000
0010
1000
,  // measure 40
0010
1000
0001
0100
,  // measure 41
0001
0000
0010
0000
0001
0000
1000
0001
,  // measure 42
1000
0001
0100
0001
,  // measure 43
1000
0010
1000
0100
,  // measure 44
1000
0100
1000
0001
,  // measure 45
1000
0001
1000
0100
,  // measure 46
0001
0010
0100
1000
,  // measure 47
1000
0100
0010
0001
,  // measure 48
0001
0001
0010
0100
,  // measure 49
0010
1000
0001
0100
,  // measure 50
1000
0100
1000
0000
0010
0000
0100
0000
,  // measure 51
0001
0000
0010
0000
0100
0000
1000
0100
,  // measure 52
1000
0000
0100
0000
0001
0000
1000
0001
,  // measure 53
1000
0000
0001
1000
0001
0000
1000
0000
,  // measure 54
0100
0010
1000
0010
,  // measure 55
0100
0001
0010
0001
,  // measure 56
0010
1000
0001
1000
,  // measure 57
0001
0100
1000
0100
,  // measure 58
1000
0000
0010
1000
0010
0000
1000
0000
,  // measure 59
0001
0100
0010
1000
,  // measure 60
0100
0000
0001
0100
0001
0000
0100
0000
,  // measure 61
0001
1000
0100
0001
,  // measure 62
2000
0000
0000
3000
,  // measure 63
0010
0010
0010
0010
0010
0010
0010
0000
,  // measure 64
1001
0000
0110
0000
0100
0100
0100
0000
,  // measure 65
0110
0000
1001
0000
0010
0010
0010
0000
,  // measure 66
0011
0000
1001
0000
1000
0001
1000
0000
,  // measure 67
1001
0000
1100
0000
1000
0100
1000
0000
,  // measure 68
0110
0000
1001
0000
0010
0010
0010
0000
,  // measure 69
1001
0000
0110
0000
0100
0100
0100
0000
,  // measure 70
0011
0000
1100
0000
1000
1000
1000
0000
,  // measure 71
1001
0000
0011
0000
0010
0010
0010
0000
,  // measure 72
0101
0000
0000
1000
0100
0010
0001
0000
,  // measure 73
0011
0000
0000
0010
0001
1000
0100
0000
,  // measure 74
1100
0000
0000
1000
0100
0010
0001
0000
,  // measure 75
1001
0000
1100
0000
0001
0010
0100
0000
,  // measure 76
0010
0010
0010
0000
1000
1000
1000
0000
,  // measure 77
0100
0100
0100
0010
0010
0010
0010
0000
,  // measure 78
0000
0001
0001
0000
0000
0010
0010
0000
,  // measure 79
0001
0010
0100
1000
,  // measure 80
0001
0010
0100
1000
,  // measure 81
0100
0010
0001
1000
,  // measure 82
0001
1000
0001
1000
,  // measure 83
0001
1000
0001
1000
0001
1000
0001
1000
,  // measure 84
0000
0002
0000
0000
1003
0000
1001
0000
;

//---------------dance-single - ----------------
#NOTES:
     dance-single:
     :
     Easy:
     7:
     0.473,0.744,0.667,0.211,0.000:
0000
0000
0000
0000
,
0000
0000
0000
0000
,
0000
0000
0000
0000
,
0000
0000
0000
0000
,
0001
0001
0001
0001
,
1001
0100
0010
0100
,
0001
0001
0002
0003
,
1000
1000
2000
3000
,
0010
0010
0020
0030
,
0100
0001
0100
0001
,
1000
0100
1000
0100
,
2002
3003
0110
0000
,
2200
3300
1100
0000
,
2002
3003
1001
0000
,
0010
0001
0100
1000
,
0010
0001
0100
1000
,
0010
1000
0100
0001
,
0011
0011
1001
0000
,
1001
1001
1100
0000
,
1010
1010
0101
0000
,
0110
0110
1001
0000
,
1100
1100
1001
0000
,
1001
1001
0011
0000
,
0110
0110
1001
0000
,
0110
0110
0110
0110
,
2002
3003
0010
0001
,
2002
3003
1000
0100
,
2002
3003
0010
0001
,
0100
2020
3030
0100
,
1000
0000
0010
0000
,
1000
0000
0010
0000
,
1000
0000
0100
0000
,
1000
0000
0100
0000
,
0001
0000
1000
0000
,
0001
0000
1000
0000
,
0010
0000
0001
0000
,
0010
0010
0010
0000
,
0001
0000
0100
0000
,
0001
0000
1000
0000
,
0001
0000
0100
0000
,
0001
0000
0010
0000
,
1000
0000
0001
0000
,
1000
0000
0001
0000
,
0100
0000
1000
0000
,
0010
0000
0001
0000
,
0100
0000
0100
0000
,
0010
0000
1001
0000
,
0010
0000
0100
0000
,
1000
0000
1100
0000
,
0100
0000
0001
0000
,
1000
0000
1001
0000
,
0001
0000
1000
0000
,
0100
0000
0101
0000
,
0010
0000
0010
0000
,
1000
0000
1001
0000
,
0010
0000
0010
0000
,
0001
0000
0101
0000
,
0100
0000
1000
0000
,
0001
0000
0100
0000
,
1000
0000
0010
0000
,
0001
0000
0100
0000
,
2002
0000
3003
0000
,
0010
0010
0010
0010
,
0001
0001
1000
1000
,
0001
1000
0001
1000
,
0100
0100
0010
0010
,
0001
0001
0001
0001
,
1000
1000
0001
0001
,
1000
0001
1000
0001
,
0100
1000
0100
0001
,
1000
0100
0001
1000
,
0010
0000
1001
0110
,
1001
0000
0110
1001
,
0110
0000
0110
0000
,
0001
1000
0001
0000
,
1100
1100
1100
1100
,
0101
0101
1100
1100
,
0001
0100
1000
0000
,
0001
0010
1000
0000
,
1000
0000
0100
0000
,
0001
0000
1000
0000
,
0100
0000
0001
0000
,
0010
0010
0010
0010
,
0000
0000
0110
1001
;
