#TITLE:This Time;
#SUBTITLE:(From Shadows Part II);
#ARTIST:Jeff Williams and Casey Lee Williams;
#TITLETRANSLIT:;
#SUBTITLETRANSLIT:;
#ARTISTTRANSLIT:;
#GENRE:;
#CREDIT:;
#BANNER:This Time (From Shadows Part II).png;
#BACKGROUND:This Time (From Shadows Part II)-bg.png;
#LYRICSPATH:;
#CDTITLE:;
#MUSIC:This Time (From Shadows Part II).ogg;
#OFFSET:-0.253501;
#SAMPLESTART:54.682190;
#SAMPLELENGTH:13.180000;
#SELECTABLE:YES;
#BPMS:0.000000=140.000000;
#STOPS:;
#BGCHANGES:;
#KEYSOUNDS:;
#ATTACKS:;

//---------------dance-single - ----------------
#NOTES:
     dance-single:
     :
     Challenge:
     14:
     0.745088,0.716685,0.118369,0.036990,0.695415,705.000000,689.000000,16.000000,5.000000,0.000000,0.000000,0.745088,0.716685,0.118369,0.036990,0.695415,705.000000,689.000000,16.000000,5.000000,0.000000,0.000000:
0000
0000
0000
0000
,
0000
0000
0000
0000
,
0000
0000
0000
0000
,
0000
0000
0000
0000
,
0010
1000
0010
1000
0010
0100
0010
0100
,
0001
0100
0001
0100
0001
0010
0001
1000
,
0010
1000
0100
1000
0010
1000
0100
1000
,
0001
0000
0100
0001
0000
0100
0001
0000
1000
0000
0010
1000
0010
1000
0010
0000
,
0001
0000
0100
0001
0000
0001
0100
0000
0010
0000
1000
0010
0000
0010
1000
0000
,
0001
0000
0100
0010
0000
0010
0100
0000
0001
0000
1000
0010
0000
0010
1000
0000
,
0001
0000
0100
0010
0000
0010
0100
0000
0001
0000
1000
0100
0000
0100
1000
0000
,
0001
0000
1000
0010
0000
0010
1000
0000
0001
0000
0100
0010
0100
0000
0001
0000
,
1000
0000
0001
0100
0000
0100
0010
0000
0100
0000
0001
1000
0000
1000
0001
0000
,
0010
0000
1000
0100
0000
0100
1000
0000
0010
0000
0100
0001
0000
0001
0100
0000
,
0010
0000
1000
0100
0000
0100
1000
0000
0010
0000
0100
0001
0000
0001
0100
0000
,
0010
0000
1000
0100
0000
0010
0001
0000
0100
0010
0100
0010
1000
0001
1000
0001
,
1000
0000
0001
0100
0001
0000
1000
0000
0010
0000
0100
0010
0100
0000
0001
0000
,
1000
0000
0100
1000
0100
0000
1000
0000
0010
0000
0100
0001
0000
0001
0100
0000
,
0010
0000
1000
0100
1000
0000
0001
0000
0100
0000
0010
0100
0010
0000
0100
0000
,
0001
0000
1000
0010
1000
0000
0001
0000
0100
0000
0001
1000
0001
0000
0100
0000
,
0020
1000
0130
1000
0020
0100
0031
0100
,
0002
0000
1000
0000
0103
0000
1000
0000
0010
0000
1000
0010
0000
0010
1000
0000
,
0002
0000
0000
0000
0100
0000
0000
0000
1000
0000
0000
0100
0000
0000
0013
0000
,
0001
0000
0100
0000
0010
0000
1000
0000
0010
0000
0100
0001
0100
0000
0010
0000
,
1000
0000
0100
0000
0000
1000
0001
0000
0100
0000
0000
1001
0000
0000
1000
0000
,
0010
0000
1000
0010
1000
0000
0001
0100
0001
0000
1000
0000
0010
0000
1000
0000
,
0001
0000
0100
0001
0100
0000
0001
0000
1000
0000
0001
1000
0001
0000
0010
0000
,
1000
0000
0001
1000
0001
0000
0100
0000
0001
1000
0001
0000
0100
0000
0000
0000
,
0001
0000
0100
0001
0100
0000
0010
0000
1000
0000
0010
1000
0010
0000
0001
0100
,
0001
0000
0000
1000
0000
0000
0100
0000
1000
0000
0000
0001
0000
0100
0000
0000
,
0001
0000
1000
0001
1000
0000
0010
0000
1000
0000
0010
0100
0010
0000
0001
1000
,
0002
0000
0000
1000
0000
0000
1000
0000
1003
0000
0000
0000
1100
0000
0000
0000
,
0010
0000
0001
0100
0001
0000
1000
0100
1000
0000
0010
0000
0100
0000
0001
0000
,
1000
0000
0100
1000
0100
0000
0001
0100
0001
0000
0100
0000
0010
0000
1000
0000
,
0100
0000
1000
0100
1000
0000
0001
0100
0001
0000
0100
0000
0010
0000
1000
0000
,
0001
0100
0001
0100
0001
0000
1000
0000
0100
1000
0100
1000
0100
0000
1000
0000
,
0010
0000
0100
0001
0100
0000
0001
1000
0001
0000
1000
0000
0010
0000
0100
0000
,
0001
0000
1000
0100
1000
0000
0001
0100
0001
0000
1000
0000
0010
0000
0100
0000
,
0001
0000
1000
0100
1000
0000
0001
0000
0100
0000
0010
0100
0010
0000
1000
0000
,
0001
0000
0100
0000
0010
0000
1000
0000
0001
1000
0001
0000
0100
0000
0010
0000
,
1000
0000
0001
0100
0000
0100
0001
0000
1000
0010
1000
0000
0010
0000
0100
0000
,
0001
0000
1000
0100
0000
0100
1000
0000
0010
0100
0001
0000
0100
0000
0010
0000
,
1000
0000
0100
1000
0000
1000
0100
0000
1000
0010
0100
0000
0100
0000
0001
0000
,
1000
0000
0001
1000
0000
1000
0001
0000
0100
0001
0100
0000
0010
1000
0010
0000
,
0100
0000
0001
0100
0000
0100
0010
0000
1000
0010
0000
0010
0100
0000
0001
0000
,
0100
0000
0001
1000
0000
1000
0100
0000
1000
0010
0000
0010
0100
0000
0001
0000
,
1000
0000
0100
1000
0000
1000
0100
0000
1000
0001
0000
0001
1000
0000
0010
0000
,
0100
0000
0001
0100
0000
0100
0001
0000
0100
0010
0000
0010
0100
0000
0001
0000
,
1000
0000
0100
1000
0100
0000
1000
0000
0001
0000
0100
0001
0100
0000
0010
0000
,
1000
0000
0100
1000
0100
0000
1000
0000
0001
0100
0000
0100
0001
0000
0100
0000
,
0010
0000
0000
1000
0000
0000
0001
0000
1000
0000
0001
0100
0001
0000
1000
0000
,
0010
0000
0100
0010
0000
0010
0100
0000
0001
0100
0001
0000
1000
0000
0000
0000
,
1001
0000
0000
0100
0000
0000
0010
0000
1001
0000
0000
0100
0000
0000
0010
0000
,
1001
0000
0000
0100
0000
0000
0010
0000
1001
0000
0000
0000
0110
0000
0000
0000
,
0000
0000
0001
1000
0001
0100
0001
0000
1000
0001
1000
0001
1000
0000
0001
0000
,
1000
0100
1000
0000
0001
0100
0001
0000
1000
0010
1000
0000
0001
0000
0100
0000
,
0010
1000
0010
0000
0100
0010
0100
0000
0001
0100
0001
0000
1000
0000
0010
0000
,
0100
0001
0100
0000
0010
0100
0010
0000
0100
0000
0010
0000
1000
0000
0001
0000
,
0100
0000
0001
0100
0001
0000
0100
0010
0100
0000
0010
0000
1000
0000
0100
0000
,
1000
0000
0001
1000
0001
0000
1000
0010
1000
0000
0010
0000
0100
0000
0001
0000
,
1000
0000
0001
1000
0001
0000
1000
0001
1000
0000
0010
1000
0010
0000
0100
0010
,
0100
0000
0001
0100
0001
0000
0100
0001
0100
0000
0010
0000
0100
0000
0001
0000
,
1000
0000
0000
0000
0100
0000
1000
0000
0001
0000
0100
0010
0100
0000
0001
0000
,
1000
0000
0010
1000
0010
0000
1000
0000
0010
0000
0100
0010
0100
0000
0010
0000
,
0100
0001
0100
0000
0010
1000
0010
0000
0100
0010
0100
0000
0010
0100
0010
0000
,
1000
0001
1000
0000
0001
1000
0001
0000
1000
0000
0100
0000
0010
0000
0001
0000
,
0100
0001
0000
0001
0100
0000
0010
0000
1000
0010
0000
0010
1000
0000
0010
0000
,
1000
0010
0000
0010
1000
0000
0001
0000
0100
0000
0010
0000
1001
0000
0000
0000
,
1000
0010
0000
0010
0100
0000
0001
0000
0100
0010
0000
0010
1000
0000
0010
0000
,
0100
0001
0000
0001
1000
0000
0010
0000
0100
0010
0100
0010
0100
0000
0001
0000
,
1000
0100
0000
0100
1000
0000
0010
0000
0001
0100
0000
0100
0001
0000
0100
0000
,
1000
0001
0000
0001
0100
0000
0001
0000
1000
0000
0100
0000
0010
0000
0001
0000
,
1000
0000
0000
0001
0000
0000
0010
0000
0001
1000
0001
0000
1000
0000
0010
0000
,
1000
0100
1000
0000
0010
0000
0100
0000
0001
0100
0001
0000
0100
0000
0010
0000
,
1001
0000
0000
0100
0000
0000
0010
0000
1001
0000
0000
0100
0000
0000
0010
0000
,
1001
0000
0000
0100
0000
0000
0010
0000
1001
0000
0000
0000
0000
0000
0000
0000
,
0011
0000
0000
0010
0000
0000
1000
0000
1100
0000
0000
1000
0000
0000
0010
0000
,
0110
0000
0000
1000
0000
0000
0001
0000
1001
0000
0000
0000
0000
0000
0000
0000
;

//---------------dance-single - ----------------
#NOTES:
     dance-single:
     :
     Hard:
     12:
     0.502010,0.487346,0.170155,0.103573,0.277426,475.000000,452.000000,23.000000,14.000000,0.000000,0.000000,0.502010,0.487346,0.170155,0.103573,0.277426,475.000000,452.000000,23.000000,14.000000,0.000000,0.000000:
0000
0000
0000
0000
,
0000
0000
0000
0000
,
0000
0000
0000
0000
,
0000
0000
0000
0000
,
0001
0100
1000
0100
,
0001
0010
1000
0010
,
0001
0100
0010
1000
,
0010
0000
0000
1000
0000
0000
0010
0000
0200
0000
0000
0000
0310
0000
0000
0000
,
0001
1000
0001
1000
0010
1000
0010
1000
,
0001
1000
0001
1000
0001
0100
0001
0100
,
0001
1000
0010
1000
0001
1000
0100
1000
,
0001
0010
0100
0010
0001
1000
0100
0000
,
1000
0010
1000
0010
0100
0001
0100
0001
,
0010
1000
0010
1000
0001
1000
0001
1000
,
0010
0100
0010
1000
0001
0100
0010
0100
,
0001
1000
0010
1000
0100
1000
0001
0000
,
1000
0010
1000
0010
0100
0001
0100
0001
,
1000
0100
1000
0100
0010
0001
0010
0001
,
0100
0010
0100
0010
1000
0001
1000
0001
,
1000
0100
0010
0001
0100
0010
1000
0001
,
0100
0010
0100
0010
1000
0100
1000
0100
,
1000
0000
0010
0000
0100
0000
0010
0000
1000
0000
0000
1000
0000
0000
0100
0000
,
0002
0000
0000
0000
0000
0000
0000
0000
1003
0000
0000
1000
0000
0000
0010
0000
,
0100
0000
0010
1000
0010
0000
1001
0000
,
0010
0000
0000
1000
0000
0000
0010
0000
0100
0000
0000
0001
0000
0000
0100
0000
,
0010
1100
0101
1001
,
0010
0000
0000
1000
0000
0000
0100
0000
1000
0000
0000
0010
0000
0000
0100
0000
,
0001
0000
0000
0100
0000
0000
0001
1000
0001
0000
0000
0000
1100
0000
0000
0000
,
0001
0000
0000
0001
0000
0000
0010
0000
1000
0000
0000
1000
0000
0000
0010
0000
,
0001
0000
0000
0010
0000
0000
1000
0000
1000
0000
0000
0010
0000
0100
0000
0000
,
1001
0100
1010
0100
,
1001
0000
0000
0100
0000
0000
0001
0000
1001
0000
0000
0000
1100
0000
0000
0000
,
0220
0000
0000
0000
0000
0000
0330
0001
,
1000
0000
0000
1000
0000
0000
0001
0000
0001
0000
0000
0100
0000
0000
0010
0000
,
1000
0100
1000
0001
1000
0100
1000
0000
,
0001
0010
0001
1000
0001
0100
0001
0000
,
2002
0000
0000
0000
0000
0000
3003
0100
,
0001
0000
0000
0100
0000
0000
0001
0000
0100
0000
0000
1000
0000
0000
0010
0000
,
0100
1000
0001
1000
0100
1000
0010
1000
,
0001
0100
0010
1000
0001
1000
0001
0000
,
2002
0000
0000
0000
0000
0000
3003
0100
,
0001
0000
0000
0100
0000
0000
1000
0000
0010
0000
0000
1000
0000
0000
0010
0000
,
0100
1000
0001
1000
0100
0010
0100
0001
,
1000
0001
1000
0001
0100
0001
0010
0000
,
0100
0000
0000
0100
0000
0000
0010
0000
1000
0000
0000
0010
0000
0000
0100
0000
,
0100
0000
0000
1000
0000
0000
0100
0000
1000
0000
0010
0000
0100
0000
0001
0000
,
1000
0000
0000
0100
0000
0000
0100
0000
1000
0000
0000
0001
0000
0000
1000
0000
,
0100
0000
0000
0001
0000
0000
0100
0000
0100
0010
0000
0010
0100
0000
0001
0000
,
1000
0000
0000
1000
0000
0000
1000
0000
0001
0000
0000
0001
0000
0010
0000
0000
,
0100
0000
0000
0100
0000
0000
1000
0000
0001
0000
0000
0001
0000
0000
0100
0000
,
0010
0000
0000
1000
0000
0000
0001
0000
1000
0000
0001
0000
1000
0000
0001
0000
,
1000
0100
1000
0100
0001
0100
0001
0000
,
1000
0000
0000
0100
0000
0000
0010
0000
0001
0000
0000
0010
0000
0000
0100
0000
,
1000
0000
0000
0100
0000
0000
0010
0000
1001
0000
0000
0000
0110
0000
0000
0000
,
0000
0000
0010
0000
0100
0000
1000
0000
0001
0100
0001
0100
0001
0000
0000
0000
,
1000
0000
0000
0010
0000
0000
0100
0000
0010
0000
0000
1000
0000
0000
0001
0000
,
0100
0000
0001
0100
0000
0000
0001
0000
1000
0000
0001
1000
0000
0000
0001
0000
,
0100
0000
0010
0100
0000
0000
0010
0000
1000
0000
0100
0000
0010
0000
0001
0000
,
2000
0000
0010
0000
0100
0000
3010
1000
,
0010
0000
0000
0010
0000
0000
0100
0000
0001
0000
0000
0001
0000
0000
1000
0000
,
0001
0000
0100
0010
0000
0000
0100
0000
0001
0000
0100
0010
0000
0000
0100
0000
,
0001
0000
1000
0010
0000
0000
1000
0000
0001
0000
0000
0000
0100
0000
0000
0000
,
2000
0000
0010
0000
0001
0000
3100
0001
,
0100
0000
0000
0010
0000
0000
0100
0000
0001
0000
0000
0100
0000
0000
0010
0000
,
1000
0000
0010
1000
0000
0000
0010
0000
0100
0000
0001
0100
0000
0000
0001
0000
,
1000
0000
0010
1000
0000
0000
0010
0000
0100
0000
0001
0000
1000
0000
0000
0000
,
0010
0000
0000
0100
0000
0000
0001
0000
1000
0000
0000
0001
0000
0000
0100
0000
,
0010
0000
0000
1000
0000
0000
0100
0000
1100
0000
0000
0000
0101
0000
0000
0000
,
0010
0000
0000
0100
0000
0000
0001
0000
1000
0000
0000
0001
0000
0000
0100
0000
,
1000
0000
0000
0010
0000
0000
0100
0000
1001
0000
0000
0000
1100
0000
0000
0000
,
0001
0000
0000
0100
0000
0000
0010
0100
0010
0000
0000
1000
0000
0000
0010
0100
,
0010
0000
0000
1000
0000
0001
0000
0000
0100
0000
0000
0010
0000
0000
1000
0000
,
0001
0000
0000
1000
0000
0000
2000
0000
0002
0000
0000
0000
0000
0000
0000
0000
,
0000
3003
2200
3300
,
0011
0000
0000
0001
0000
0000
0100
0000
0010
0000
0000
0100
0000
0000
0010
0000
,
1000
0000
0000
0010
0000
0000
0100
0000
1001
0000
0000
0000
0000
0000
0000
0000
,
1000
0000
0000
0010
0000
0000
0100
0000
0001
0000
0000
0100
0000
0000
0010
0000
,
1000
0000
0000
0010
0000
0000
0100
0000
1001
0000
0000
0000
0000
0000
0000
0000
;

//---------------dance-single - ----------------
#NOTES:
     dance-single:
     :
     Medium:
     9:
     0.304376,0.372676,0.170155,0.547455,0.151660,288.000000,265.000000,23.000000,74.000000,0.000000,0.000000,0.304376,0.372676,0.170155,0.547455,0.151660,288.000000,265.000000,23.000000,74.000000,0.000000,0.000000:
0000
0000
0000
0000
,
0000
0000
0000
0000
,
0000
0000
0000
0000
,
0000
0000
0000
0000
,
0020
0030
0002
0003
,
0200
0300
2000
3000
,
0020
0030
0200
0300
,
0002
0000
2000
3003
,
0010
1000
0000
0100
0000
1000
0000
0010
,
0100
0001
0000
0100
0000
0010
0000
1000
,
0001
0100
0000
0001
0000
1000
0000
0010
,
1000
0100
0000
1000
0000
0001
0000
0100
,
0010
0100
0000
0001
0000
1000
0000
0100
,
1000
0010
0000
0100
0000
0001
0000
0100
,
0010
0000
0000
0010
0000
0000
0000
0000
0100
0000
0000
0100
0000
0000
0000
0000
,
0220
0330
2002
3003
,
0010
1000
0000
0100
0000
1000
0000
0001
,
0100
0001
0000
0100
0000
0010
0000
1000
,
0001
1000
0000
0010
0000
0100
0000
0001
,
0010
0001
0000
1000
0000
0100
0000
1000
,
0020
0130
0002
0103
,
2000
0000
0000
0000
3100
0000
0001
0000
0100
0000
0000
0010
0000
0000
0000
0000
,
2000
0000
0000
0000
0000
0000
0000
0000
3001
0000
0000
0001
0000
0000
0000
0000
,
0100
0010
0100
0000
,
0001
0000
0000
0000
0000
0000
0000
0000
1000
0000
0000
0010
0000
0000
1000
0000
,
0100
1000
0001
0000
,
0020
0030
2000
3000
,
0001
0000
0000
0100
0000
0000
0010
0000
0200
0000
0000
0000
0300
0000
0000
0000
,
0001
0000
0000
0001
0000
0000
0000
0000
0100
0000
0000
0100
0000
0000
0000
0000
,
0010
0000
0000
0000
1000
0000
0000
0000
0100
0000
0000
1000
0000
0000
0000
0000
,
2200
3300
0022
0033
,
2002
0000
3003
0010
,
2002
0000
0000
3003
,
0001
0000
0000
0001
0000
0000
0000
0000
1000
0000
0000
1000
0000
0000
0000
0000
,
0020
0000
0000
0200
0000
0000
0330
0000
,
0001
0100
0010
1000
,
2002
0000
0000
3003
,
0010
0000
0000
0010
0000
0000
0000
0000
0100
0000
0000
0100
0000
0000
0000
0000
,
2000
0000
0000
0200
0000
0000
3300
0000
,
0001
0010
0100
1000
,
0202
0000
0000
0303
,
0010
0000
0000
0010
0000
0000
1000
0000
0001
0000
0000
0001
0000
0000
1000
0000
,
0200
0000
0000
0020
0000
0000
0330
0000
,
1000
0010
0100
0001
,
1000
0000
0000
1000
0000
0000
0000
0000
0001
0000
0000
0001
0000
0000
0000
0000
,
0100
0000
0000
0100
0000
0000
0000
0000
0100
0000
0000
0000
0001
0000
0000
0000
,
1000
0000
0000
1000
0000
0000
0000
0000
0010
0000
0000
0010
0000
0000
0000
0000
,
0001
0000
0000
0001
0000
0000
0000
0000
1000
0000
0000
0000
0100
0000
0000
0000
,
1000
0000
0000
1000
0000
0000
0000
0000
0001
0000
0000
0001
0000
0000
0000
0000
,
0100
0000
0000
0010
0000
0000
0100
0000
0100
0000
0000
0000
0001
0000
0000
0000
,
1000
0000
0000
1000
0000
0000
0020
0000
0200
0000
0000
0000
0030
0000
0000
0000
,
0002
0300
2000
3003
,
0220
0330
2200
3300
,
0022
0033
1001
0110
,
2002
0000
0000
3003
,
1000
0000
0000
1000
0000
0000
0000
0000
0001
0000
0000
0001
0000
0000
0000
0000
,
0020
0000
0000
0200
0000
0000
0330
0000
,
1000
0001
1000
0000
0001
1000
0001
0000
,
2002
0000
0000
3003
,
0100
0000
0000
0100
0000
0000
0000
0000
0010
0000
0000
0010
0000
0000
0000
0000
,
0002
0000
0000
0200
0000
0000
0303
0000
,
0001
1000
0001
0000
1000
0001
1000
0000
,
0002
1000
1000
1003
,
0010
0000
0000
0100
0000
0000
0100
0000
0001
0000
0000
1000
0000
0000
1000
0000
,
0002
0000
0000
0020
0000
0000
0033
0000
,
0001
1000
0010
0000
1000
0001
0100
0000
,
1000
0000
0000
1000
0000
0000
1000
0000
0001
0000
0000
0001
0000
0000
0001
0000
,
0100
0000
0000
0100
0000
0000
0010
0000
0100
0000
0000
0000
0001
0000
0000
0000
,
0100
0000
0000
0100
0000
0000
0001
0000
1000
0000
0000
1000
0000
0000
0001
0000
,
0010
0000
0000
0010
0000
0000
0001
0000
1000
0000
0000
0000
0100
0000
0000
0000
,
0010
0000
0000
0010
0000
0000
0000
0000
0001
0000
0000
0001
0000
0000
0000
0000
,
0100
0000
0000
0100
0000
0000
0001
0000
1000
0000
0000
0000
1000
0000
0001
0000
,
0100
0000
0000
0100
0000
0000
2000
0000
0002
0000
0000
0000
3000
0000
0000
0000
,
0200
0300
2000
3003
,
0220
0330
2200
3300
,
0022
0033
1001
0000
,
0202
0303
2020
3030
,
0220
0330
1001
0000
;

//---------------dance-single - ----------------
#NOTES:
     dance-single:
     :
     Easy:
     5:
     0.232510,0.286674,0.199747,0.547455,0.000000,220.000000,193.000000,27.000000,74.000000,0.000000,0.000000,0.232510,0.286674,0.199747,0.547455,0.000000,220.000000,193.000000,27.000000,74.000000,0.000000,0.000000:
// measure 0
0000
0000
0000
0000
,  // measure 1
0000
0000
0000
0000
,  // measure 2
0000
0000
0000
0000
,  // measure 3
0000
0000
0000
0000
,  // measure 4
0020
0030
2000
3000
,  // measure 5
0200
0300
0002
0003
,  // measure 6
0020
0030
0200
0300
,  // measure 7
2000
0000
0002
3003
,  // measure 8
0010
1000
0100
1000
,  // measure 9
0010
0100
0010
0000
,  // measure 10
0010
0001
0100
0001
,  // measure 11
0010
0100
0010
0000
,  // measure 12
0010
0100
0001
1000
,  // measure 13
1000
0001
0100
0000
,  // measure 14
0020
0030
0200
0300
,  // measure 15
0220
0330
2002
3003
,  // measure 16
0010
1000
0100
1000
,  // measure 17
0001
0010
0100
0000
,  // measure 18
0010
0001
0100
0001
,  // measure 19
1000
0100
0010
0000
,  // measure 20
0020
0030
0002
0003
,  // measure 21
0200
0300
1000
0000
,  // measure 22
0020
0000
0130
0000
,  // measure 23
0010
0100
0010
0000
,  // measure 24
0001
0100
1000
0000
,  // measure 25
1000
0100
0001
0000
,  // measure 26
0220
0330
2002
3003
,  // measure 27
0001
0100
0010
0000
,  // measure 28
0001
0010
0100
1000
,  // measure 29
0001
1000
0100
0010
,  // measure 30
2002
3003
0220
0330
,  // measure 31
2002
0000
3003
0001
,  // measure 32
2002
0000
0000
3003
,  // measure 33
0001
0001
1000
1000
,  // measure 34
2002
0000
0000
3003
,  // measure 35
0001
0100
0010
0000
,  // measure 36
0220
0000
0000
0330
,  // measure 37
0010
0010
0100
0100
,  // measure 38
0220
0000
0000
0330
,  // measure 39
0001
0010
0100
0000
,  // measure 40
2002
0000
0000
3003
,  // measure 41
0010
0010
0010
0001
,  // measure 42
0002
0000
2000
3003
,  // measure 43
1000
0100
0010
0001
,  // measure 44
1000
1000
0001
0001
,  // measure 45
0100
0100
0100
0000
,  // measure 46
0001
0001
1000
1000
,  // measure 47
0100
0100
0100
0000
,  // measure 48
2000
3000
0002
0003
,  // measure 49
0100
0100
0100
0000
,  // measure 50
0110
0000
2002
0000
,  // measure 51
3003
0000
2000
3000
,  // measure 52
0002
0003
2000
3000
,  // measure 53
0002
0003
1001
0000
,  // measure 54
2002
0000
0000
3003
,  // measure 55
1000
1000
0001
0001
,  // measure 56
2002
0000
0000
3003
,  // measure 57
1000
0100
0010
0000
,  // measure 58
0220
0000
0000
0330
,  // measure 59
0010
0010
0100
0100
,  // measure 60
0220
0000
0000
0330
,  // measure 61
1000
0010
0100
0000
,  // measure 62
2002
0000
0000
3003
,  // measure 63
0010
0010
0010
1000
,  // measure 64
2000
0000
0002
3003
,  // measure 65
0001
0010
0100
1000
,  // measure 66
0001
0001
1000
1000
,  // measure 67
0010
0010
0010
0000
,  // measure 68
1000
1000
0001
0001
,  // measure 69
0010
0010
0010
0000
,  // measure 70
0002
0003
2000
3000
,  // measure 71
0010
0010
0010
0000
,  // measure 72
0110
0000
2002
0000
,  // measure 73
3003
0000
2000
3000
,  // measure 74
0020
0030
0002
0003
,  // measure 75
0200
0300
1001
0000
,  // measure 76
0220
0330
2002
3003
,  // measure 77
0220
0330
1001
0000
;

//---------------dance-single - ----------------
#NOTES:
     dance-single:
     :
     Beginner:
     4:
     0.141620,0.190314,0.014796,0.214543,0.000000,134.000000,132.000000,2.000000,29.000000,0.000000,0.000000,0.141620,0.190314,0.014796,0.214543,0.000000,134.000000,132.000000,2.000000,29.000000,0.000000,0.000000:
// measure 0
0000
0000
0000
0000
,  // measure 1
0000
0000
0000
0000
,  // measure 2
0000
0000
0000
0000
,  // measure 3
0000
0000
0000
0000
,  // measure 4
0010
0000
0010
0000
,  // measure 5
0001
0000
0001
0000
,  // measure 6
0100
0000
0100
0000
,  // measure 7
1000
0000
0001
0000
,  // measure 8
1000
0000
1000
0000
,  // measure 9
0010
0000
0100
0000
,  // measure 10
0001
0000
0001
0000
,  // measure 11
0010
0000
0100
0000
,  // measure 12
1000
0000
0001
0000
,  // measure 13
1000
0000
0001
0000
,  // measure 14
2000
0000
3000
0000
,  // measure 15
0002
0000
0003
0000
,  // measure 16
0010
0000
0010
0000
,  // measure 17
1000
0000
0100
0000
,  // measure 18
0010
0000
0010
0000
,  // measure 19
0001
0000
0100
0000
,  // measure 20
0001
0000
1000
0000
,  // measure 21
0001
0000
1000
0000
,  // measure 22
0002
0000
0003
0000
,  // measure 23
2000
0000
3000
0000
,  // measure 24
0001
0000
0100
0000
,  // measure 25
1000
0000
0100
0000
,  // measure 26
0010
0000
0010
0000
,  // measure 27
0020
0000
0030
1000
,  // measure 28
2000
0000
3000
0000
,  // measure 29
0001
0000
1000
0000
,  // measure 30
0020
0000
0030
0000
,  // measure 31
1000
0000
0001
0000
,  // measure 32
0020
0000
0030
0000
,  // measure 33
0010
0000
1000
0000
,  // measure 34
0200
0000
0300
0000
,  // measure 35
0010
0000
0001
0000
,  // measure 36
0200
0000
0300
0000
,  // measure 37
0010
0010
0010
0000
,  // measure 38
1000
0000
0001
0000
,  // measure 39
1000
0000
0001
0000
,  // measure 40
1000
1000
1000
0000
,  // measure 41
0001
0001
0001
0000
,  // measure 42
1000
0000
0001
0000
,  // measure 43
1000
0001
1000
0000
,  // measure 44
0002
0000
0003
0000
,  // measure 45
2000
0000
3000
0000
,  // measure 46
0010
0000
0020
0000
,  // measure 47
0030
0000
0010
0000
,  // measure 48
2000
3000
2000
3000
,  // measure 49
2000
3000
1000
0000
,  // measure 50
2002
0000
0000
3003
,  // measure 51
1000
0000
0001
0000
,  // measure 52
0200
0000
0300
0000
,  // measure 53
0001
0000
1000
0000
,  // measure 54
0200
0000
0300
0000
,  // measure 55
0100
0000
1000
0000
,  // measure 56
0020
0000
0030
0000
,  // measure 57
0100
0000
0001
0000
,  // measure 58
0020
0000
0030
0000
,  // measure 59
0100
0100
0100
0000
,  // measure 60
0001
0000
1000
0000
,  // measure 61
0001
0000
1000
0000
,  // measure 62
0010
0010
0010
0000
,  // measure 63
0100
0100
0100
0000
,  // measure 64
0010
0000
0100
0000
,  // measure 65
0010
0100
0010
0000
,  // measure 66
1000
1000
1000
0000
,  // measure 67
0001
0001
0001
0000
,  // measure 68
0100
0000
0200
0000
,  // measure 69
0300
0000
1001
0000
,  // measure 70
0200
0300
0200
0300
,  // measure 71
0200
0300
0100
0000
,  // measure 72
0020
0030
0020
0030
,  // measure 73
0020
0030
0010
0000
;
