#TITLE:Taste You Like Yogurt;
#SUBTITLE:;
#ARTIST:Whatchyamacallit;
#TITLETRANSLIT:;
#SUBTITLETRANSLIT:;
#ARTISTTRANSLIT:;
#GENRE:;
#CREDIT:;
#MENUCOLOR:;
#METERTYPE:DDR;
#BANNER:Taste You Like Yogurt.png;
#BACKGROUND:Taste You Like Yogurt-bg.png;
#LYRICSPATH:;
#CDTITLE:;
#MUSIC:Taste You Like Yogurt.ogg;
#OFFSET:-0.107;
#SAMPLESTART:81.320;
#SAMPLELENGTH:12.000;
#SELECTABLE:YES;
#LISTSORT:;
#BPMS:0.000=130.000;
#STOPS:;
#BGCHANGES:;
#ATTACKS:;

//---------------dance-single - ----------------
#NOTES:
     dance-single:
     :
     Hard:
     12:
     0.527,0.520,0.223,0.134,0.167:
0000
0000
0000
0000
,
0000
0000
0000
0000
,
0000
0000
0000
0000
,
0000
0000
0000
0000
,
0001
0100
0001
0100
0001
1000
0001
1000
,
0001
0100
0001
1000
0001
0100
0010
0100
,
0001
1000
0100
1000
0010
1000
0010
1000
,
0001
0100
0010
0100
0001
1000
0100
1000
,
0001
0100
0010
0100
0001
1000
0001
1000
,
0010
0100
0010
0100
0001
1000
0001
1000
,
0100
1000
0100
1000
0001
0010
0001
0010
,
0002
0203
0320
2030
,
3001
0010
0001
0010
0001
0000
1000
0010
,
0100
0010
1000
0001
1000
0001
1000
0001
,
0100
0000
0000
0110
0000
0000
0001
0000
0100
0000
1000
0000
0100
0000
0001
0000
,
0100
0000
0000
0110
0000
0000
1000
0000
0010
0000
0001
0000
0010
0000
1000
0000
,
0001
0100
0001
0100
0001
0000
1000
0010
,
0100
0000
0000
0100
0001
0000
0000
0001
1000
0000
0000
1000
0001
0000
0000
0001
,
0010
0000
0000
0110
0000
0000
1000
0000
0100
0000
0010
0000
0100
0000
1000
0000
,
0010
0000
0000
0110
0000
0000
0001
0000
0010
0000
0100
0000
0010
0000
0001
0000
,
1000
0100
0010
0100
1000
0001
0001
0001
,
0100
0010
0100
0010
1000
0001
1000
0001
,
1001
0000
0000
1100
0000
0000
0001
0000
0100
0000
0010
0000
0100
0000
0001
0000
,
1001
0000
0000
0101
0000
0000
1000
0000
0010
0000
0100
0000
0010
0000
1000
0000
,
0001
0100
0010
0100
0001
0000
1000
0010
,
0100
0000
0000
0100
0010
0000
0000
0010
1000
0000
0000
1000
0001
0000
0100
0000
,
0010
0000
0000
1010
0000
0000
0001
0000
0100
0000
1000
0000
0100
0000
0001
0000
,
0010
0000
0000
0011
0000
0000
1000
0000
0100
0000
0010
0000
0011
0000
0011
0000
,
1001
0001
0100
1000
0100
0000
1000
0100
,
0001
0000
0100
0000
1000
0000
0010
0000
0100
0000
0000
0001
0100
0000
0010
0000
,
1000
0100
0010
0100
1000
0000
0001
0010
,
0100
0000
0010
0000
0001
0000
1000
0000
0100
0000
0000
1000
0010
0000
0100
0000
,
0001
0100
0010
0100
0001
0000
1000
0010
,
0100
0000
0010
0000
1000
0000
0001
0000
0100
0000
0000
0010
0100
0000
0010
0000
,
1000
0000
0000
1010
0000
0000
0010
0000
0010
0000
1000
0000
0001
0000
1000
0000
,
0010
0000
0000
0110
0000
0000
0100
0000
0001
0000
0100
0000
0010
0000
0100
0000
,
0001
1000
0100
1000
0010
0000
0100
0001
,
0010
0000
0100
0000
1000
0000
0000
0000
0010
0000
0000
0010
0000
0000
0100
0000
,
0001
1000
0010
0100
0001
0000
1000
0100
,
0010
0000
0001
0000
0100
0000
0000
0000
0010
0000
0000
1000
0000
0000
0001
0000
,
0100
0001
0100
1000
0100
0000
0010
1000
,
0010
0000
0001
0000
0010
0000
0000
0000
0100
0000
0000
0001
0010
0000
0001
0000
,
0100
0000
0000
0100
0000
0000
0010
0000
1000
0000
0100
0000
1000
0000
0010
0000
,
0100
0000
0000
0100
0000
0000
0001
0000
0010
0000
0001
0000
0100
0000
0010
0000
,
0000
0001
0001
1000
0100
0000
1000
0001
,
0101
1100
0011
1010
,
0001
0000
0000
0101
0000
0000
0010
0000
0010
0000
1000
0000
0100
0000
0010
0000
,
0001
0000
0000
0101
0000
0000
0010
0000
0010
0000
1000
0000
0100
0000
0010
0000
,
0001
0100
0010
1000
0010
0000
1000
0100
,
0001
0000
0000
0001
0100
0000
0000
0100
1000
0000
0000
1000
0100
0000
0000
0100
,
0001
0000
0000
0011
0000
0000
1000
0000
0010
0000
0010
0000
0100
0000
0100
0000
,
0001
0000
0000
0011
0000
0000
1000
0000
0010
0000
0010
0000
0100
0000
0100
0000
,
0001
0100
1000
0100
0001
0000
0010
0010
,
1000
0001
0100
0001
1000
0100
0010
0001
,
0100
0000
0000
0110
0000
0000
0001
0000
1000
0000
0100
0000
1000
0000
0001
0000
,
0100
0000
0000
0110
0000
0000
1000
0000
0001
0000
0100
0000
0001
0000
1000
0000
,
0010
0100
0001
0100
0010
1000
1000
0001
,
0100
0000
0000
0100
0001
0000
0000
0001
1000
0000
0000
1000
0001
0000
0000
0001
,
0010
0000
0000
0011
0000
0000
0001
0000
0100
0000
0010
0000
1000
0000
0100
0000
,
1000
0000
0000
1100
0000
0000
1000
0000
0010
0000
0100
0000
0001
0000
0001
0000
,
1001
0000
0000
0000
0010
0000
0100
0000
0010
0000
0000
1000
0100
0000
0010
0000
,
0001
0000
0001
0000
1000
0000
1000
0000
0001
0000
0000
0001
0100
0000
0010
0000
,
1000
0000
1000
0000
0100
0000
0100
0000
0010
0000
0000
0001
0010
0000
0001
0000
,
0100
0000
0100
0000
0010
0000
0010
0000
1000
0000
0000
0001
1000
0000
0100
0000
,
2000
0000
0000
3020
0000
0000
0032
0000
,
0000
0023
0000
0000
0230
0000
0320
0000
,
2030
3002
2003
3002
,
0013
0010
0010
0010
0220
0000
0330
0000
,
2002
0000
0000
0000
,
0000
0000
0000
0000
,
3003
0000
0000
0000
;

//---------------dance-double - ----------------
#NOTES:
     dance-double:
     :
     Hard:
     12:
     0.500,0.468,0.089,0.059,0.160:
00000000
00000000
00000000
00000000
,
00000000
00000000
00000000
00000000
,
00000000
00000000
00000000
00000000
,
00000000
00000000
00000000
00000000
,
10000000
01000000
10000000
01000000
00100000
00010000
00100000
00010000
,
00100000
00001000
00100000
00001000
00010000
00000010
00010000
00000010
,
00001000
00000100
00001000
00000100
00000010
00000001
00000010
00000001
,
00001000
00000001
00001000
00000001
00001000
00000100
00010000
00001000
,
00100000
00010000
00100000
00010000
10000000
01000000
10000000
01000000
,
00010000
00100000
00010000
00100000
00001000
00010000
00001000
00010000
,
00000010
00000100
00000010
00000100
00000001
00000100
00000001
00000100
,
00000001
00001000
00000001
00001000
00000001
00001000
00000001
00000000
,
00001001
00000000
00000001
00000100
00001000
00000000
00011000
00000000
,
00010000
00100000
10000000
00100000
00010000
00100000
10000000
00000000
,
01000000
00000000
00000000
00100000
00000000
00000000
01000000
00000000
00100000
00000000
10000000
00000000
01000000
00000000
00100000
00000000
,
00010000
00000000
00000000
00000100
00000000
00000000
00010000
00000000
00000100
00000000
00001000
00000000
00000010
00000000
00000100
00000000
,
00000001
00001000
00000100
00001000
00000100
00000000
00000000
00000001
,
00000001
00000000
00000000
00000001
00000100
00000000
00000000
00000100
00001000
00000000
00000000
00001000
00000100
00000000
00000000
00000100
,
00001000
00000000
00000000
00000010
00000000
00000000
00001000
00000000
00000100
00000000
00010000
00000000
00001000
00000000
00100000
00000000
,
00010000
00000000
00000000
01000000
00000000
00000000
00100000
00000000
10000000
00000000
01000000
00000000
00000000
00000000
10000000
00000000
,
00010000
10000000
00100000
10000000
11000000
00000000
10000000
00100000
,
01000000
00001000
00010000
00000100
,
00001000
00000000
00000000
00001000
00000000
00000000
00000001
00000000
00000010
00000000
00000100
00000000
00001000
00000000
00000000
00000000
,
00000001
00000000
00000000
00000001
00000000
00000000
00001000
00000000
00000100
00000000
00010000
00000000
00001000
00000000
00000000
00000000
,
00100000
00010000
01000000
00010000
00100000
00000000
00000000
00010000
,
00010000
00000000
00000000
10000000
00010000
00000000
00000000
10000000
01000000
00000000
00000000
10000000
00100000
00000000
00000000
00000000
,
10000000
00000000
00000000
00100000
00000000
00000000
01000000
00000000
00001000
00000000
00001000
00000000
00010000
00000000
00010000
00000000
,
00000010
00000000
00000000
00000010
00000000
00000000
00001000
00000000
00000100
00000000
00000010
00000000
00000001
00000000
00000100
00000000
,
00000010
00001000
00000100
00001000
00000010
00000000
00000100
00010000
,
00001000
00000000
00010000
00000000
00000100
00000000
00000000
00000000
00100000
00000000
00000000
00100000
00010000
00000000
01000000
00000000
,
00100000
10000000
01000000
10000000
00100000
00000000
01000000
00010000
,
00100000
00000000
00010000
00000000
01000000
00000000
00000000
00000000
00001000
00000000
00000000
00010000
00001000
00000000
00010000
00000000
,
00000100
00001000
00000010
00000100
00000001
00000000
00000001
00000100
,
00000010
00000000
00001000
00000000
00000100
00000000
00000000
00000000
00010000
00000000
00000000
00001000
00100000
00000000
00001000
00000000
,
00100000
00000000
00000000
01010000
00000000
00000000
00010000
00000000
00100000
00000000
01000000
00000000
10000000
00000000
00100000
00000000
,
10000000
00000000
00000000
11000000
00000000
00000000
10000000
00000000
00100000
00000000
01000000
00000000
00001000
00000000
00010000
00000000
,
00000100
00001000
00000010
00001000
00000100
00001000
00000010
00001000
,
00000001
00000100
00000001
00000100
00000010
00001000
00000010
00001000
,
00000100
00010000
00001000
01000000
00001000
00010000
00001000
00010000
,
00100000
00000000
00010000
00000000
00100000
00000000
00010000
00000000
01000000
00000000
00000000
00100000
01000000
00000000
00100000
00000000
,
10000000
01000000
00100000
00010000
01000000
00100000
01000000
00100000
,
10000000
00000000
00010000
00000000
00100000
00000000
00001000
00000000
00010000
00000000
00000000
00000100
00001000
00000000
00000010
00000000
,
00000100
00000000
00001000
00000001
00000010
00000000
00001000
00000100
,
00010000
00000000
00000000
00001000
00000000
00000000
00010000
00000000
00001000
00000000
00000000
00000000
00110000
00000000
00000000
00000000
,
10100000
00000000
00100000
01000000
00010000
00000000
00100000
00001000
,
00010000
00001000
00010000
00000010
00000100
00000010
00000100
00000000
,
00000001
00000000
00000000
00000101
00000000
00000000
00000001
00000000
00000010
00000000
00000100
00000000
00001000
00000000
00000000
00000000
,
00001000
00000000
00000000
00001100
00000000
00000000
00000100
00000000
00010000
00000000
00001000
00000000
00100000
00000000
00010000
00000000
,
01000000
00100000
01000000
00100000
10000000
00000000
00010000
01000000
,
00100000
00000000
00000000
00100000
10000000
00000000
00000000
10000000
01000000
00000000
00000000
01000000
00010000
00000000
00000000
00010000
,
00100000
00000000
00000000
00001000
00000000
00000000
00010000
00000000
00000010
00000000
00000010
00000000
00000100
00000000
00000100
00000000
,
00000001
00000000
00000000
00001000
00000000
00000000
00000100
00000000
00010000
00000000
00010000
00000000
00001000
00000000
00001000
00000000
,
01000000
00010000
01000000
00100000
01000000
00000000
00010000
10000000
,
00100000
10000000
00010000
01000000
00001000
00010000
00000100
00001000
,
00000010
00000000
00000000
00000010
00000000
00000000
00001000
00000000
00000100
00000000
00000010
00000000
00000001
00000000
00000100
00000000
,
00000010
00000000
00000000
00000110
00000000
00000000
00000001
00000000
00000100
00000000
00000010
00000000
00001000
00000000
00000100
00000000
,
00010000
00001000
00001000
00100000
00100000
00010000
00100000
01000000
,
10000000
00000000
00000000
10000000
00010000
00000000
00000000
00010000
00100000
00000000
00000000
00100000
00001000
00000000
00000000
00001000
,
00010000
00000000
00000000
00000100
00000000
00000000
00001000
00000000
00000010
00000000
00000001
00000000
00000010
00000000
00001000
00000000
,
00000100
00000000
00000000
00000100
00000000
00000000
00010000
00000000
00001000
00000000
00100000
00000000
00000000
00000000
00000000
00000000
,
00010000
00000000
00010000
00000000
10000000
00000000
10000000
00000000
00100000
00000000
00000000
01000000
00100000
00000000
01000000
00000000
,
00100000
00000000
00100000
00000000
10000000
00000000
10000000
00000000
00010000
00000000
00000000
00100000
00001000
00000000
00010000
00000000
,
00000100
00000000
00000100
00000000
00001000
00000000
00001000
00000000
00000010
00000000
00000000
00000100
00000001
00000000
00000100
00000000
,
00000010
00000000
00000010
00000000
00001000
00000000
00001000
00000000
00000100
00000000
00000000
00000100
00010000
00000000
00001000
00000000
,
00100000
00100000
00010000
01000000
00100000
10000000
01000000
10000000
,
00100000
00100000
01000000
00001000
00010000
00000100
00001000
00000010
,
00000200
00000302
00002003
00003200
,
00010300
00010000
00010000
00010000
00022000
00000000
00033000
00000000
,
00022000
00000000
00000000
00000000
,
00000000
00000000
00000000
00000000
,
00033000
00000000
00000000
00000000
;

//---------------dance-single - ----------------
#NOTES:
     dance-single:
     :
     Medium:
     7:
     0.386,0.390,0.445,0.171,0.000:
0000
0000
0000
0000
,
0000
0000
0000
0000
,
0000
0000
0000
0000
,
0000
0000
0000
0000
,
0001
0100
0001
0100
,
1000
0100
1000
0100
,
0001
0100
0010
1000
,
0001
0010
0100
1000
,
0001
0010
0001
0100
,
1000
0010
1000
0100
,
0001
0001
1000
1000
,
2002
0000
0000
3003
,
0001
0000
0001
0000
1001
0000
0100
0010
,
0100
0010
0001
1001
,
0220
0000
0330
0000
0001
1000
0001
0000
,
0220
0000
0330
0000
1000
0001
1000
0000
,
1000
0000
1000
0000
1001
0000
0010
0100
,
0010
0100
1000
1001
,
0220
0000
0330
0000
1000
0001
1000
0000
,
0220
0000
0330
0000
0001
1000
0001
0000
,
0001
0010
0100
1001
,
0100
0010
0100
0000
0010
0100
0010
0000
,
0001
0000
0101
0000
1000
0100
1000
0000
,
0010
0000
1100
0000
0001
0010
0001
0000
,
1000
0100
0010
1001
,
0010
0100
0010
0000
0100
0010
0100
0000
,
1000
0000
1010
0000
0001
0100
0001
0000
,
1000
0000
0110
0000
0001
1000
0001
0000
,
0001
0001
0100
1001
,
1000
1000
0100
1001
,
0010
0010
0100
1001
,
0100
0100
0010
1001
,
0001
0010
0001
0000
0100
0000
1001
0000
,
1000
0010
1000
0000
0100
0000
1001
0000
,
0020
0000
1030
0000
0010
0100
0010
0000
,
0200
0000
0301
0000
0100
0010
0100
0000
,
0001
0100
1010
0101
,
1000
0010
1100
0011
,
0100
0010
1001
0110
,
0001
1000
0110
1001
,
0001
0010
0001
0010
0001
0000
0110
0000
,
1000
0100
1000
0100
1000
0000
0110
0000
,
0001
0100
0010
1000
,
0010
0100
1001
1001
,
0001
0000
0001
0000
1001
0000
0100
0010
,
0100
0010
0001
1001
,
0220
0000
0330
0000
0001
1000
0001
0000
,
0220
0000
0330
0000
1000
0001
1000
0000
,
1000
0000
1000
0000
1001
0000
0010
0100
,
0010
0100
1000
1001
,
0220
0000
0330
0000
1000
0001
1000
0000
,
0220
0000
0330
0000
0001
1000
0001
0000
,
0001
0010
0100
1001
,
0100
0010
0100
0000
0010
0100
0010
0000
,
0001
0000
0101
0000
1000
0100
1000
0000
,
0010
0000
1100
0000
0001
0010
0001
0000
,
1000
0100
0010
1001
,
0010
0100
0010
0000
0100
0010
0100
0000
,
1000
0000
1010
0000
0001
0100
0001
0000
,
1000
0000
0110
0000
0001
1000
0001
0000
,
0001
1010
0110
1001
,
1000
0101
0110
1001
,
0010
0110
1001
0101
,
0100
0110
1001
1100
,
0100
0001
0100
1000
,
0010
0001
0010
1000
,
0100
0010
0100
0010
,
0010
0010
0020
0030
,
2002
0000
0000
0000
,
0000
0000
0000
0000
,
3003
0000
0000
0000
;

//---------------dance-single - ----------------
#NOTES:
     dance-single:
     :
     Easy:
     4:
     0.224,0.260,0.059,0.097,0.000:
0000
0000
0000
0000
,
0000
0000
0000
0000
,
0000
0000
0000
0000
,
0000
0000
0000
0000
,
0001
0000
0001
0000
,
1000
0000
1000
0000
,
0001
0000
0100
0000
,
1000
0000
0100
0000
,
0001
0000
0001
0000
,
1000
0000
1000
0000
,
0001
0000
0010
0000
,
2002
0000
0000
3003
,
0000
0001
1000
0100
,
0100
0010
0001
0000
,
0020
0030
0001
1000
,
0020
0030
1000
0001
,
0000
1000
0001
0010
,
0010
0100
1000
0000
,
0200
0300
1000
0001
,
0200
0300
0001
1000
,
0001
0010
0100
0000
,
0100
0100
0010
0010
,
0001
0000
1000
0000
,
0010
0100
1001
0000
,
1000
0100
0010
0000
,
0010
0010
0100
0100
,
1000
0000
0001
0000
,
0100
0010
1001
0000
,
0001
0000
0100
0000
,
1000
0000
0100
0000
,
0010
0010
0100
0000
,
0100
0100
0010
0000
,
0001
0001
0100
0000
,
1000
1000
0100
0000
,
0010
0000
0110
0000
,
0100
0000
0110
0000
,
0001
0100
0010
0000
,
1000
0010
0100
0000
,
0100
0010
0001
0000
,
0010
0100
1000
0000
,
0001
0001
0010
0100
,
1000
1000
0100
0010
,
0001
0100
0010
0000
,
1000
0100
0010
0000
,
0000
0001
1000
0100
,
0100
0010
0001
0000
,
0020
0030
0001
1000
,
0020
0030
1000
0001
,
0000
1000
0001
0010
,
0010
0100
1000
0000
,
0200
0300
1000
0001
,
0200
0300
0001
1000
,
0001
0010
0100
0000
,
0100
0100
0010
0010
,
0001
0000
1000
0000
,
0010
0100
1001
0000
,
1000
0100
0010
0000
,
0010
0010
0100
0100
,
1000
0000
0001
0000
,
0100
0010
1001
0001
,
0001
0010
0100
1000
,
1000
0100
0010
0001
,
0010
0100
1000
0001
,
0100
0010
0001
1000
,
0100
0001
0100
1000
,
0010
0001
0010
1000
,
0100
0010
0100
0010
,
0010
0010
0020
0030
,
2002
0000
0000
0000
,
0000
0000
0000
0000
,
3003
0000
0000
0000
;

//---------------dance-single - ----------------
#NOTES:
     dance-single:
     :
     Beginner:
     2:
     0.144,0.208,0.015,0.156,0.000:
0000
0000
0000
0000
,
0000
0000
0000
0000
,
0000
0000
0000
0000
,
0000
0000
0000
0000
,
0001
0000
0000
0000
,
1000
0000
0000
0000
,
0001
0000
0000
0000
,
1000
0000
0000
0000
,
0001
0000
0001
0000
,
1000
0000
1000
0000
,
0001
0000
0001
0000
,
2002
0000
3003
0000
,
0001
0000
1000
0000
,
0100
0000
0010
0000
,
0020
0000
0030
0000
,
0020
0000
0030
0000
,
1000
0000
0001
0000
,
0010
0000
0100
0000
,
0200
0000
0300
0000
,
0200
0000
0300
0000
,
0001
0000
0100
0000
,
1000
0000
0100
0000
,
0002
0000
0003
0000
,
2000
0000
3000
0000
,
1000
0000
0010
0000
,
0100
0000
0001
0000
,
2000
0000
3000
0000
,
0002
0000
0003
0000
,
0001
0000
0100
0000
,
1000
0000
0100
0000
,
0010
0000
0100
0000
,
0010
0000
0100
0000
,
0001
0000
0100
0000
,
1000
0000
0100
0000
,
0010
0000
0100
0000
,
0010
0000
0100
0000
,
0001
0000
0010
0000
,
1000
0000
0010
0000
,
0001
0001
0001
0000
,
1000
1000
1000
0000
,
0001
0000
0010
0000
,
1000
0000
0010
0000
,
0100
0100
0100
0000
,
0010
0010
0010
0000
,
0001
0000
1000
0000
,
0100
0000
0010
0000
,
0020
0000
0030
0000
,
0020
0000
0030
0000
,
1000
0000
0001
0000
,
0010
0000
0100
0000
,
0200
0000
0300
0000
,
0200
0000
0300
0000
,
0001
0000
0100
0000
,
1000
0000
0100
0000
,
0002
0000
0003
0000
,
2000
0000
3000
0000
,
1000
0000
0010
0000
,
0100
0000
0001
0000
,
2000
0000
3000
0000
,
0002
0000
0003
0000
,
0001
0000
0010
0000
,
0100
0000
1000
0000
,
1000
0000
0100
0000
,
0010
0000
0001
0000
,
1000
0000
0001
0000
,
1000
0000
0001
0000
,
0100
0000
0100
0000
,
0010
0010
0020
0030
,
2002
0000
0000
0000
,
0000
0000
0000
0000
,
3003
0000
0000
0000
;

//---------------dance-double - ----------------
#NOTES:
     dance-double:
     :
     Medium:
     7:
     0.332,0.390,0.119,0.097,0.000:
00000000
00000000
00000000
00000000
,
00000000
00000000
00000000
00000000
,
00000000
00000000
00000000
00000000
,
00000000
00000000
00000000
00000000
,
01000000
01000000
10000000
10000000
,
00100000
00100000
00010000
00010000
,
00000100
00000100
00001000
00001000
,
00000010
00000010
00000001
00000001
,
00001000
00000100
00001000
00000100
,
00010000
00001000
00010000
00000000
00001000
00010000
00001000
00000000
,
00100000
00010000
01000000
10000000
,
00100000
01000000
00100000
00000000
02000000
00000000
03000000
00000000
,
00000000
00010000
10010000
00000000
,
10000000
00010000
00100000
00001000
,
00010000
00000000
00000010
00000000
00000100
00000100
00000100
00000000
,
00000010
00000000
00010000
00000000
00001000
00001000
00001000
00000000
,
01000000
00010000
00100000
01000000
,
10000000
00100000
01000000
00001000
,
00010000
00000000
00000010
00000000
00000100
00000100
00000100
00000000
,
00000010
00000000
00010000
00000000
00001000
00001000
00001000
00000000
,
00100000
00000000
00010000
00000000
01000000
00000000
10000000
01000000
,
10000000
01000000
00010000
00001000
,
00000100
00000000
00000100
00000000
00000001
00001000
00000001
00000000
,
00000100
00000000
00000010
00000000
00010000
00001000
00010000
00000000
,
00001000
01000000
01000000
00100000
,
10000000
01000000
00010000
00100000
,
01000000
00100000
01000000
00000000
00010000
00000000
10000000
00000000
,
01000000
00100000
01000000
00000000
10000000
00000000
00010000
00000000
,
00001000
00010000
00000100
00001000
,
00000001
00000100
00000001
00000000
00001000
00000000
00000100
00000000
,
00010000
00001000
01000000
00010000
,
10000000
01000000
10000000
00000000
00100000
00000000
10000000
00000000
,
00010000
00100000
00001000
00010000
,
00000010
00001000
00000010
00000000
00001000
00000000
00000001
00000000
,
00002000
00003000
00000100
00010000
,
00002000
00003000
01000000
00100000
,
10000000
00010000
01000000
01000000
,
00010000
10000000
01000000
00001000
,
00010000
00000100
00001000
00001000
,
00000010
00001000
00000100
00000100
,
00000001
00001000
00000010
00001000
,
00000100
00010000
00001000
00010000
,
00001000
01000000
00100000
00100000
,
10000000
00010000
01000000
00000000
20020000
00000000
30030000
00000000
,
00000000
00100000
01000000
00100000
01000000
00000000
10000000
00000000
,
00010000
00100000
00001000
00010000
,
00000020
00000000
00000030
00000000
00000001
00000100
00000001
00000000
,
00000020
00000000
00000030
00000000
00001000
00000100
00001000
00000000
,
00000010
00000000
00010000
00000000
00001000
00000000
00000000
00100000
,
00010000
01000000
10000000
00100000
,
10000000
01000000
01010000
11000000
,
00010000
01000000
01010000
00011000
,
00010000
00000010
00001000
00000010
00010000
00000000
00000010
00000100
,
00000010
00001010
00000101
00001010
,
00000010
00001000
00000100
00000000
00010000
00000000
00001000
00000000
,
00001000
00100000
00010000
00000000
00110000
00000000
01100000
00000000
,
10000000
00100000
01000000
00100000
10000000
00000000
01010000
00000000
,
10000000
00100000
01000000
00000000
00011000
00000000
00010000
00000000
,
00000100
00001000
00000010
00000000
00000110
00000000
00001000
00000000
,
00000100
00010000
00001000
00000000
00110000
00000000
01000000
00000000
,
00200000
10000000
01000000
10300000
,
00020000
00100000
00001000
00130000
,
00002000
00010000
00000100
00010000
,
00003200
00001000
00000010
00001300
,
00000001
00000100
00000001
00000100
00000010
00000000
00001000
00000000
,
00000100
00010000
00001000
00010000
00000100
00000000
00010000
00000000
,
00001000
00100000
00010000
01000000
,
10000000
10000000
10000000
10000000
10000000
00000000
00010000
00000000
,
00022000
00000000
00000000
00000000
,
00000000
00000000
00000000
00000000
,
00033000
00000000
00000000
00000000
;

//---------------dance-double - ----------------
#NOTES:
     dance-double:
     :
     Easy:
     4:
     0.269,0.442,0.104,0.304,0.000:
00000000
00000000
00000000
00000000
,
00000000
00000000
00000000
00000000
,
00000000
00000000
00000000
00000000
,
00000000
00000000
00000000
00000000
,
01000000
00000000
10000000
00000000
,
00100000
00000000
00010000
00000000
,
00000100
00000000
00001000
00000000
,
00000010
00000000
00000001
00000000
,
00001000
00000100
00001000
00000100
,
00010000
00001000
00010000
00001000
,
00100000
00010000
01000000
10000000
,
00100000
00100000
00200000
00300000
,
00000000
00010000
10000000
00000000
,
10000000
00010000
00100000
00001000
,
00010000
00000000
00002000
00003000
,
00010000
00000000
00002000
00003000
,
00000010
00001000
00000100
00000000
,
00000001
00000100
00000010
00010000
,
00001000
00000000
00020000
00030000
,
00100000
02000000
03000000
00000000
,
00100000
00010000
01000000
10000000
,
10000000
01000000
00010000
00001000
,
00000100
00000100
00002002
00003003
,
00000100
00000010
00002002
00003003
,
00001000
00000100
00000100
00000010
,
00001000
00010000
01000000
00100000
,
02200000
03300000
00010000
10000000
,
02200000
03300000
10000000
00010000
,
10000000
00100000
10000000
00010000
,
10000000
00100000
00010000
00000000
,
00001000
00000010
00001000
00000001
,
00001000
00000100
00000001
00000000
,
00001000
00000100
00010000
00010000
,
00001000
01000000
00010000
00010000
,
02200000
03300000
20020000
30030000
,
00022000
00033000
00002002
00003003
,
00000010
00001000
00000100
00000100
,
00001000
00000010
00000001
00000100
,
00001000
00010000
00100000
00100000
,
00010000
01000000
10000000
00100000
,
00010000
00010000
00001000
00001000
,
00000010
00002002
00003003
00000010
,
00020000
00030000
00002000
00003000
,
02000000
03000000
00200000
00300000
,
00000000
00010000
10000000
00000000
,
10000000
00010000
00100000
00001000
,
00010000
00000000
00002000
00003000
,
00010000
00000000
00002000
00003000
,
00000010
00001000
00000100
00000000
,
00000001
00000100
00000010
00010000
,
00001000
00000000
00020000
00030000
,
00100000
02000000
03000000
00000000
,
00100000
00010000
01000000
10000000
,
10000000
01000000
00010000
00001000
,
00000100
00000100
00002002
00003003
,
00000100
00000010
00002002
00003003
,
00001000
00000100
00000100
00000010
,
00001000
00010000
01000000
00100000
,
02200000
03300000
00010000
10000000
,
02200000
03300000
10000000
01000000
,
00100000
10000000
01000000
00000000
,
00010000
00100000
00001000
00000000
,
00001000
00010000
00000100
00000000
,
00000100
00001000
00000010
00000000
,
00000001
00000100
00000010
00000000
,
00000100
00010000
00000100
00000000
,
00010000
00001000
01000000
00000000
,
00010000
00010000
00010000
00000000
,
00022000
00000000
00000000
00000000
,
00000000
00000000
00000000
00000000
,
00033000
00000000
00000000
00000000
;

//---------------dance-double - ----------------
#NOTES:
     dance-double:
     :
     Challenge:
     13:
     0.565,0.520,0.148,0.030,0.226:
00000000
00000000
00000000
00000000
,
00000000
00000000
00000000
00000000
,
00000000
00000000
00000000
00000000
,
00000000
00000000
00000000
00000000
,
10000000
01000000
00100000
00010000
10000000
00100000
01000000
00010000
,
00100000
00001000
00010000
00000010
00001000
00000100
00000010
00000001
,
00000001
00000010
00000100
00001000
00000010
00001000
00000100
00010000
,
00001000
01000000
00010000
01000000
00100000
10000000
00010000
10000000
,
10000000
01000000
00100000
00010000
00100000
00001000
00010000
00000010
,
00001000
00000001
00000100
00000010
00001000
00000100
00000010
00000001
,
00000001
00000010
00000100
00001000
00000010
00001000
00000100
00010000
,
00001000
00001000
00010000
00010000
00001000
00001000
00011000
00000000
,
00001000
00100000
00010000
01000000
00100000
00000000
10000000
01000000
,
10000000
00000000
00100000
01000000
00100000
00000000
10000000
00010000
10000000
00000000
00010000
01000000
00010000
00000000
10000000
00000000
,
01000000
00000000
00000000
11000000
00000000
00000000
00100000
00000000
01000000
00000000
00010000
00000000
00100000
00000000
00001000
00000000
,
00010000
00000000
00000000
00010100
00000000
00000000
00000100
00000000
00001000
00000000
00000100
00000000
00001000
00000000
00000010
00000000
,
00000100
00000001
00001000
00000100
00001000
00000100
00010000
00001000
,
01000000
00000000
00010000
01000000
00010000
00000000
10000000
00100000
10000000
00000000
00010000
01000000
00010000
00000000
00100000
00000000
,
00001000
00000000
00000000
00011000
00000000
00000000
00001000
00000000
00010000
00000000
00000010
00000000
00001000
00000000
00000001
00000000
,
00000100
00000000
00000000
00000110
00000000
00000000
00000100
00000000
00000010
00000000
00001000
00000000
00000100
00001000
00000100
00000000
,
00001000
00000100
00010000
00001000
00010000
00000100
00000100
00000100
,
00001000
00000010
00000001
00000010
00001000
00000100
00000001
00000100
,
00001000
00000000
00000000
00001100
00000000
00000000
00000100
00000000
00010000
00000000
00001000
00000000
01000000
00000000
00100000
00000000
,
10000000
00000000
00000000
10010000
00000000
00000000
10000000
00000000
00100000
00000000
01000000
00000000
00001000
00000000
00010000
00000000
,
00000010
00001000
00000100
00000010
00000001
00000100
00000100
00000100
,
00000010
00000000
00001000
00000010
00001000
00000000
00000001
00000100
00000001
00000000
00001000
00000010
00001000
00000000
00000100
00000000
,
00010000
00000000
00000000
00011000
00000000
00000000
00010000
00000000
00001000
00000000
00100000
00000000
00010000
00000000
01000000
00000000
,
00100000
00100000
01000000
01000000
00100000
00100000
00100000
10000000
,
00010000
10000000
01000000
00100000
00010000
01000000
00010000
01000000
,
00100000
00000000
10000000
00000000
00100000
00000000
01000000
00000000
00001000
00010000
00000000
00010000
00001000
00000000
00010000
00000000
,
00000100
00001000
00000010
00000100
00000001
00000100
00000010
00010000
,
00001000
00000000
00010000
00000000
00001000
00000000
01000000
00000000
00010000
01000000
00000000
01000000
00100000
00000000
01000000
00000000
,
00001000
00010000
00001000
00100000
00001000
00010000
00000100
00010000
,
00000100
00000000
00010000
00000000
00001000
00000000
00100000
00000000
00010000
01000000
00000000
01000000
00100000
00000000
10000000
00000000
,
01000000
00000000
00000000
11000000
00000000
00000000
00100000
01000000
00100000
00000000
00010000
01000000
00010000
00000000
01000000
00000000
,
00001000
00000000
00000000
00001000
00000000
00000000
00010000
00000000
00000100
00000000
00001000
00000000
00000010
00000000
00000100
00000000
,
00000001
00000010
00000001
00001000
00000100
00001000
00000001
00000010
,
00000100
00000000
00001000
00000000
00000100
00000000
00010000
00000000
00001000
00010000
00000000
00010000
00001000
00000000
01000000
00000000
,
00010000
01000000
00010000
10000000
00100000
10000000
00010000
01000000
,
00010000
00000000
10000000
00000000
01000000
00000000
00100000
00000000
00010000
00100000
00000000
00100000
00010000
00000000
00100000
00000000
,
00001000
00010000
00000010
00001000
00000001
00001000
00000010
00010000
,
00001000
00000000
00100000
00000000
00010000
00000000
01000000
00000000
00100000
01000000
00000000
01000000
00010000
00000000
00100000
00000000
,
00002000
00000000
00013000
00000010
00002000
00000000
00003001
00000100
,
00001000
00000000
00000000
00001000
00000000
00000000
00000100
00000000
00000001
00000000
00000000
00000000
00001001
00000000
00000000
00000000
,
00000001
00001000
00000010
00000010
00000010
00000000
00001000
00000100
,
00010000
00000000
00001000
00010000
00001000
00000000
00010000
00000100
00010000
00000000
00001000
00010000
00001000
00000000
00010000
00000000
,
00001000
00000000
00000000
01001000
00000000
00000000
00001000
00000000
01000000
00000000
00010000
00000000
10000000
00000000
00010000
00000000
,
01000000
00000000
00000000
01001000
00000000
00000000
01000000
00000000
00001000
00000000
00010000
00000000
00000010
00000000
00001000
00000000
,
00000001
00000100
00000010
00010000
00001000
00000000
00100000
00010000
,
01000000
00000000
00100000
01000000
00100000
00000000
01000000
00010000
01000000
00000000
00010000
10000000
00010000
00000000
10000000
00000000
,
01000000
00000000
00000000
10010000
00000000
00000000
01000000
00000000
00010000
00000000
00100000
00000000
00001000
00000000
00010000
00000000
,
00000010
00000000
00000000
00001010
00000000
00000000
00000010
00000000
00001000
00000000
00000001
00000000
00001000
00000000
00000100
00000000
,
00001000
00000100
00000100
00010000
00001000
00100000
00100000
00100000
,
00010000
00000000
10000000
00010000
01000000
00000000
00010000
10000000
01000000
00000000
10000000
00010000
10000000
00000000
00010000
00000000
,
01000000
00000000
00000000
01100000
00000000
00000000
01000000
00000000
00010000
00000000
00100000
00000000
00001000
00000000
00010000
00000000
,
00000010
00000000
00000000
00001010
00000000
00000000
00000010
00000000
00001000
00000000
00000001
00000000
00001000
00000000
00000100
00000000
,
00010000
00000000
00001000
00000000
01000000
00000000
00100000
00000000
10000000
00000000
01000000
10000000
01000000
00000000
10000000
00000000
,
00100000
00000000
01000000
00010000
01000000
00000000
00010000
01000000
00010000
00000000
01000000
00000000
00100000
00000000
10000000
00000000
,
01000000
00000000
00000000
01010000
00000000
00000000
01000000
00000000
00001000
00000000
00010000
00000000
00000100
00000000
00001000
00000000
,
00000001
00000000
00000000
00001001
00000000
00000000
00001000
00000000
00000100
00000000
00010000
00000000
00001000
00000000
01000000
00000000
,
00100000
00000000
00100000
00000000
00100000
00000000
00100000
00000000
10000000
01000000
00000000
00100000
00010000
00000000
01000000
00000000
,
00001000
00000000
00001000
00000000
00001000
00000000
00001000
00000000
00010000
00000100
00000000
00001000
00000100
00000000
00001000
00000000
,
00000010
00000000
00000010
00000000
00000010
00000000
00001000
00000000
00000001
00000010
00000000
00000100
00001000
00000000
00000010
00000000
,
00001000
00000000
00001000
00000000
00000100
00000000
00000100
00000000
00010000
00000000
00000000
00001000
00000000
00000000
00010000
00000000
,
00001000
01000000
00010000
00000000
01000000
00000000
00100000
00000000
,
10000000
01000000
00100000
00000000
00001000
00000000
00010000
00000000
,
00000010
00001000
00000100
00000000
00000001
00000000
00001000
00000000
,
00000100
00010000
00000100
00010000
00001000
00001000
00011000
00000000
,
00022000
00000000
00000000
00000000
,
00000000
00000000
00000000
00000000
,
00033000
00000000
00000000
00000000
;

//---------------dance-single - ----------------
#NOTES:
     dance-single:
     :
     Challenge:
     13:
     0.562,0.520,0.156,0.030,0.204: // measure 1
0000
0000
0000
0000
,  // measure 2
0000
0000
0000
0000
,  // measure 3
0000
0000
0000
0000
,  // measure 4
0000
0000
0000
0000
,  // measure 5
1000
0100
0010
0001
1000
0010
0100
0001
,  // measure 6
1000
0001
1000
0001
1000
0100
0010
0001
,  // measure 7
0001
0010
0100
1000
0010
1000
0010
1000
,  // measure 8
0001
0100
0010
1000
0001
0100
0001
1000
,  // measure 9
1000
0100
0010
0001
0010
1000
0010
0001
,  // measure 10
0010
0001
0100
0010
1000
0100
0010
0001
,  // measure 11
0001
0010
0100
1000
0010
1000
0100
1000
,  // measure 12
0001
0001
1000
1000
0001
0001
1001
0000
,  // measure 13
1000
0010
0100
0010
1000
0000
0001
0100
,  // measure 14
0001
0000
1000
0100
1000
0000
0001
1000
0001
0000
1000
0100
1000
0000
0001
0000
,  // measure 15
0100
0000
0000
0101
0000
0000
0100
0000
0001
0000
1000
0000
0010
0000
0100
0000
,  // measure 16
0001
0000
0000
1001
0000
0000
0001
0000
1000
0000
0010
0000
1000
0000
0001
0000
,  // measure 17
0100
0001
1000
0100
1000
0100
1000
0001
,  // measure 18
0100
0000
0001
0100
0001
0000
1000
0010
1000
0000
0001
0100
0001
0000
0100
0000
,  // measure 19
0001
0000
0000
1001
0000
0000
0001
0000
1000
0000
0100
0000
1000
0000
0001
0000
,  // measure 20
0100
0000
0000
0110
0000
0000
0100
0000
0010
0000
1000
0000
0100
1000
0100
0000
,  // measure 21
1000
0100
1000
0001
1000
0010
0010
0010
,  // measure 22
1000
0100
0001
0100
1000
0001
1000
0001
,  // measure 23
1000
0000
0000
1010
0000
0000
0010
0000
1000
0000
0001
0000
0010
0000
0100
0000
,  // measure 24
1000
0000
0000
1001
0000
0000
1000
0000
0100
0000
0010
0000
0001
0000
1000
0000
,  // measure 25
0100
0001
0100
1000
0001
0100
0100
0100
,  // measure 26
0001
0000
0100
0001
0100
0000
0010
1000
0010
0000
0100
0001
0100
0000
0010
0000
,  // measure 27
1000
0000
0000
1001
0000
0000
1000
0000
0001
0000
0100
0000
0001
0000
0100
0000
,  // measure 28
0010
0010
0100
0100
0001
1000
0001
1000
,  // measure 29
0001
0100
0010
0100
1000
0100
0001
0100
,  // measure 30
0010
0000
0100
0000
0010
0000
0100
0000
0001
1000
0000
1000
0001
0000
1000
0000
,  // measure 31
0010
0100
0001
0100
0010
1000
0100
1000
,  // measure 32
0010
0000
1000
0000
0001
0000
1000
0000
0001
0100
0000
0100
0001
0000
1000
0000
,  // measure 33
0001
1000
0001
0100
0001
1000
0010
1000
,  // measure 34
0010
0000
1000
0000
0001
0000
0100
0000
0010
1000
0000
0010
1000
0000
0010
0000
,  // measure 35
0100
0000
0000
0110
0000
0000
0100
0000
0010
0000
1000
0000
0001
0000
1000
0000
,  // measure 36
0001
0000
0000
1001
0000
0000
1000
0000
0001
0000
0100
0000
0000
0000
0010
0000
,  // measure 37
1000
0100
1000
0001
0010
0001
1000
0100
,  // measure 38
0010
0000
0001
0000
0010
0000
0100
0000
1000
0000
0000
1000
0001
0000
1000
0000
,  // measure 39
0010
0100
0010
0100
0001
1000
0010
0100
,  // measure 40
0001
0000
0010
0000
0100
0000
1000
0000
0001
0000
0000
1000
0001
0000
1000
0000
,  // measure 41
0001
1000
0100
1000
0001
0100
0001
1000
,  // measure 42
0001
0000
0100
0000
0001
0000
0000
0000
0100
0001
0000
0001
0100
0000
0010
0000
,  // measure 43
2000
0000
3001
0100
0002
0000
1003
0010
,  // measure 44
1000
0000
0000
0001
0000
0000
1000
0000
1001
0000
0000
0000
1001
0000
0000
0000
,  // measure 45
1000
0010
0100
0001
1000
0000
0001
0100
,  // measure 46
0001
0000
1000
0100
1000
0000
0001
1000
0001
0000
1000
0100
1000
0000
0001
0000
,  // measure 47
0100
0000
0000
0101
0000
0000
0100
0000
0001
0000
0010
0000
0100
0000
1000
0000
,  // measure 48
0001
0000
0000
1001
0000
0000
0001
0000
1000
0000
0010
0000
1000
0000
0001
0000
,  // measure 49
0100
0001
1000
0100
0010
0001
0100
0010
,  // measure 50
0100
0000
0001
0100
0001
0000
1000
0010
1000
0000
0001
0100
0001
0000
0100
0000
,  // measure 51
0001
0000
0000
1001
0000
0000
0001
0000
1000
0000
0010
0000
1000
0000
0001
0000
,  // measure 52
0100
0000
0000
0110
0000
0000
0100
0000
0010
0000
1000
0000
0100
1000
0100
0000
,  // measure 53
1000
0100
0010
0001
1000
0010
0010
0010
,  // measure 54
1000
0100
0001
0100
1000
0001
1000
0001
,  // measure 55
1000
0000
0000
1010
0000
0000
0010
0000
1000
0000
0001
0000
0010
0000
0100
0000
,  // measure 56
1000
0000
0000
1001
0000
0000
1000
0000
0100
0000
0010
0000
0001
0000
1000
0000
,  // measure 57
0100
0001
0100
1000
0001
0100
0100
0100
,  // measure 58
0001
0000
0100
0001
0100
0000
0010
1000
0010
0000
0100
0001
0100
0000
0010
0000
,  // measure 59
1000
0000
0000
1001
0000
0000
1000
0000
0001
0000
0100
0000
0001
0000
0100
0000
,  // measure 60
0010
0010
0100
0100
0001
1000
0001
0000
,  // measure 61
0100
0000
0100
0000
0100
0000
0100
0000
0001
0010
0000
0100
1000
0000
0010
0000
,  // measure 62
0100
0000
0100
0000
0100
0000
0100
0000
1000
0100
0000
0010
0001
0000
0100
0000
,  // measure 63
0010
0000
0010
0000
0010
0000
1000
0000
0001
1000
0000
1000
0001
0000
0100
0000
,  // measure 64
0001
0000
0001
0000
1000
0000
1000
0000
0001
0100
0000
0100
0001
0000
1000
0000
,  // measure 65
0001
1000
0010
0000
0010
1000
0100
0000
,  // measure 66
0010
0001
0100
0000
0001
0000
1000
0000
,  // measure 67
0100
0001
0010
0000
1000
0000
0001
0000
,  // measure 68
0010
1000
0010
1000
0001
0001
1001
0000
,  // measure 69
2002
0000
0000
0000
,  // measure 70
0000
0000
0000
0000
,  // measure 71
3003
0000
0000
0000
;
