#TITLE:THE CANNONBALLER;
#SUBTITLE:;
#ARTIST:L.E.D. feat. YURiCA/花たん;
#TITLETRANSLIT:;
#SUBTITLETRANSLIT:;
#ARTISTTRANSLIT:L.E.D. feat. YURiCA/Hanatan;
#GENRE:;
#CREDIT:;
#BANNER:THE CANNONBALLER.png;
#BACKGROUND:THE CANNONBALLER-bg.png;
#LYRICSPATH:;
#CDTITLE:;
#MUSIC:THE CANNONBALLER.ogg;
#OFFSET:0.342499;
#SAMPLESTART:49.942238;
#SAMPLELENGTH:13.180000;
#SELECTABLE:YES;
#BPMS:0.000000=170.000000
;
#STOPS:
;
#BGCHANGES:;
#KEYSOUNDS:;
#ATTACKS:;

//---------------dance-single - ----------------
#NOTES:
     dance-single:
     :
     Hard:
     12:
     0.573545,0.649167,0.355556,0.274074,0.114815,542.000000,494.000000,48.000000,37.000000,0.000000,0.000000,0.573545,0.649167,0.355556,0.274074,0.114815,542.000000,494.000000,48.000000,37.000000,0.000000,0.000000:
0000
0000
0000
0000
,
0000
0000
0000
0000
,
0000
0000
0000
0000
,
0000
0000
0000
0000
,
0000
0000
0000
0000
,
0000
0000
0000
0000
,
0010
0000
0000
0010
1000
0000
0000
1000
0100
0000
0000
0100
0010
0000
0100
0000
,
0000
0000
0001
0000
0010
0000
0100
0000
1000
0000
0000
0001
0000
0000
1000
0000
,
0010
0000
0000
0010
0100
0000
0000
0100
0001
0000
0000
0001
0000
0000
0001
0000
,
0000
1000
0100
0010
0001
0000
1001
0000
,
0100
0001
1000
0001
0000
1000
0010
0100
,
0000
0001
1000
0100
0000
0001
0010
0100
,
1000
0000
0020
0200
0000
0000
0330
0000
,
0002
0103
2000
3100
,
0000
0100
0001
0100
0010
0100
1000
0100
,
0001
0000
1000
0100
0000
0011
0000
1100
,
0000
0001
0200
0000
0010
0000
0310
0000
,
1001
0000
0000
0001
0100
0000
0000
0100
1000
0000
0000
1000
0100
0000
0000
0100
,
0001
0100
0010
0100
0000
0001
1000
0100
,
0000
1000
0001
0100
0000
1000
0100
0010
,
0001
0000
0200
0020
0000
0000
0330
0000
,
0001
0100
0010
0000
1000
0100
0010
0000
,
0001
0100
0010
0100
0001
1000
0100
0010
,
0001
0000
0100
0001
0010
0100
1000
0010
,
0000
0100
0002
0000
1000
0000
0103
0000
,
1000
0001
0100
1001
,
0001
0000
0000
0010
0000
0000
0001
0000
0000
0000
0100
0000
0010
0000
0000
0000
,
1000
0000
0000
0100
0000
0000
1000
0000
0000
0000
0010
0000
0100
0000
0000
0000
,
0101
0000
1100
0000
0011
0000
1000
0010
,
0100
0001
1000
0000
1001
0000
1000
0001
,
0100
0000
0000
0010
0000
0000
2000
0000
0000
0000
0001
0000
3001
0000
0100
0000
,
0010
0000
0000
0100
0000
0000
0002
0000
0000
0000
1000
0000
1003
0000
0000
0000
,
0000
0001
1001
0000
1000
0000
1100
0000
,
0011
0000
0110
0000
1001
0000
0001
0100
,
0000
0010
2000
0002
0000
0000
3003
0000
,
0220
0000
0000
0330
0000
0001
0100
0010
,
1000
1000
0001
0001
1000
0000
0010
0100
,
0000
0010
0200
0000
0300
0001
0010
0001
,
1000
1000
0100
0100
1000
0000
0010
0200
,
0000
0302
0000
0000
1003
0000
0001
0100
,
0020
0000
1030
1100
0000
0101
0000
1100
,
0000
0001
0100
0000
0010
1000
0100
0010
,
0001
0000
0100
0010
0000
1001
0000
0110
,
0000
1000
0100
0001
0000
1000
0010
0001
,
0010
1000
0100
1000
0010
0000
1000
0001
,
0000
0200
0020
0000
0330
1000
0001
0100
,
0001
1000
0100
0010
0002
0000
0103
0020
,
0000
2000
0000
3030
0000
0001
0100
0001
,
0100
0000
0010
1000
0000
0101
0000
1100
,
0000
0001
0010
0000
1000
0100
0001
0100
,
1000
0000
0010
0001
0000
0110
0000
1001
,
0000
0010
1000
0100
0010
0000
0001
1000
,
0000
0000
0001
0000
0200
0000
0000
0000
0310
0000
0000
1000
0000
0000
0010
0000
,
0100
0001
0100
0010
0100
0000
1001
0000
,
1000
0000
0000
1000
0010
0000
0000
0010
0100
0000
0001
0000
0000
0000
1000
0000
,
0000
0010
0100
0001
1000
0100
0010
0001
,
1001
0000
0000
0000
0101
0000
0000
0000
0010
0000
0000
1000
0000
0000
0010
0000
,
0000
0100
0001
1000
0010
1000
0100
0010
,
0001
0000
0000
0001
0010
0000
0000
0010
0100
0000
0001
0000
0100
0000
1000
0000
,
0000
0001
0010
1000
0010
0001
0100
0010
,
1000
0001
1000
0100
0010
0001
1000
0010
,
0000
1000
0001
0000
0000
1000
0001
1000
,
0100
0010
0001
0100
1000
0100
0001
0010
,
0000
0001
0100
1000
0000
0100
0001
1000
,
0100
0010
0100
0010
1000
0100
1000
0100
,
0010
0001
0010
0001
0000
1000
0100
0010
,
0001
0000
0101
0101
0000
0110
0000
2002
,
0000
0000
0000
3003
0000
0001
0010
0100
,
1000
1000
0001
0001
1000
0000
0010
0100
,
0000
0010
0200
0000
0300
0001
0010
0001
,
1000
1000
0100
0100
1000
0000
0010
0200
,
0000
0302
0000
0000
1003
0000
0001
0100
,
0020
0000
1030
1100
0000
0101
0000
1100
,
0000
0001
0100
0000
0010
1000
0100
0010
,
0001
0000
0100
0010
0000
1001
0000
0110
,
0000
1000
0100
0001
0000
1000
0010
0001
,
0010
1000
0100
1000
0010
0000
1000
0001
,
0000
0200
0020
0000
0330
1000
0001
0100
,
0001
1000
0100
0010
0002
0000
0103
0020
,
0000
2000
0000
3030
0000
0001
0100
0001
,
0100
0000
0010
1000
0000
0101
0000
1100
,
0000
0001
0010
0000
1000
0100
0001
0100
,
1000
0000
0010
0001
0000
0110
0000
1001
,
0000
0010
1000
0100
0010
0001
1000
2002
,
0000
0000
0000
0000
3003
0000
0000
0010
,
0000
1000
0001
0100
0010
0000
1010
0000
,
0101
0000
0000
0001
1000
0000
0000
1000
0100
0000
0000
1000
0000
0000
0010
0000
,
0000
0100
0001
0100
0010
0010
1000
0100
,
0010
0000
0000
0000
0101
0000
0000
0000
1000
0000
0000
0001
0000
0000
1001
0000
,
0000
0000
0010
0000
0100
0000
0001
0000
1000
0000
0000
0001
0000
0000
0100
0000
,
0110
0000
0000
0010
1000
0000
0000
1000
0001
0000
0000
1000
0000
0000
0101
0000
,
0000
0000
1000
0000
1000
0000
1000
0000
0001
0010
0001
0000
1000
0100
1000
0000
,
0000
1001
0000
0000
;

//---------------dance-single - ----------------
#NOTES:
     dance-single:
     :
     Beginner:
     3:
     0.138624,0.205000,0.044444,0.177778,0.000000,131.000000,125.000000,6.000000,24.000000,0.000000,0.000000,0.138624,0.205000,0.044444,0.177778,0.000000,131.000000,125.000000,6.000000,24.000000,0.000000,0.000000:
0000
0000
0000
0000
,
0000
0000
0000
0000
,
0000
0000
0000
0000
,
0000
0000
0000
0000
,
0000
0000
0000
0000
,
0000
0000
0000
0000
,
0010
0000
0010
0000
,
0001
0000
1000
0000
,
0010
0000
0010
0000
,
1000
0000
0001
0000
,
0200
0000
0300
0000
,
0200
0000
0300
0000
,
0200
0000
0000
0000
,
0300
0000
0000
0000
,
0020
0000
0030
0000
,
0020
0000
0030
0000
,
0020
0000
0000
0000
,
0030
0000
0000
0000
,
2000
0000
3000
0000
,
2000
0000
3000
0000
,
2000
0000
0000
0000
,
3000
0000
0000
0000
,
0002
0000
0003
0000
,
0002
0000
0003
0000
,
0002
0000
0000
0000
,
0003
0000
0000
0000
,
0110
0000
0000
0000
,
1001
0000
0000
0000
,
0010
0000
0010
0000
,
0010
0000
0000
0000
,
0100
0000
0000
0000
,
0001
0000
0000
0000
,
0010
0000
0010
0000
,
0010
0000
0010
0000
,
2002
0000
0000
0000
,
3003
0000
0000
0000
,
1000
0000
1000
0000
,
2000
0000
3000
0000
,
0001
0000
0001
0000
,
0002
0000
0003
0000
,
1000
0000
0000
0000
,
0001
0000
0000
0000
,
1000
0000
0001
0000
,
2000
0000
3000
0000
,
0010
0000
0010
0000
,
0020
0000
0030
0000
,
0100
0000
0100
0000
,
0200
0000
0300
0000
,
0010
0000
0100
0000
,
0020
0000
0030
0000
,
0100
0000
0010
0000
,
0200
0000
0300
0000
,
0001
0000
0001
0000
,
1000
0000
1000
0000
,
0010
0000
0010
0000
,
0100
0000
0100
0000
,
0001
0000
1000
0000
,
0001
0000
1000
0000
,
0010
0000
0100
0000
,
1001
0000
0000
0000
,
1000
0000
0000
0000
,
0001
0000
0000
0000
,
1000
0000
0000
0000
,
0001
0000
0000
0000
,
1000
0000
1000
0000
,
0001
0000
0001
0000
,
1000
0000
0001
0000
,
2002
0000
3003
0000
,
0010
0000
0010
0000
,
0010
0010
0000
0000
,
0100
0000
0100
0000
,
0100
0100
0000
0000
,
0001
0000
0100
0000
,
1000
0000
0000
0000
,
0001
0000
0100
0000
,
1000
0000
0000
0000
,
0010
0000
0100
0000
,
0010
0010
0000
0000
,
0100
0000
0010
0000
,
0100
0100
0000
0000
,
0001
0000
0000
0000
,
1000
0000
0000
0000
,
0010
0000
0100
0000
,
0020
0000
0030
0000
,
1000
0000
1000
0000
,
0001
0000
0001
0000
,
1000
0000
0100
0000
,
0010
0000
0001
0000
,
0100
0000
0100
0000
,
0010
0000
0010
0000
,
0001
0000
0010
0000
,
0100
0000
1000
0000
,
0000
1001
0000
0000
;

//---------------dance-single - ----------------
#NOTES:
     dance-single:
     :
     Easy:
     6:
     0.294180,0.341667,0.229630,0.577778,0.000000,278.000000,247.000000,31.000000,78.000000,0.000000,0.000000,0.294180,0.341667,0.229630,0.577778,0.000000,278.000000,247.000000,31.000000,78.000000,0.000000,0.000000:
// measure 0
0000
0000
0000
0000
,  // measure 1
0000
0000
0000
0000
,  // measure 2
0000
0000
0000
0000
,  // measure 3
0000
0000
0000
0000
,  // measure 4
0000
0000
0000
0000
,  // measure 5
0000
0000
0000
0000
,  // measure 6
0010
0000
0010
0000
,  // measure 7
0001
0100
1000
0000
,  // measure 8
0010
0000
0010
0000
,  // measure 9
1000
0100
0001
0000
,  // measure 10
1000
0100
1000
0100
,  // measure 11
0001
0100
0001
0100
,  // measure 12
0020
0000
0200
0000
,  // measure 13
0330
0001
1000
0100
,  // measure 14
1000
1000
0001
0001
,  // measure 15
1000
0100
0010
0001
,  // measure 16
0200
0000
0020
0330
,  // measure 17
0001
0010
0100
1000
,  // measure 18
0010
1000
0200
0300
,  // measure 19
0010
0001
0200
0300
,  // measure 20
0020
0030
2002
0000
,  // measure 21
0000
0000
3003
0000
,  // measure 22
0010
1000
0200
0300
,  // measure 23
0010
0001
0200
0300
,  // measure 24
1000
0000
2002
0000
,  // measure 25
0000
0000
3003
0000
,  // measure 26
0010
1000
1001
0000
,  // measure 27
0010
0001
1001
0000
,  // measure 28
1000
0100
0010
0001
,  // measure 29
0110
0000
1001
0000
,  // measure 30
0001
0100
1100
0000
,  // measure 31
1000
0100
0101
0000
,  // measure 32
0001
0010
0100
1000
,  // measure 33
0001
0100
1000
0100
,  // measure 34
0002
0003
2000
3000
,  // measure 35
0220
0000
0330
0000
,  // measure 36
0001
1000
0200
0300
,  // measure 37
1000
0001
0200
0300
,  // measure 38
0001
0010
0100
1000
,  // measure 39
0001
1000
0002
0003
,  // measure 40
2000
3000
2200
3300
,  // measure 41
0002
0003
0202
0303
,  // measure 42
0010
0100
0010
0100
,  // measure 43
2002
3003
0220
0330
,  // measure 44
0001
1000
0200
0300
,  // measure 45
1000
0001
0020
0030
,  // measure 46
0001
0100
0010
1000
,  // measure 47
0200
0300
0020
0030
,  // measure 48
2000
0100
0200
3300
,  // measure 49
0002
0100
0200
0303
,  // measure 50
0020
0100
0200
0330
,  // measure 51
2002
3003
0220
0330
,  // measure 52
1000
0001
0100
0001
,  // measure 53
1000
0100
0010
0001
,  // measure 54
1000
1000
0001
0001
,  // measure 55
0100
0010
0100
0010
,  // measure 56
0001
1000
0010
0100
,  // measure 57
0001
0001
1000
1000
,  // measure 58
0010
0100
0020
0030
,  // measure 59
1100
0000
0101
0000
,  // measure 60
2002
0000
0000
0000
,  // measure 61
3003
0000
0010
0000
,  // measure 62
2002
0000
0000
0000
,  // measure 63
3003
0000
0100
0000
,  // measure 64
1001
0000
0010
0000
,  // measure 65
1001
0000
0100
0000
,  // measure 66
1000
0100
0010
0001
,  // measure 67
2002
0000
3003
0000
,  // measure 68
0001
1000
0200
0300
,  // measure 69
1000
0001
0200
0300
,  // measure 70
0001
0010
0100
1000
,  // measure 71
0001
1000
0002
0003
,  // measure 72
2000
3000
2200
3300
,  // measure 73
0002
0003
0202
0303
,  // measure 74
0010
0100
0010
0100
,  // measure 75
2002
3003
0220
0330
,  // measure 76
0001
1000
0200
0300
,  // measure 77
1000
0001
0020
0030
,  // measure 78
0001
0100
0010
1000
,  // measure 79
0200
0300
0020
0030
,  // measure 80
2000
0100
0200
3300
,  // measure 81
0002
0100
0200
0303
,  // measure 82
0020
0100
0200
0330
,  // measure 83
2002
3003
0220
0330
,  // measure 84
1000
0100
1000
0100
,  // measure 85
0001
0100
0001
0100
,  // measure 86
0010
0010
0010
0010
,  // measure 87
1000
0100
0010
0001
,  // measure 88
0100
0100
1001
0000
,  // measure 89
0010
0010
1001
0000
,  // measure 90
0001
0100
1000
0100
,  // measure 91
0001
0010
0100
1000
,  // measure 92
0000
1001
0000
0000
;

//---------------dance-single - ----------------
#NOTES:
     dance-single:
     :
     Medium:
     8:
     0.391534,0.546667,0.340741,0.318519,0.000000,370.000000,324.000000,46.000000,43.000000,0.000000,0.000000,0.391534,0.546667,0.340741,0.318519,0.000000,370.000000,324.000000,46.000000,43.000000,0.000000,0.000000:
// measure 0
0000
0000
0000
0000
,  // measure 1
0000
0000
0000
0000
,  // measure 2
0000
0000
0000
0000
,  // measure 3
0000
0000
0000
0000
,  // measure 4
0000
0000
0000
0000
,  // measure 5
0000
0000
0000
0000
,  // measure 6
0010
0100
0010
1000
,  // measure 7
0001
0100
1000
0100
,  // measure 8
0010
0010
0001
1000
,  // measure 9
0000
0010
0100
0000
0220
0000
0330
0000
,  // measure 10
1000
0100
1000
0100
,  // measure 11
0001
0100
0001
0100
,  // measure 12
0010
0000
2000
0002
0000
0000
3003
0000
,  // measure 13
0001
0010
0100
1000
,  // measure 14
0001
1000
0001
0100
,  // measure 15
1000
0100
0001
0100
,  // measure 16
0010
2002
0000
3003
,  // measure 17
0001
0010
0100
1000
,  // measure 18
0010
1000
0100
1001
,  // measure 19
0010
0001
0100
1001
,  // measure 20
0010
0000
0002
2000
0000
0000
0000
0000
,  // measure 21
0000
0000
3003
0100
,  // measure 22
0010
1000
1001
1000
,  // measure 23
0010
0001
1001
0001
,  // measure 24
1000
0001
1000
0001
,  // measure 25
0100
0010
0220
0330
,  // measure 26
0010
0000
1000
0000
1000
0001
1000
0000
,  // measure 27
0010
0000
0001
0000
0001
1000
0001
0000
,  // measure 28
1000
0100
0010
0001
,  // measure 29
0110
0000
1001
0000
,  // measure 30
0001
0000
0100
0000
1000
0100
1000
0000
,  // measure 31
0100
0000
0001
0000
0100
0001
0100
0000
,  // measure 32
0001
0010
0100
1000
,  // measure 33
0001
0100
0001
0000
1000
0100
1000
0000
,  // measure 34
0002
0103
2000
3100
,  // measure 35
0220
0000
0330
0000
,  // measure 36
0001
1000
0001
0101
,  // measure 37
1000
0001
1000
1100
,  // measure 38
0001
0010
0100
1001
,  // measure 39
0100
0010
0002
1003
,  // measure 40
0010
0100
0101
0101
,  // measure 41
1000
0010
1010
1010
,  // measure 42
0010
0100
0010
0100
,  // measure 43
2002
3003
0220
0330
,  // measure 44
0001
1000
0001
1000
,  // measure 45
0001
0010
1000
0100
,  // measure 46
0001
0100
1000
0100
,  // measure 47
1000
0010
0002
1003
,  // measure 48
1000
0100
2002
3003
,  // measure 49
0001
0100
2002
3003
,  // measure 50
0010
0100
0010
0100
,  // measure 51
0000
0001
1000
0001
1000
0000
0110
0000
,  // measure 52
0010
0000
1000
0000
0100
1000
0100
0000
,  // measure 53
0010
0001
0200
0300
,  // measure 54
0010
0000
1000
0000
0001
0100
0001
0000
,  // measure 55
1000
0100
0020
0030
,  // measure 56
0001
1100
0001
0100
,  // measure 57
0010
1000
0010
0000
0200
0000
0300
0000
,  // measure 58
0001
1010
0001
0100
,  // measure 59
0000
0010
1000
0000
0001
0000
0000
0000
,  // measure 60
2002
0000
0000
0000
,  // measure 61
3003
0000
0100
0000
,  // measure 62
2002
0000
0000
0000
,  // measure 63
3003
0000
0010
0000
,  // measure 64
1000
0001
1000
0000
0010
0000
0010
0000
,  // measure 65
0001
1000
0001
0000
0010
0000
0010
0000
,  // measure 66
1000
0100
0010
0001
,  // measure 67
2002
0000
3003
0000
,  // measure 68
0001
1000
0001
0101
,  // measure 69
1000
0001
1000
1100
,  // measure 70
0001
0010
0100
1001
,  // measure 71
0100
0010
0002
1003
,  // measure 72
0010
0100
0101
0101
,  // measure 73
1000
0010
1010
1010
,  // measure 74
0010
0100
0010
0100
,  // measure 75
2002
3003
0220
0330
,  // measure 76
0001
1000
0001
1000
,  // measure 77
0001
0010
1000
0100
,  // measure 78
0001
0100
1000
0100
,  // measure 79
1000
0010
0002
1003
,  // measure 80
1000
0100
2002
3003
,  // measure 81
0001
0100
2002
3003
,  // measure 82
0010
0100
0010
0100
,  // measure 83
0000
0001
1000
0001
1000
0001
1000
0000
,  // measure 84
0010
0100
0010
0000
1000
0000
0100
0000
,  // measure 85
0010
0100
0010
0000
0001
0000
0100
0000
,  // measure 86
0010
0010
0110
0110
,  // measure 87
1000
0100
0010
1001
,  // measure 88
0100
0010
0100
0000
1001
0000
1001
0000
,  // measure 89
0010
0100
0010
0000
1001
0000
1001
0000
,  // measure 90
0001
0100
1000
0100
,  // measure 91
0001
1000
0010
0000
1000
0001
0010
0000
,  // measure 92
0000
1001
0000
0000
;
