#TITLE:Surf On The Light;
#SUBTITLE:(HI-TIDE MIX);
#ARTIST:Tomoyuki Uchida feat. Toxsa Dalton;
#TITLETRANSLIT:;
#SUBTITLETRANSLIT:;
#ARTISTTRANSLIT:;
#GENRE:;
#CREDIT:;
#MENUCOLOR:;
#METERTYPE:DDR;
#BANNER:Surf On The Light (HI-TIDE MIX).png;
#BACKGROUND:Surf On The Light (HI-TIDE MIX)-bg.png;
#LYRICSPATH:;
#CDTITLE:;
#MUSIC:Surf On The Light (HI-TIDE MIX).ogg;
#OFFSET:-0.080;
#SAMPLESTART:64.913;
#SAMPLELENGTH:13.333;
#SELECTABLE:YES;
#LISTSORT:;
#BPMS:0.000=180.000,304.000=150.000,312.000=147.000,316.000=138.000,318.000=130.000,320.000=118.000,321.000=116.000,321.500=114.000,322.000=101.000,322.500=91.000,324.000=111.000,325.000=99.000,326.000=90.000,327.500=71.000,329.250=60.000;
#STOPS:;
#BGCHANGES:;
#ATTACKS:;

//---------------dance-single - ----------------
#NOTES:
     dance-single:
     :
     Hard:
     12:
     0.592,0.691,0.183,0.175,0.213:
0000
0000
0000
0000
,
0000
0000
0000
0000
,
0000
0000
0000
0000
,
0000
0000
0000
0000
,
0000
0000
0000
0000
,
0010
0000
0000
0000
0000
0000
0000
0001
,
1000
0000
0000
0000
0000
0000
0000
0001
,
1000
0000
0000
0001
1000
0000
0000
0001
,
1000
0000
0100
0000
0010
0000
0001
1000
,
0001
0000
1000
0000
0000
1000
0000
0000
0001
0000
0000
0001
0000
0000
0001
0000
,
1000
0100
0000
0000
0100
0000
0000
0010
0000
0000
0010
0000
1000
0000
0100
0000
,
0001
0000
0100
0000
0000
0100
0000
0000
1000
0000
0000
1000
0000
0000
1000
0000
,
0010
1000
0000
0000
1000
0000
0000
0001
0000
0000
1000
0000
0100
0000
1000
0000
,
0001
0000
1000
0000
0000
0001
0000
0000
0001
0000
0000
0001
0000
0000
1000
0000
,
0001
1000
0000
0000
0001
0000
0000
0001
0000
0000
0100
0000
0001
0000
0100
0000
,
0010
0000
1000
0000
0000
0010
0000
0000
0100
0000
0000
0010
0000
0000
0100
0000
,
0001
0100
0001
1000
0001
1000
0001
1000
,
0001
0000
0000
0001
0000
0000
0001
0000
0000
0000
1000
0000
0010
0000
0100
0000
,
0001
0000
0000
0001
0000
0000
0001
0000
0000
0000
1000
0000
0100
0000
0010
0000
,
0001
0000
0000
0001
0000
0000
0001
0000
0000
0000
1000
0000
0010
0000
0100
0000
,
0001
0000
0000
0001
0000
0000
0001
0000
0000
0000
0100
0000
0001
0000
1000
0000
,
0010
0000
0000
0010
0000
0000
0010
0000
0000
0000
0001
0000
1000
0000
0001
0000
,
0100
0000
0000
0100
0000
0000
0100
0000
0000
0000
0001
0000
1000
0000
0010
0000
,
1000
0000
0000
1000
0000
0000
1000
0000
0000
0000
0001
0000
0100
0000
0001
0000
,
0000
0000
1100
0000
0000
0101
0000
0000
1001
0000
0000
1001
0000
0000
0001
0000
,
1000
0001
1000
0001
1000
0000
0010
0100
,
0000
0001
1000
0000
0000
0001
1000
0100
,
0000
1000
0001
0100
0000
0001
1000
0010
,
0000
0001
1000
0100
0000
0010
0100
0010
,
0100
0001
0100
0001
0100
0000
0010
1000
,
0000
0001
1000
0000
0001
0100
0001
0100
,
0000
1000
0100
1000
0000
0010
0100
0010
,
0000
1000
0001
0100
0001
0001
1000
0000
,
0010
1000
0010
1000
0010
0000
0100
0001
,
0000
0100
0001
0000
1000
0100
1000
0100
,
0000
0001
0100
0001
0000
1000
0010
1000
,
0000
0001
0010
0001
0000
0100
0010
0100
,
0010
1000
0010
1000
0001
0000
0100
0001
,
0000
0001
0100
0000
0010
1000
0100
1000
,
0000
0010
0001
0100
0000
0010
1000
0200
,
0000
0310
0000
0001
0100
0010
1000
0010
,
0000
1000
0100
1000
0100
1000
0010
0100
,
0001
0000
0000
0001
0000
0000
0100
0000
0000
0000
0100
0000
0010
0000
1000
0000
,
0000
0001
0100
0001
0100
0001
0100
0010
,
1000
0000
0000
1000
0000
0000
1000
0000
0000
0000
0010
0000
0100
0000
0010
0000
,
0000
1000
0010
0001
0000
1000
0100
0001
,
0000
1001
0000
0001
0010
0100
1000
0010
,
0000
1000
0001
0100
0000
1000
0000
1001
,
0000
0110
0110
0000
0000
0001
0100
0001
,
0000
1000
0010
1000
0010
1000
0001
1000
,
0001
0000
0000
1000
0000
0000
0001
0000
0000
0000
0100
0000
0010
0000
1000
0000
,
0000
0001
0100
0001
1000
0001
0100
0001
,
0010
0000
0000
0010
0000
0000
0001
0000
0000
0000
1000
0000
0001
0000
0100
0000
,
0000
0001
1000
0100
0000
1000
0010
0100
,
0000
0001
0000
1000
0100
0010
0001
0100
,
0010
0000
0000
1000
0000
0000
0001
0000
0000
0000
1000
0000
0001
0000
0100
0000
,
0000
0000
0001
0000
0100
0000
0001
0000
1000
0000
0000
0001
0000
0000
1001
0000
,
0000
1000
0100
1000
0010
1000
0001
1000
,
0100
0000
0000
0100
0000
0000
1001
0000
0000
0000
0010
0000
0100
0000
0010
0000
,
0000
0001
0010
0001
0100
0001
1000
0001
,
0100
0000
0000
0100
0010
0000
0000
0010
1000
0000
0000
1000
0001
0000
0200
0000
,
0000
0300
1000
0200
0000
0300
0001
0020
,
0000
0030
1000
0020
0000
0030
0001
0200
,
0000
0300
1000
0002
0000
0003
1000
0100
,
0001
0000
0000
1000
0000
0000
0001
0000
0000
1000
0000
0000
0001
0000
0100
0000
,
1000
0000
0000
0001
0000
0000
2002
0000
0000
0000
0000
0000
3003
0000
0000
0000
,
0001
0100
0001
0100
1000
0100
1000
0100
,
0001
0000
0000
0001
0000
0000
0001
0000
0000
0000
0100
0000
0010
0000
1000
0000
,
0001
0000
0000
0001
0000
0000
0001
0000
0000
0000
0100
0000
0010
0000
1000
0000
,
0001
0000
0000
0001
0000
0000
0001
0000
0000
0000
0100
0000
0010
0000
1000
0000
,
0001
0000
0000
0001
0000
0000
0100
0000
0000
0000
0010
0000
1000
0000
0001
0000
,
0100
0000
0000
0100
0000
0000
0100
0000
0000
0000
0001
0000
1000
0000
0010
0000
,
0100
0000
0000
0100
0000
0000
0100
0000
0000
0000
0001
0000
1000
0000
0010
0000
,
1000
0000
0000
1000
0000
0000
1000
0000
0000
0000
0001
0000
0100
0000
0010
0000
,
0000
0000
1001
0000
0000
1001
0000
0000
0101
0000
0000
0101
0000
0000
1001
0000
,
0000
0000
0110
0000
0000
0110
0000
0000
0110
0000
0000
0110
0000
0000
2002
0000
,
0000
0000
0000
0000
0000
3003
0001
0200
,
0000
0300
0010
2000
0000
3001
0100
0020
,
0000
2030
0000
3001
0100
0001
0100
0001
,
2000
0000
0000
0000
3000
0000
0010
0000
0020
0000
0000
0000
0030
0000
0100
0001
,
0100
0010
2000
0000
3001
0100
0020
0000
,
1030
0100
0010
0001
1000
0100
0010
0001
,
0000
0000
0000
1000
0001
0000
0000
0000
0000
0000
0000
0000
0000
0000
0000
0000
0000
0000
0000
0000
0000
0000
0220
0000
0000
0000
0000
0000
0000
0000
0000
0000
0000
0000
0000
0000
0000
0000
0000
0000
0000
0000
0000
0000
0330
0000
0000
0000
;

//---------------dance-double - ----------------
#NOTES:
     dance-double:
     :
     Hard:
     12:
     0.548,0.691,0.192,0.133,0.138:
00000000
00000000
00000000
00000000
,
00000000
00000000
00000000
00000000
,
00000000
00000000
00000000
00000000
,
00000000
00000000
00000000
00000000
,
00000000
00000000
00000000
00000000
,
00010000
00000000
00000000
00000000
00000000
00000000
00000000
00001000
,
00010000
00000000
00000000
00000000
00000000
00000000
00000000
00001000
,
00010000
00000000
00000000
00001000
00010000
00000000
00000000
00001000
,
00010000
00100000
01000000
10000000
,
00100000
10000000
01000000
00000000
01000000
00000000
00010000
00000000
,
00100000
00001000
00010000
00000000
00010000
00000000
00000100
00000000
,
00001000
00000010
00000100
00000000
00000100
00000000
00000001
00000000
,
00000010
00001000
00000100
00000000
00000100
00000000
00001000
00000000
,
00000010
00001000
00000100
00000000
00000001
00000000
00001000
00000000
,
00000100
00010000
00001000
00000000
00010000
00000000
00001000
00000000
,
00100000
00010000
01000000
00000000
00100000
10000000
01000000
00000000
,
10000000
01000000
00100000
00010000
01000000
00000000
10010000
00000000
,
10000000
00000000
00000000
10000000
00000000
00000000
10000000
00000000
00000000
00000000
00100000
00000000
01000000
00000000
00000000
00000000
,
00001000
00000000
00000000
00001000
00000000
00000000
00001000
00000000
00000000
00000000
00010000
00000000
00000010
00000000
00000000
00000000
,
00000100
00000000
00000000
00000100
00000000
00000000
00000100
00000000
00000000
00000000
00000001
00000000
00001000
00000000
00000000
00000000
,
00000010
00000000
00000000
00000010
00000000
00000000
00000010
00000000
00000000
00000000
00010000
00000000
00001000
00000000
00000000
00000000
,
00100000
00000000
00000000
00100000
00000000
00000000
00100000
00000000
00000000
00000000
00010000
00000000
01000000
00000000
00000000
00000000
,
10000000
00000000
00000000
10000000
00000000
00000000
10000000
00000000
00000000
00000000
00010000
00000000
00100000
00000000
00000000
00000000
,
00001000
00000000
00000000
00001000
00000000
00000000
00001000
00000000
00000000
00000000
00010000
00000000
00000100
00000000
00001000
00000000
,
00000000
00000000
00000010
00000000
00000000
00000010
00000000
00000000
00001000
00000000
00000000
00000001
00000000
00000000
00001001
00000000
,
00000000
00000100
00000010
00000100
00000010
00000000
00001000
00000100
,
00000000
00000010
00000001
00000000
00000010
00000100
00000010
00000100
,
00000000
00001000
00000100
00001000
00000000
00010000
00001000
00010000
,
00000000
00001000
00100000
00000000
00100000
00010000
01000000
00000000
,
00000000
00100000
10000000
00100000
10000000
00000000
00010000
01000000
,
00000000
00010000
00100000
00000000
00100000
00001000
00100000
00001000
,
00000000
00010000
00001000
00010000
00000000
00010000
00000010
00010000
,
00000000
00000010
00000000
00000010
00000100
00000001
00001000
00000010
,
00000000
00000100
00000001
00000100
00000001
00000000
00001000
00000100
,
00000000
00010000
00000100
00000000
00010000
00001000
00010000
00001000
,
00000000
00100000
00010000
00100000
00000000
01000000
00100000
01000000
,
00000000
10000000
01000000
10000000
00000000
00100000
01000000
00100000
,
00000000
10000000
00010000
01000000
00010000
00100000
00010000
00100000
,
00000000
00001000
00010000
00000000
00010000
00000100
00001000
00000100
,
00000000
00001000
00000010
00000100
00000000
00000100
00000001
00001000
,
00000000
00001010
00000000
00000001
00000100
00000010
00001000
00000100
,
00000000
00001000
00000100
00001000
00000100
00001000
00000100
00010000
,
00001000
00000000
00000000
00001000
00000000
00000000
00100000
00000000
00000000
00000000
00010000
00000000
01000000
00000000
00100000
00000000
,
00000000
10000000
01000000
10000000
01000000
10000000
00100000
10000000
,
00010000
00000000
00000000
01000000
00000000
00000000
00010000
00000000
00000000
00000000
00100000
00000000
00001000
00000000
00010000
00000000
,
00000000
00010000
00000100
00001000
00000000
00001000
00000010
00000100
,
00000000
00000101
00000000
00000001
00001000
00000010
00000100
00001000
,
00000000
00000000
00000100
00001000
00000000
00001100
00000000
00011000
,
00000000
00110000
00110000
00000000
00100000
01000000
10000000
00000000
,
00010000
01000000
00010000
10000000
00010000
01000000
00010000
00100000
,
00001000
00000000
00000000
00001000
00000000
00000000
00010000
00000000
00000000
00000000
00010000
00000000
00000100
00000000
00001000
00000000
,
00000000
00000010
00001000
00000001
00001000
00000010
00001000
00000100
,
00001000
00000000
00000000
00001000
00000000
00000000
00001000
00000000
00000000
00000000
00000100
00000000
00010000
00000000
00001000
00000000
,
00000000
00100000
00001000
00100000
00000000
00010000
01000000
00010000
,
00000000
10000000
00000000
01000000
00100000
10000000
00010000
01000000
,
00100000
00000000
00000000
00100000
00000000
00000000
00100000
00000000
00000000
00000000
10000000
00000000
01000000
00000000
00100000
00000000
,
00000000
00000000
00101000
00000000
00000000
00000000
00010000
00000000
00000010
00000000
00000000
00001000
00000000
00000000
00000010
00000000
,
00000000
00000001
00001000
00000001
00001000
00000010
00001000
00000010
,
00001000
00000000
00000000
00000100
00000000
00000000
00000100
00000000
00000000
00000000
00000010
00000000
00001000
00000000
00000100
00000000
,
00000000
00000100
00010000
00000100
00010000
00001000
00010000
00001000
,
00010000
00000000
00011000
00000000
00110000
00000000
00010000
02000000
,
00000000
03000000
10000000
00200000
00000000
00300000
01000000
00020000
,
00000000
00030000
10000000
00200000
00000000
00300000
01000000
00002000
,
00000000
00003000
00010000
00002000
00000000
00003000
00010000
00001000
,
00000010
00000000
00000000
00000100
00000000
00000000
00000010
00000000
00000000
00001000
00000000
00000000
00000001
00000000
00001000
00000000
,
00000001
00000000
00000000
00000100
00000000
00000000
00000200
00000000
00000000
00000000
00000000
00000000
00000300
00000000
00000000
00000000
,
00000010
00001000
00000100
00000000
00001000
00000100
00010000
00000000
,
00011000
00000000
00000000
00001000
00000000
00000000
00001000
00000000
00000000
00000000
00010000
00000000
00001000
00000000
01000000
00000000
,
00100000
00000000
00000000
00100000
00000000
00000000
00100000
00000000
00000000
00000000
10000000
00000000
00010000
00000000
01000000
00000000
,
00100000
00000000
00000000
00100000
00000000
00000000
00100000
00000000
00000000
00000000
10000000
00000000
00010000
00000000
01000000
00000000
,
00010000
00000000
00000000
00010000
00000000
00000000
01000000
00000000
00000000
00000000
00001000
00000000
00010000
00000000
00000100
00000000
,
00001000
00000000
00000000
00001000
00000000
00000000
00000010
00000000
00000000
00000000
00000010
00000000
00001000
00000000
00000001
00000000
,
00000100
00000000
00000000
00000100
00000000
00000000
00000100
00000000
00000000
00000000
00000100
00000000
00000001
00000000
00001000
00000000
,
00000100
00000000
00000000
00000100
00000000
00000000
00000100
00000000
00000000
00000000
00010000
00000000
00001000
00000000
00100000
00000000
,
00000000
00000000
10010000
00000000
00000000
10010000
00000000
00000000
11000000
00000000
00000000
11000000
00000000
00000000
10010000
00000000
,
00000000
00000000
00110000
00000000
00000000
00110000
00000000
00000000
00110000
00000000
00000000
00110000
00000000
00000000
20020000
00000000
,
00000000
00000000
00000000
00000000
30030000
10000000
00010000
02000000
,
00000000
00000000
03001000
00020000
00000000
00030100
00001000
00000200
,
00000000
00000000
00000300
00000000
00001000
00000010
00000100
00000001
,
00002000
00003000
00000020
00000030
,
00001000
00010000
00100000
01000000
,
10000000
01000000
00100000
00010000
00001000
00000100
00000010
00000001
,
00000000
00000000
00000000
00000001
00001000
00000000
00000000
00000000
00000000
00000000
00000000
00000000
00000000
00000000
00000000
00000000
00000000
00000000
00000000
00000000
00000000
00000000
00022000
00000000
00000000
00000000
00000000
00000000
00000000
00000000
00000000
00000000
00000000
00000000
00000000
00000000
00000000
00000000
00000000
00000000
00000000
00000000
00000000
00000000
00033000
00000000
00000000
00000000
;

//---------------dance-double - ----------------
#NOTES:
     dance-double:
     :
     Medium:
     10:
     0.406,0.414,0.067,0.100,0.121:
00000000
00000000
00000000
00000000
,
00000000
00000000
00000000
00000000
,
00000000
00000000
00000000
00000000
,
00000000
00000000
00000000
00000000
,
00000000
00000000
00000000
00000000
,
00001000
00000000
00000000
00000000
,
00001000
00000000
00000000
00000000
,
00001000
00000000
00001000
00000000
,
00001000
00000001
00000100
00000010
,
00001000
00000100
00001000
00000100
,
00010000
00000100
00010000
00000100
,
00001000
01000000
00001000
01000000
,
00010000
01000000
00010000
01000000
,
10000000
00100000
10000000
00100000
,
00001000
00100000
00001000
00100000
,
00001000
00000010
00001000
00000010
,
00000001
00000010
00000100
00001000
,
00000010
00000000
00000000
00000010
00000000
00000000
00000010
00000000
00000000
00000000
00001000
00000000
00000001
00000000
00000000
00000000
,
00000100
00000000
00000000
00000100
00000000
00000000
00000100
00000000
00000000
00000000
00001000
00000000
00000001
00000000
00000000
00000000
,
00001000
00000000
00000000
00001000
00000000
00000000
00001000
00000000
00000000
00000000
00000100
00000000
00010000
00000000
00000000
00000000
,
00010000
00000000
00000000
00010000
00000000
00000000
00010000
00000000
00000000
00000000
00001000
00000000
01000000
00000000
00000000
00000000
,
00100000
00000000
00000000
00100000
00000000
00000000
00100000
00000000
00000000
00000000
01000000
00000000
00100000
00000000
00000000
00000000
,
01000000
00000000
00000000
01000000
00000000
00000000
01000000
00000000
00000000
00000000
00100000
00000000
01000000
00000000
00000000
00000000
,
10000000
00000000
00000000
10000000
00000000
00000000
10000000
00000000
00000000
00000000
00010000
00000000
01000000
00000000
00010000
00000000
,
00000000
00000000
00100000
00000000
00000000
00100000
00000000
00000000
00001000
00000000
00000000
00001000
00000000
00000000
00010000
00000000
,
00000000
00000000
00010000
00000000
00001000
00000000
00010000
00000010
,
00000000
00000010
00001000
00000000
00000000
00001000
00000001
00001000
,
00000000
00000000
00000001
00000100
00000000
00000000
00000001
00000100
,
00000000
00000000
00000001
00000100
00000000
00000000
00001001
00000000
,
00000000
00001000
00000100
00001000
00000100
00000000
00010000
00000100
,
00000000
00010000
00001000
00000000
00000000
00000000
00001000
00100000
,
00000000
00000000
00001000
00100000
00000000
00000000
00001000
00100000
,
00000000
00010000
10000000
01000000
,
00000000
10000000
00010000
10000000
00010000
00000000
01000000
00000000
,
00010000
00000000
01000000
00000000
00001000
00000000
00010000
00001000
,
00000000
00000000
00010000
00001000
00000000
00000000
00010000
00001000
,
00000000
00000000
00010000
00000100
00000000
00000000
00001000
00000000
,
00000010
00000100
00000010
00001000
,
00000001
00000000
00000100
00000000
00000010
00000000
00001000
00000100
,
00000000
00000000
00001000
00000100
00000000
00000000
00001000
00000100
,
00000000
00001000
00000100
00010000
,
00000000
00001000
00001000
00010000
,
00001000
00000000
00000000
00001000
00000000
00000000
00001000
00000000
00000000
00000000
00100000
00000000
00000000
00000000
00000000
00000000
,
00000000
00010000
01000000
00000000
00010000
00000000
00010000
00000000
,
10000000
00000000
00100000
00000000
01000000
00000000
00010000
10000000
,
00000000
00000000
10000000
00010000
00000000
00000000
00010000
00001000
,
00000000
00000000
00000000
00000000
00001000
00000100
00001000
00000100
,
00000000
00000000
00000001
00000100
00000000
00000010
00000000
00001000
,
00000000
00000001
00000001
00000000
00000000
00000000
00001001
00000000
,
00000000
00000010
00000010
00001001
,
00000001
00000000
00000000
00000001
00000000
00000000
00000001
00000000
00000000
00000000
00001000
00000000
00000001
00000000
00001000
00000000
,
00000000
00001000
00001000
00001000
,
00010000
00000000
00000000
00010000
00000000
00000000
00010000
00000000
00000000
00000000
01000000
00000000
00100000
00000000
01000000
00000000
,
00000000
00000000
00010000
10000000
00000000
00010000
10000000
00010000
,
00000000
10000000
00000000
00000000
00100000
01000000
00100000
01000000
,
00100000
00000000
00000000
00100000
00000000
00000000
00100000
00000000
00000000
00000000
00000000
00000000
10000000
00000000
00010000
00000000
,
00000000
00000000
10000000
00000000
00000000
00000000
00010000
00000000
10000000
00000000
00000000
00010000
00000000
00000000
00010000
00000000
,
00000000
01000000
00010000
00000000
00100000
00000000
00001000
00000000
,
00010000
00000000
00000000
00010000
00000000
00000000
00010000
00000000
00000000
00000000
00000100
00000000
00001000
00000000
00000100
00000000
,
00000000
00001000
00000010
00000000
00000010
00000000
00000100
00000000
,
00000001
00000000
00001001
00000000
00000010
00000000
00001000
00000200
,
00000000
00000300
00010000
00000200
00000000
00000300
00010000
00002000
,
00000000
00003000
01000000
00002000
00000000
00003000
01000000
00020000
,
00000000
00030000
10000000
00020000
00000000
00030000
10000000
00100000
,
01000000
10010000
01100000
10010000
,
00100000
00000000
00000000
00100000
00000000
00000000
00200000
00000000
00000000
00000000
00000000
00000000
00300000
00000000
00000000
00000000
,
10000000
01000000
00100000
00010000
,
01000000
00000000
00000000
01000000
00000000
00000000
01000000
00000000
00000000
00000000
00010000
00000000
10000000
00000000
00000000
00000000
,
00100000
00000000
00000000
00100000
00000000
00000000
00100000
00000000
00000000
00000000
00010000
00000000
10000000
00000000
00000000
00000000
,
00010000
00000000
00000000
00010000
00000000
00000000
00010000
00000000
00000000
00000000
00100000
00000000
00001000
00000000
00000000
00000000
,
00001000
00000000
00000000
00001000
00000000
00000000
00001000
00000000
00000000
00000000
00010000
00000000
00000010
00000000
00000000
00000000
,
00000100
00000000
00000000
00000100
00000000
00000000
00000100
00000000
00000000
00000000
00000010
00000000
00000100
00000000
00000000
00000000
,
00000010
00000000
00000000
00000010
00000000
00000000
00000010
00000000
00000000
00000000
00000100
00000000
00000010
00000000
00000000
00000000
,
00000001
00000000
00000000
00000001
00000000
00000000
00000001
00000000
00000000
00000000
00001000
00000000
00000010
00000000
00001000
00000000
,
00000000
00000000
00000100
00000000
00000000
00000100
00000000
00000000
00010000
00000000
00000000
00010000
00000000
00000000
00010000
00000000
,
00000000
00000000
00001000
00000000
00000000
00001000
00000000
00000000
00001000
00000000
00000000
00001000
00000000
00000000
00022000
00000000
,
00000000
00000000
00000000
00033000
00000000
00000000
00001000
00100000
,
00000000
00000000
00001000
00100000
00000000
00000000
00010000
00100000
,
00000000
00000000
10000000
01000000
,
00100000
00000000
10000000
00000000
,
01000000
00010000
00100000
00001000
,
00020000
00000000
00000000
00030000
,
00000000
00000000
00002000
00000000
00000000
00000000
00000000
00000000
00000000
00000000
00003000
00020000
00000000
00000000
00000000
00000000
00000000
00000000
00000000
00000000
00000000
00030000
00000000
00000000
;

//---------------dance-double - ----------------
#NOTES:
     dance-double:
     :
     Easy:
     6:
     0.271,0.346,0.100,0.058,0.004:
00000000
00000000
00000000
00000000
,
00000000
00000000
00000000
00000000
,
00000000
00000000
00000000
00000000
,
00000000
00000000
00000000
00000000
,
00000000
00000000
00000000
00000000
,
00001000
00000000
00000000
00000000
,
00010000
00000000
00000000
00000000
,
00001000
00000000
00010000
00000000
,
00001000
00001000
00010000
00010000
,
00000000
00000100
00000000
00000100
,
00000000
00000001
00000000
00000001
,
00000000
00000010
00000000
00000010
,
00000000
00001000
00000000
00001000
,
00000000
00010000
00000000
00010000
,
00000000
01000000
00000000
01000000
,
00000000
10000000
00000000
10000000
,
00100000
01000000
00100000
01000000
,
10000000
00100000
00010000
00000000
,
10000000
01000000
00010000
00000000
,
00010000
00000100
00001000
00000000
,
00000001
00000010
00001000
00000000
,
00001000
00000100
00000010
00000000
,
00010000
00001000
00010000
00000000
,
00001000
01000000
00100000
00000000
,
00000000
10010000
10010000
10010000
,
00000000
00100000
10000000
01000000
,
00000000
00100000
00000000
00100000
,
00000000
00100000
00010000
00000100
,
00000000
00001000
00000000
00001000
,
00000000
00000010
00001000
00000001
,
00000000
00000100
00000000
00000100
,
00000000
00000010
00010000
00001000
,
00000000
01000000
00000000
01000000
,
00000000
00100000
00010000
01000000
,
00000000
00100000
10000000
01000000
,
00000000
00100000
00001000
00010000
,
00000000
00001000
00010000
00000010
,
00000000
00000001
00000010
00001000
,
00000000
00000001
00000100
00001000
,
00000000
00010000
00000100
00001000
,
00000000
00001000
01000000
00010000
,
00000000
00100000
00100000
00100000
,
10000000
01000000
00010000
01000000
,
00000000
00100000
00100000
00100000
,
00001000
00010000
00000100
00001000
,
00000010
00000001
00000000
00001000
,
00000000
00000001
00001000
00000100
,
00000000
00000010
00000000
00001000
,
00000000
00001001
00000000
00000010
,
00000000
00001000
00000100
00000010
,
00000001
00000001
00000100
00000100
,
00000000
00010000
00000010
00001000
,
01000000
01000000
00010000
00010000
,
00000000
10010000
00000000
01100000
,
00000000
10000000
01000000
00010000
,
00100000
00000000
00001000
00000000
,
00010000
00000100
00001000
00000010
,
00000000
00000001
00000001
00000001
,
00001000
00000010
00000100
00000001
,
00000000
00001000
00001000
00001000
,
00000010
00010000
00000100
00001000
,
00000000
00000100
00000000
00010000
,
00000000
00001000
00000000
01000000
,
00000000
00100000
00000000
10010000
,
10000000
01000000
00100000
00010000
,
20020000
00000000
30030000
00000000
,
00010000
00100000
01000000
10000000
,
00100000
00100000
00100000
00000000
,
00001000
00001000
00001000
00000000
,
00000010
00000010
00000010
00000000
,
00010000
00010000
00010000
00000000
,
01000000
01000000
01000000
00000000
,
00001000
00001000
00001000
00000000
,
00000100
00000100
00000100
00000000
,
00010000
00001000
01000000
00100000
,
00000000
10010000
00000000
10010000
,
02200000
00000000
03300000
00000000
,
10000000
00000000
00000000
00000000
,
00010000
00000000
00000000
00000000
,
00001000
00000000
00000000
00000000
,
00000001
00000010
00000100
00001000
,
00000020
00000000
00000000
00000000
,
00000000
00000000
00000000
00000030
00000000
00000000
00000000
00000000
00000000
00000000
00000000
00000220
00000000
00000000
00000000
00000000
00000000
00000000
00000000
00000000
00000000
00000000
00000330
00000000
;

//---------------dance-single - ----------------
#NOTES:
     dance-single:
     :
     Beginner:
     4:
     0.174,0.207,0.000,0.025,0.004:
0000
0000
0000
0000
,
0000
0000
0000
0000
,
0000
0000
0000
0000
,
0000
0000
0000
0000
,
0000
0000
0000
0000
,
0010
0000
0000
0000
,
0010
0000
0000
0000
,
0010
0000
0000
0000
,
0010
0000
0010
0000
,
0000
0100
0000
0100
,
0000
0100
0000
0100
,
0000
0001
0000
0001
,
0000
0001
0000
0001
,
0000
1000
0000
1000
,
0000
1000
0000
1000
,
0000
0001
0000
0001
,
0000
0001
0000
0000
,
0001
0000
0000
0000
,
0100
0000
0000
0000
,
1000
0000
0000
0000
,
0010
0000
0000
0000
,
1000
0000
0000
0000
,
0100
0000
0000
0000
,
0001
0000
0000
0000
,
0000
0020
0000
0030
,
0000
0100
0000
0100
,
0000
0100
0000
0000
,
0001
0000
0001
0000
,
1000
0000
1000
0000
,
0000
0010
0000
0010
,
0000
0010
0000
0000
,
0000
1000
0000
1000
,
0000
0001
0000
0001
,
0000
0100
0000
0100
,
0000
0100
0000
0100
,
0000
0010
0000
0010
,
0000
0010
0000
0010
,
0000
1000
0000
1000
,
0000
1000
0000
1000
,
0000
0001
0000
0001
,
0000
0001
0000
0001
,
0000
0100
0100
0100
,
0000
0001
0000
1000
,
0000
0010
0010
0010
,
0000
1000
0000
0001
,
0000
0100
0000
0100
,
0000
0100
0100
0100
,
0000
0010
0000
0010
,
0000
0010
0000
0000
,
0000
1000
1000
0000
,
0100
0000
0100
0000
,
0000
0001
0001
0000
,
0100
0000
0100
0000
,
0010
0000
0010
0000
,
1000
0000
1000
0000
,
0100
0000
0100
0000
,
0001
0001
0001
0000
,
0000
0010
0010
0000
,
0100
0000
0100
0000
,
0000
0001
0001
0000
,
1000
0000
1000
0000
,
0100
0100
0100
0000
,
0010
0010
0010
0000
,
0100
0000
0010
0000
,
1000
1000
1000
0000
,
0001
0000
0002
0000
,
0003
0000
0000
0000
,
0000
0100
0000
0100
,
0000
1000
0000
1000
,
0000
0001
0000
0001
,
0000
0010
0000
0010
,
0000
0100
0000
1000
,
0000
0001
0000
0010
,
0000
1000
0000
0100
,
0000
0010
0010
0010
,
0000
0100
0000
0100
,
0000
0000
0000
0000
,
0001
0000
0000
0000
,
1000
0000
0000
0000
,
0010
0000
0010
0000
,
0100
0100
0100
0100
,
0100
0000
0000
0000
,
0000
0000
0000
0000
0000
0000
0000
0000
0000
0000
0000
0200
0000
0000
0000
0000
0000
0000
0300
0000
0000
0000
0000
0000
;

//---------------dance-single - ----------------
#NOTES:
     dance-single:
     :
     Easy:
     6:
     0.271,0.346,0.100,0.058,0.004: // measure 1
0000
0000
0000
0000
,  // measure 2
0000
0000
0000
0000
,  // measure 3
0000
0000
0000
0000
,  // measure 4
0000
0000
0000
0000
,  // measure 5
0000
0000
0000
0000
,  // measure 6
1000
0000
0000
0000
,  // measure 7
0001
0000
0000
0000
,  // measure 8
1000
0000
0001
0000
,  // measure 9
1000
1000
0001
0001
,  // measure 10
0000
0100
0000
0100
,  // measure 11
0000
0001
0000
0001
,  // measure 12
0000
0010
0000
0010
,  // measure 13
0000
1000
0000
1000
,  // measure 14
0000
0001
0000
0001
,  // measure 15
0000
0100
0000
0100
,  // measure 16
0000
1000
0000
1000
,  // measure 17
0010
0100
0010
0100
,  // measure 18
1000
0010
0001
0000
,  // measure 19
1000
0100
0001
0000
,  // measure 20
0001
0100
1000
0000
,  // measure 21
0001
0010
1000
0000
,  // measure 22
1000
0100
0010
0000
,  // measure 23
0001
1000
0001
0000
,  // measure 24
1000
0100
0010
0000
,  // measure 25
0000
1001
1001
1001
,  // measure 26
0000
0010
1000
0100
,  // measure 27
0000
0010
0000
0010
,  // measure 28
0000
0010
0001
0100
,  // measure 29
0000
1000
0000
1000
,  // measure 30
0000
0010
1000
0001
,  // measure 31
0000
0100
0000
0100
,  // measure 32
0000
0010
0001
1000
,  // measure 33
0000
0100
0000
0100
,  // measure 34
0000
0010
0001
0100
,  // measure 35
0000
0010
1000
0100
,  // measure 36
0000
0010
1000
0001
,  // measure 37
0000
1000
0001
0010
,  // measure 38
0000
0001
0010
1000
,  // measure 39
0000
0001
0100
1000
,  // measure 40
0000
0001
0100
1000
,  // measure 41
0000
1000
0100
0001
,  // measure 42
0000
0010
0010
0010
,  // measure 43
1000
0100
0001
0100
,  // measure 44
0000
0010
0010
0010
,  // measure 45
1000
0001
0100
1000
,  // measure 46
0010
0001
0000
1000
,  // measure 47
0000
0001
1000
0100
,  // measure 48
0000
0010
0000
1000
,  // measure 49
0000
1001
0000
0010
,  // measure 50
0000
1000
0100
0010
,  // measure 51
0001
0001
0100
0100
,  // measure 52
0000
0001
0010
1000
,  // measure 53
0100
0100
0001
0001
,  // measure 54
0000
1001
0000
0110
,  // measure 55
0000
1000
0100
0001
,  // measure 56
0010
0000
1000
0000
,  // measure 57
0001
0100
1000
0010
,  // measure 58
0000
0001
0001
0001
,  // measure 59
1000
0010
0100
0001
,  // measure 60
0000
1000
1000
1000
,  // measure 61
0010
0001
0100
1000
,  // measure 62
0000
0100
0000
0001
,  // measure 63
0000
1000
0000
0100
,  // measure 64
0000
0010
0000
1001
,  // measure 65
1000
0100
0010
0001
,  // measure 66
2002
0000
3003
0000
,  // measure 67
0001
0010
0100
1000
,  // measure 68
0010
0010
0010
0000
,  // measure 69
1000
1000
1000
0000
,  // measure 70
0010
0010
0010
0000
,  // measure 71
0001
0001
0001
0000
,  // measure 72
0100
0100
0100
0000
,  // measure 73
1000
1000
1000
0000
,  // measure 74
0100
0100
0100
0000
,  // measure 75
0001
1000
0100
0010
,  // measure 76
0000
1001
0000
1001
,  // measure 77
0220
0000
0330
0000
,  // measure 78
1000
0000
0000
0000
,  // measure 79
0001
0000
0000
0000
,  // measure 80
1000
0000
0000
0000
,  // measure 81
0001
0010
0100
1000
,  // measure 82
0020
0000
0000
0000
,  // measure 83
0000
0000
0000
0030
0000
0000
0000
0000
0000
0000
0000
0220
0000
0000
0000
0000
0000
0000
0000
0000
0000
0000
0330
0000
;

//---------------dance-single - ----------------
#NOTES:
     dance-single:
     :
     Medium:
     10:
     0.406,0.414,0.067,0.100,0.121: // measure 1
0000
0000
0000
0000
,  // measure 2
0000
0000
0000
0000
,  // measure 3
0000
0000
0000
0000
,  // measure 4
0000
0000
0000
0000
,  // measure 5
0000
0000
0000
0000
,  // measure 6
1000
0000
0000
0000
,  // measure 7
1000
0000
0000
0000
,  // measure 8
1000
0000
1000
0000
,  // measure 9
1000
0001
0100
0010
,  // measure 10
1000
0100
1000
0100
,  // measure 11
0001
0100
0001
0100
,  // measure 12
1000
0100
1000
0100
,  // measure 13
0001
0100
0001
0100
,  // measure 14
1000
0010
1000
0010
,  // measure 15
1000
0010
1000
0010
,  // measure 16
1000
0010
1000
0010
,  // measure 17
0001
0010
0100
1000
,  // measure 18
0010
0000
0000
0010
0000
0000
0010
0000
0000
0000
1000
0000
0001
0000
0000
0000
,  // measure 19
0100
0000
0000
0100
0000
0000
0100
0000
0000
0000
1000
0000
0001
0000
0000
0000
,  // measure 20
1000
0000
0000
1000
0000
0000
1000
0000
0000
0000
0100
0000
0001
0000
0000
0000
,  // measure 21
0001
0000
0000
0001
0000
0000
0001
0000
0000
0000
1000
0000
0100
0000
0000
0000
,  // measure 22
0010
0000
0000
0010
0000
0000
0010
0000
0000
0000
0100
0000
0010
0000
0000
0000
,  // measure 23
0100
0000
0000
0100
0000
0000
0100
0000
0000
0000
0010
0000
0100
0000
0000
0000
,  // measure 24
1000
0000
0000
1000
0000
0000
1000
0000
0000
0000
0001
0000
0100
0000
0001
0000
,  // measure 25
0000
0000
0010
0000
0000
0010
0000
0000
1000
0000
0000
1000
0000
0000
0001
0000
,  // measure 26
0000
0000
0001
0000
1000
0000
0001
0010
,  // measure 27
0000
0010
1000
0000
0000
1000
0001
1000
,  // measure 28
0000
0000
0001
0100
0000
0000
0001
0100
,  // measure 29
0000
0000
0001
0100
0000
0000
1001
0000
,  // measure 30
0000
1000
0100
1000
0100
0000
0001
0100
,  // measure 31
0000
0001
1000
0000
0000
0000
1000
0010
,  // measure 32
0000
0000
1000
0010
0000
0000
1000
0010
,  // measure 33
0000
0001
1000
0100
,  // measure 34
0000
1000
0001
1000
0001
0000
0100
0000
,  // measure 35
0001
0000
0100
0000
1000
0000
0001
1000
,  // measure 36
0000
0000
0001
1000
0000
0000
0001
1000
,  // measure 37
0000
0000
0001
0100
0000
0000
1000
0000
,  // measure 38
0010
0100
0010
1000
,  // measure 39
0001
0000
0100
0000
0010
0000
1000
0100
,  // measure 40
0000
0000
1000
0100
0000
0000
1000
0100
,  // measure 41
0000
1000
0100
0001
,  // measure 42
0000
1000
1000
0001
,  // measure 43
1000
0000
0000
1000
0000
0000
1000
0000
0000
0000
0010
0000
0000
0000
0000
0000
,  // measure 44
0000
0001
0100
0000
0001
0000
0001
0000
,  // measure 45
1000
0000
0010
0000
0100
0000
0001
1000
,  // measure 46
0000
0000
1000
0001
0000
0000
0001
1000
,  // measure 47
0000
0000
0000
0000
1000
0100
1000
0100
,  // measure 48
0000
0000
0001
0100
0000
0010
0000
1000
,  // measure 49
0000
0001
0001
0000
0000
0000
1001
0000
,  // measure 50
0000
0010
0010
1001
,  // measure 51
0001
0000
0000
0001
0000
0000
0001
0000
0000
0000
1000
0000
0001
0000
1000
0000
,  // measure 52
0000
1000
1000
1000
,  // measure 53
0001
0000
0000
0001
0000
0000
0001
0000
0000
0000
0100
0000
0010
0000
0100
0000
,  // measure 54
0000
0000
0001
1000
0000
0001
1000
0001
,  // measure 55
0000
1000
0000
0000
0010
0100
0010
0100
,  // measure 56
0010
0000
0000
0010
0000
0000
0010
0000
0000
0000
0000
0000
1000
0000
0001
0000
,  // measure 57
0000
0000
1000
0000
0000
0000
0001
0000
1000
0000
0000
0001
0000
0000
0001
0000
,  // measure 58
0000
0100
0001
0000
0010
0000
1000
0000
,  // measure 59
0001
0000
0000
0001
0000
0000
0001
0000
0000
0000
0100
0000
1000
0000
0100
0000
,  // measure 60
0000
1000
0010
0000
0010
0000
0100
0000
,  // measure 61
0001
0000
1001
0000
0010
0000
1000
0200
,  // measure 62
0000
0300
0001
0200
0000
0300
0001
2000
,  // measure 63
0000
3000
0100
2000
0000
3000
0100
0002
,  // measure 64
0000
0003
1000
0002
0000
0003
1000
0010
,  // measure 65
0100
1001
0110
1001
,  // measure 66
0010
0000
0000
0010
0000
0000
0020
0000
0000
0000
0000
0000
0030
0000
0000
0000
,  // measure 67
1000
0100
0010
0001
,  // measure 68
0100
0000
0000
0100
0000
0000
0100
0000
0000
0000
0001
0000
1000
0000
0000
0000
,  // measure 69
0010
0000
0000
0010
0000
0000
0010
0000
0000
0000
0001
0000
1000
0000
0000
0000
,  // measure 70
0001
0000
0000
0001
0000
0000
0001
0000
0000
0000
0010
0000
1000
0000
0000
0000
,  // measure 71
1000
0000
0000
1000
0000
0000
1000
0000
0000
0000
0001
0000
0010
0000
0000
0000
,  // measure 72
0100
0000
0000
0100
0000
0000
0100
0000
0000
0000
0010
0000
0100
0000
0000
0000
,  // measure 73
0010
0000
0000
0010
0000
0000
0010
0000
0000
0000
0100
0000
0010
0000
0000
0000
,  // measure 74
0001
0000
0000
0001
0000
0000
0001
0000
0000
0000
1000
0000
0010
0000
1000
0000
,  // measure 75
0000
0000
0100
0000
0000
0100
0000
0000
0001
0000
0000
0001
0000
0000
0001
0000
,  // measure 76
0000
0000
1000
0000
0000
1000
0000
0000
1000
0000
0000
1000
0000
0000
2002
0000
,  // measure 77
0000
0000
0000
3003
0000
0000
1000
0010
,  // measure 78
0000
0000
1000
0010
0000
0000
0001
0010
,  // measure 79
0000
0000
1000
0100
,  // measure 80
0010
0000
1000
0000
,  // measure 81
0100
0001
0010
1000
,  // measure 82
0002
0000
0000
0003
,  // measure 83
0000
0000
2000
0000
0000
0000
0000
0000
0000
0000
3000
0002
0000
0000
0000
0000
0000
0000
0000
0000
0000
0003
0000
0000
;
