#TITLE:Super Capriccio;
#SUBTITLE:;
#ARTIST:SHK;
#TITLETRANSLIT:;
#SUBTITLETRANSLIT:;
#ARTISTTRANSLIT:;
#CREDIT:;
#BANNER:Super Capriccio.png;
#BACKGROUND:Super Capriccio-bg.png;
#LYRICSPATH:;
#CDTITLE:;
#MUSIC:Super Capriccio.ogg;
#OFFSET:-0.125;
#SAMPLESTART:17.720;
#SAMPLELENGTH:15.400;
#SELECTABLE:YES;
#DISPLAYBPM:150.000;
#BPMS:0.000=150.000;
#STOPS:;
#BGCHANGES:0.000=Super Capriccio.avi=1.000=0=1=0,
99999=-nosongbg-=1.000=0=0=0 // don't automatically add -songbackground-
;

//---------------dance-single - ----------------
#NOTES:
     dance-single:
     :
     Hard:
     11:
     0.529,0.546,0.116,0.515,0.046: // measure 1
0000
0000
0000
0000
,  // measure 2
0000
0000
0000
0000
,  // measure 3
0000
0000
0000
0000
,  // measure 4
0000
0000
0000
0000
,  // measure 5
0000
0000
0000
0000
,  // measure 6
0000
0000
0000
0000
,  // measure 7
1000
0100
1000
0010
1000
0001
1000
0001
,  // measure 8
0100
0001
0010
0001
0010
0001
0100
0001
,  // measure 9
1000
0010
1000
0010
0100
0001
0100
0001
,  // measure 10
1000
0100
0010
0001
1000
0100
0010
0001
,  // measure 11
0200
0000
0000
0300
,  // measure 12
0002
0000
0103
0001
2000
0000
3001
0100
,  // measure 13
0002
0000
0103
0010
2000
0000
3200
0000
,  // measure 14
2300
0000
3010
0100
0020
0000
0130
0001
,  // measure 15
0020
0000
0031
0100
0020
0000
0230
0000
,  // measure 16
0302
0000
0103
0001
2000
0000
3010
1000
,  // measure 17
0200
0000
1300
0001
0020
0000
0031
1000
,  // measure 18
0100
1000
0010
0000
1000
0001
0100
0000
,  // measure 19
0001
0100
1000
0100
0002
0000
1003
0000
,  // measure 20
0020
0000
1030
0000
0001
0100
1000
0000
,  // measure 21
0200
0000
0301
0000
1000
0100
0001
0000
,  // measure 22
0020
0000
0130
0000
0010
1000
0100
0000
,  // measure 23
0200
0000
0310
0000
0010
0001
0100
0000
,  // measure 24
0001
1000
0001
1000
0010
0100
0010
0000
,  // measure 25
1000
0001
1000
0001
0100
0010
0100
0000
,  // measure 26
0001
0100
0001
0000
1000
0100
1000
0000
,  // measure 27
0010
0100
0010
0100
0010
0000
0110
0000
,  // measure 28
2002
3003
0200
0300
,  // measure 29
0002
0003
0020
0030
,  // measure 30
1000
0010
0100
0000
1000
0001
0100
0000
,  // measure 31
0001
1000
0100
1000
0001
0001
1001
0000
,  // measure 32
0100
0001
0010
0000
1000
0001
0100
0000
,  // measure 33
1000
0001
1000
0010
1000
1000
1001
0000
,  // measure 34
0010
0100
0010
0100
0001
0100
1000
0000
,  // measure 35
0100
0010
0100
0010
1000
0100
0001
0000
,  // measure 36
1000
0010
0001
0000
0001
0010
1000
0000
,  // measure 37
0001
0100
0001
1000
0010
0000
1001
0000
,  // measure 38
0020
0000
0000
0030
1000
0100
0010
0000
,  // measure 39
0002
0000
0003
0010
2000
0000
3002
0000
,  // measure 40
0203
0000
0300
0000
0001
0010
0100
0000
,  // measure 41
0020
0000
0030
1000
0002
0000
2003
0000
,  // measure 42
3020
0000
0030
0000
1000
0001
0100
0000
,  // measure 43
0200
0000
0300
0000
0001
1000
0100
0000
,  // measure 44
0002
0000
1003
0000
0010
0100
0010
0000
,  // measure 45
2000
0000
3001
0000
0100
0010
0100
0000
,  // measure 46
2001
0010
0001
3100
,  // measure 47
0002
0000
0103
0020
0000
1030
1000
1000
,  // measure 48
0020
0000
0130
0001
0000
0010
0010
0010
,  // measure 49
0002
0000
0103
0020
0000
1030
1000
1000
,  // measure 50
0020
0000
0130
0002
0000
0000
0103
0000
,  // measure 51
2000
0000
3010
0200
0000
0310
0010
0010
,  // measure 52
2000
0000
3001
0100
0000
0001
0001
0001
,  // measure 53
0101
0000
0000
0001
0100
0000
0000
0100
1000
0000
0000
1000
0010
0000
0000
0010
,  // measure 54
0100
0000
0000
0100
0001
0000
0000
0001
1000
0000
0000
1000
0100
0000
0000
0100
,  // measure 55
0001
0000
0100
0010
0000
1000
1000
0001
,  // measure 56
1000
0000
0001
1000
0000
0010
1000
0010
,  // measure 57
0100
0010
0000
1001
0000
0110
0000
1000
,  // measure 58
0100
1000
0000
1001
0000
0110
0000
0001
,  // measure 59
1000
0100
1000
0001
0000
0001
0010
0100
,  // measure 60
1000
0001
0100
0001
0000
1000
0000
0001
,  // measure 61
0100
0000
0010
0000
0100
0000
0010
0000
1000
0001
0000
0001
1000
0000
0010
0000
,  // measure 62
0100
0000
0000
0100
0000
0000
0100
0000
0001
0000
0010
0000
1000
0000
0000
0000
,  // measure 63
2002
0000
0000
3003
,  // measure 64
0020
0000
0031
0100
0002
0000
1003
0100
,  // measure 65
2000
0000
3001
0010
0002
0000
0203
0000
,  // measure 66
0320
0000
1030
0010
2000
0000
3001
0100
,  // measure 67
0002
0000
1003
0010
0200
0000
0302
0000
,  // measure 68
1003
0010
1000
0000
0001
0100
0001
0000
,  // measure 69
0100
0010
1000
0010
0100
0000
1001
0000
,  // measure 70
0100
0001
1000
0000
0010
1000
0001
0000
,  // measure 71
0010
1000
0010
1000
0001
0100
0001
0100
,  // measure 72
2002
0000
0000
0000
,  // measure 73
0000
0000
0000
0000
,  // measure 74
3003
0000
0000
0000
;

//---------------dance-single - ----------------
#NOTES:
     dance-single:
     :
     Beginner:
     3:
     0.183,0.243,0.033,0.133,0.000:
0000
0000
0000
0000
,
0000
0000
0000
0000
,
0000
0000
0000
0000
,
0000
0000
0000
0000
,
0000
0000
0000
0000
,
0000
0000
0000
0000
,
1000
0000
1000
0000
,
0001
0000
0001
0000
,
1000
0000
1000
0000
,
0001
0000
0001
0000
,
1001
0000
0000
0000
,
1000
0000
0001
0000
,
1000
0000
2000
3000
,
1000
0000
0001
0000
,
1000
0000
0002
0003
,
0001
0000
0100
0000
,
1000
0000
0100
0000
,
0001
0000
1000
0000
,
0001
0001
0001
0000
,
0200
0000
0300
0000
,
0200
0000
0300
0000
,
0020
0000
0030
0000
,
0020
0000
0030
0000
,
0100
0000
0010
0000
,
0100
0000
0010
0000
,
1000
0000
0001
0000
,
1000
1000
1000
0000
,
0001
0000
0001
0000
,
1000
0000
1000
0000
,
0010
0000
0100
0000
,
0020
0000
0030
0000
,
0100
0000
0010
0000
,
0200
0000
0300
0000
,
0001
0000
0002
0003
,
0001
0000
2000
3000
,
1000
0000
0001
0000
,
1000
1000
1000
0000
,
0010
0000
0100
0000
,
0010
0000
1000
1000
,
1000
0000
0010
0000
,
0100
0000
0001
0001
,
0001
0000
1000
0000
,
0001
0000
1000
0000
,
0010
0000
0100
0000
,
0010
0000
0010
0000
,
2002
0000
3003
0000
,
0000
1000
0000
1000
,
0000
0001
0000
0001
,
0000
1000
0000
0100
,
0000
1000
0000
0010
,
0000
1000
0000
0001
,
0000
1000
0000
0001
,
0000
0100
0000
0001
,
0000
0010
0010
0010
,
0010
0000
0001
0000
,
0100
0100
0100
0000
,
0010
0000
1000
0000
,
0100
0100
0100
0000
,
0001
0000
1000
0000
,
0010
0000
0100
0000
,
0001
0001
0001
0000
,
1000
1000
1000
0000
,
2002
0000
3003
0000
,
1000
0000
0001
0000
,
0100
0000
0010
0000
,
1000
0000
0001
0000
,
0100
0000
0010
0000
,
1000
0000
1000
0000
,
0001
0000
0001
0000
,
0100
0100
0100
0000
,
0010
0010
0010
0000
,
2002
0000
0000
0000
,
0000
0000
0000
0000
,
3003
0000
0000
0000
;

//---------------dance-single - ----------------
#NOTES:
     dance-single:
     :
     Medium:
     8:
     0.429,0.516,0.216,0.532,0.000:
0000
0000
0000
0000
,
0000
0000
0000
0000
,
0000
0000
0000
0000
,
0000
0000
0000
0000
,
0000
0000
0000
0000
,
0000
0000
0000
0000
,
0100
0001
0100
1000
,
0010
0100
0010
0000
0010
0100
0010
0000
,
0100
0001
0010
1000
,
0100
0010
0100
0000
0100
0010
0100
0000
,
0200
0000
0000
0300
,
0002
0013
2000
3010
,
0002
0103
2002
3003
,
2000
3010
0002
0013
,
2000
3100
2002
3003
,
0002
0013
0200
1300
,
2000
3100
0020
0031
,
0210
0301
0120
1030
,
1001
0110
2002
3003
,
0020
0000
0000
0000
0031
1000
0001
0000
,
0200
0000
0000
0000
0301
1000
0001
0000
,
0020
0000
0000
0000
1030
0001
0100
0000
,
0020
0000
0000
0000
1030
0001
0100
0000
,
0001
0000
1001
0000
0010
0100
0010
0100
,
0010
0000
1001
0000
0100
0010
0100
0010
,
0100
1001
0010
1001
,
0010
0100
0010
0100
0010
0000
0110
0000
,
2002
3003
0200
0300
,
2000
3000
0020
0030
,
1000
0001
1000
0000
1000
0001
1000
0000
,
1000
0001
1000
0000
0100
0000
0010
0000
,
0001
1000
0001
0000
0001
1000
0001
0000
,
0001
1000
0001
0000
0010
0000
0100
0000
,
0010
0100
0010
0000
0001
0000
1000
0000
,
0100
0010
0100
0000
1000
0000
0001
0000
,
1000
0001
1000
0000
0001
1000
0001
0000
,
0100
0010
0100
0010
0100
0000
1001
0000
,
0220
0000
0330
0000
1000
0001
1000
0000
,
2002
3003
0020
0230
,
0320
0000
0030
0000
0001
1000
0001
0000
,
2002
3003
0200
0320
,
0230
0000
0300
0000
1000
0001
1000
0000
,
0020
0000
0030
0000
0001
1000
0001
0000
,
0220
0000
0330
0000
1000
0001
1000
0000
,
0220
0000
0330
0000
0001
1000
0001
0000
,
0210
0010
0010
0310
,
0002
0000
0000
1003
0000
0000
0100
0000
,
2000
0000
0000
3001
0000
0000
0100
0000
,
0002
0000
0000
0013
0000
0000
0100
0000
,
2000
0000
0000
3010
0000
0000
0100
0000
,
0002
0000
0000
0103
0000
0000
1000
0000
,
2000
0000
0000
0100
0000
0000
3001
0000
,
0020
0230
0302
2003
,
3020
2030
3002
0203
,
0310
0000
1000
0010
0000
0000
1000
0000
,
0001
0000
0100
0001
0000
0100
0000
0000
,
0001
0000
1000
0001
0000
1000
0000
0000
,
0010
0000
0100
0010
0000
0100
0000
0000
,
0001
0100
1000
0100
,
0001
0010
1000
0010
,
0001
1000
0001
0000
1000
0001
1000
0000
,
0010
0000
0010
0000
0100
0010
0100
0000
,
2002
0000
0000
3003
,
0100
0000
0001
1000
0001
0000
1000
0001
,
1000
0000
0001
1000
0001
0000
0100
0000
,
0010
0000
1000
0001
1000
0000
0001
1000
,
0001
0000
1000
0001
0100
0000
0010
0000
,
1000
1000
0001
0001
,
0100
1000
0100
1001
,
0100
1000
0010
1001
,
0010
0010
1001
1001
,
2002
0000
0000
0000
,
0000
0000
0000
0000
,
3003
0000
0000
0000
;

//---------------dance-single - ----------------
#NOTES:
     dance-single:
     :
     Easy:
     5:
     0.331,0.425,0.116,0.690,0.000:
0000
0000
0000
0000
,
0000
0000
0000
0000
,
0000
0000
0000
0000
,
0000
0000
0000
0000
,
0000
0000
0000
0000
,
0000
0000
0000
0000
,
0100
0001
0100
0001
,
0100
1000
0100
1000
,
0100
0001
0100
1000
,
0100
0010
0001
0000
,
2002
0000
0000
3003
,
0020
0030
0200
0300
,
0020
0030
0220
0330
,
2000
3000
0002
0003
,
2000
3000
2002
3003
,
0020
0030
1000
0100
,
0020
0030
0001
0100
,
2000
3000
0002
0003
,
1000
0001
2002
3003
,
0020
0030
0100
0001
,
0020
0030
0100
1000
,
0200
0300
1000
0001
,
0200
0300
0001
1000
,
0020
0030
2000
3000
,
0200
0300
0002
0003
,
2000
3000
0002
0003
,
1000
0001
2002
3003
,
0020
0000
0000
0030
,
0200
0000
0000
0300
,
0002
0003
2000
3000
,
0001
1000
0001
1000
,
0020
0030
0200
0300
,
1000
0001
1000
0001
,
2000
3100
0002
0103
,
2000
3010
0002
0013
,
0200
0310
0002
0103
,
2000
3100
2002
3003
,
0020
0030
1000
0100
,
0002
0003
0100
1000
,
0002
0003
0010
1000
,
0200
0300
1000
0001
,
0220
0330
0001
1000
,
0220
0330
1000
0001
,
2002
3003
0100
0010
,
2002
3003
0010
0100
,
2002
0000
0000
3003
,
0020
0030
0200
0300
,
0010
0100
0010
0000
,
0200
0300
0020
0030
,
0100
0010
0100
0000
,
0002
0003
2000
3000
,
0020
0030
0200
0300
,
0001
1000
0010
0100
,
0010
1000
0001
1001
,
2000
3000
0002
0003
,
1000
0100
0001
0000
,
0002
0003
2000
3000
,
0001
0100
1000
0000
,
0010
1000
0100
1000
,
0010
0001
0100
0001
,
0100
0100
0010
0010
,
1000
0001
1000
0001
,
2002
0000
0000
3003
,
0020
0030
2000
3000
,
0200
0300
0002
0003
,
0020
0030
0002
0003
,
0200
0300
2000
3000
,
0010
1000
0100
0000
,
0010
0001
0100
0000
,
0001
0010
0100
1000
,
0001
1000
0001
1000
,
2002
0000
0000
0000
,
0000
0000
0000
0000
,
3003
0000
0000
0000
;

//---------------dance-single - ----------------
#NOTES:
     dance-single:
     :
     Challenge:
     15:
     0.770,0.789,0.166,0.565,0.574: // measure 1
0000
0000
0000
0000
,  // measure 2
0000
0000
0000
0000
,  // measure 3
0000
0000
0000
0000
,  // measure 4
0000
0000
0000
0000
,  // measure 5
0000
0000
0000
0000
,  // measure 6
0000
0000
0000
0000
,  // measure 7
1000
0100
1000
0100
1000
0010
1000
0001
,  // measure 8
0100
0001
0100
0001
0010
0001
0100
0001
,  // measure 9
0100
0010
0100
0001
0100
0010
1000
0010
,  // measure 10
0100
1000
0010
0001
0010
0100
1000
0010
,  // measure 11
0200
0000
0000
0300
,  // measure 12
0010
0000
0000
1000
0010
1000
0010
1000
0010
0000
0000
0100
0001
0100
0001
0100
,  // measure 13
0001
0000
0000
1000
0010
1000
0010
1000
0010
0000
0100
0000
0001
0000
1000
0000
,  // measure 14
0001
0000
0000
1000
0001
1000
0001
1000
0001
0000
0000
0100
0010
0100
0010
0100
,  // measure 15
0010
0000
0000
1000
0001
1000
0001
1000
0001
0000
0100
0000
0010
0000
1000
0000
,  // measure 16
0002
0000
0000
1000
0103
0000
1000
0000
0020
0000
0000
1000
0130
0000
1000
0000
,  // measure 17
0002
0000
0000
1000
0013
0000
1000
0000
0020
0000
0000
1000
0130
0000
1000
0000
,  // measure 18
0002
0000
0000
0103
0010
0100
0010
0000
2000
0000
0000
3010
0100
0010
0100
0000
,  // measure 19
0001
0000
0100
0010
1000
0000
0010
0100
0002
0000
0000
0000
1003
0000
0000
0000
,  // measure 20
1001
0000
0001
0000
0010
0000
0100
0000
1000
0010
0000
1000
0010
0000
1000
0000
,  // measure 21
1001
0000
1000
0000
0100
0000
0010
0000
0100
0001
0000
0100
0001
0000
0100
0000
,  // measure 22
0001
0000
0010
0000
0001
0000
0100
0000
0001
0100
0010
0100
0001
0000
0100
0000
,  // measure 23
0010
0000
1000
0000
0010
0000
1000
0000
0100
1000
0010
1000
0100
0000
1000
0000
,  // measure 24
0001
0000
0010
0000
0001
0000
0100
0000
0010
0100
0010
0000
0100
0000
0001
0000
,  // measure 25
1000
0000
0100
0000
1000
0000
0010
0000
1000
0100
1000
0000
0010
0000
0100
0000
,  // measure 26
0001
0000
0100
0010
0100
0000
0001
0000
1000
0000
0010
0100
0010
0000
1000
0000
,  // measure 27
0001
0000
0100
0010
1000
0000
0010
0100
0001
0000
0100
0010
1000
0000
0000
0000
,  // measure 28
0002
0100
0103
0010
2000
0010
3010
0100
,  // measure 29
0002
1000
1003
0010
0200
0001
0301
0000
,  // measure 30
0010
1000
0100
1000
0010
0000
0100
0000
0001
0100
0000
0001
0100
0000
0010
0000
,  // measure 31
1000
0100
1000
0010
1000
0000
0001
0000
0100
0010
0100
0000
0001
0000
0100
0000
,  // measure 32
0001
0010
0001
0100
0001
0000
0010
0000
0001
0100
0000
0010
1000
0000
0010
0000
,  // measure 33
0100
0001
0100
0010
0100
0000
0001
0000
1000
0100
1000
0010
1000
0000
0001
0000
,  // measure 34
0200
0000
0320
0000
1030
0100
0010
0001
,  // measure 35
0200
0000
0320
0000
0130
0001
1000
0010
,  // measure 36
0100
0010
0100
0010
0100
0000
0001
0000
1000
0000
0010
0000
0100
0000
0010
0000
,  // measure 37
1000
0000
0001
0000
0100
0000
0010
0000
1000
0100
1000
0100
1000
0000
0000
0000
,  // measure 38
0002
0000
0000
0000
0103
0000
0010
1000
0010
0000
0100
0000
0010
1000
0100
1000
,  // measure 39
0020
0000
0000
0000
0130
0001
0100
0010
0200
0000
0000
0301
0020
0000
0000
0031
,  // measure 40
0200
0000
0000
0000
0310
0000
1000
0000
0100
1000
0010
1000
0100
0000
1000
0010
,  // measure 41
0200
0000
0000
0000
0301
0010
0001
0100
0002
0000
0000
0103
0020
0000
0000
1000
,  // measure 42
0230
0000
0000
0000
1300
0000
0010
1000
0100
1000
0010
0000
0100
0010
0100
0010
,  // measure 43
0200
0000
0000
0000
0301
0000
0010
0001
0100
0001
0010
0000
0001
0100
0001
0100
,  // measure 44
0002
0000
0000
0000
0000
0000
0103
0010
1000
0010
0100
0010
0100
0001
1000
0001
,  // measure 45
2000
0000
0000
0000
3010
0000
0100
0000
0001
0100
0001
0100
0010
1000
0010
1000
,  // measure 46
0002
0023
0230
2300
,  // measure 47
3002
0100
0100
0203
0000
0310
1000
0010
,  // measure 48
0200
0001
0001
0302
0000
0013
0100
0000
,  // measure 49
2000
0010
0010
3020
0000
0130
0010
0100
,  // measure 50
0002
1000
1000
2003
0000
3010
0100
0000
,  // measure 51
0002
0010
0010
0023
0000
0031
0100
0010
,  // measure 52
2000
0100
0100
3200
0000
1300
0010
0100
,  // measure 53
0002
0100
0000
0000
0203
0010
0000
0000
0320
1000
0000
0000
2030
0100
0000
0000
,  // measure 54
3200
1000
0000
0000
2300
0001
0000
0000
3002
0010
0000
0000
0023
0100
0000
0000
,  // measure 55
0130
0001
0100
0220
0000
0330
0001
1000
,  // measure 56
1001
0000
1000
1010
0000
0101
0000
1000
,  // measure 57
1100
1100
0000
0101
0000
0010
0001
0100
,  // measure 58
0110
0110
0000
1001
0000
1000
0100
1000
,  // measure 59
1100
1100
0000
0101
0000
0010
0100
0001
,  // measure 60
0101
0101
0000
0110
0000
1001
0000
1000
,  // measure 61
0001
0000
0100
0000
0010
0000
1000
0000
0001
0100
0010
0100
0001
0000
1000
0000
,  // measure 62
0010
0100
0000
0010
0100
0000
0001
0000
0100
0010
1000
0010
0100
0010
1000
0000
,  // measure 63
2002
0000
0000
3003
,  // measure 64
0200
0000
0000
0301
0100
0010
1000
0010
0200
0000
0000
0301
1000
0010
1000
0001
,  // measure 65
0200
0000
0000
0310
1000
0010
0100
0010
2000
0000
0000
0000
3002
0000
0000
0000
,  // measure 66
0203
0000
0000
0310
1000
0010
0100
0010
2000
0000
0000
3001
0100
0010
0100
0001
,  // measure 67
0200
0000
0000
0310
1000
0010
0100
0001
0200
0000
0000
0000
0320
0000
0000
0000
,  // measure 68
1030
0000
0100
0000
1000
0000
0010
0000
0100
0001
0000
0100
0001
0000
0100
0000
,  // measure 69
0010
0000
0100
0000
0001
0000
0100
0000
0010
1000
0000
0010
1000
0000
0010
0000
,  // measure 70
0100
0001
0100
0000
0001
1000
0001
0000
1000
0100
1000
0000
0010
0001
0010
0000
,  // measure 71
1000
0000
0100
0000
0010
0000
0001
0000
1000
0010
0100
0010
1000
0001
0100
0020
,  // measure 72
0200
0000
0000
0000
,  // measure 73
0000
0000
0000
0000
,  // measure 74
0330
0000
0000
0000
;
