#TITLE:Static State;
#SUBTITLE:;
#ARTIST:Nhato;
#TITLETRANSLIT:;
#SUBTITLETRANSLIT:;
#ARTISTTRANSLIT:;
#GENRE:;
#CREDIT:;
#MENUCOLOR:;
#METERTYPE:DDR;
#BANNER:Static State.png;
#BACKGROUND:Static State-bg.png;
#LYRICSPATH:;
#CDTITLE:;
#MUSIC:Static State.ogg;
#OFFSET:-0.080;
#SAMPLESTART:85.300;
#SAMPLELENGTH:15.000;
#SELECTABLE:YES;
#LISTSORT:;
#DISPLAYBPM:138.000;
#BPMS:0.000=138.000,148.000=69.000,152.000=138.000;
#STOPS:;
#BGCHANGES:0.000=Static State.avi=1.000=1=1=0,
99999=-nosongbg-=1.000=0=0=0 // don't automatically add -songbackground-
;
#ATTACKS:;

//---------------dance-single - ----------------
#NOTES:
     dance-single:
     :
     Hard:
     12:
     0.517,0.731,0.260,0.176,0.533:
0000
0000
0000
0000
,
0000
0000
0000
0000
,
0000
0000
0000
0000
,
0000
0000
0000
0000
,
0000
0000
0000
0000
,
0000
0000
0200
0000
0000
0302
0000
2003
,
0000
0000
0000
0000
3020
0000
0000
0100
,
0032
0000
0000
0000
,
1003
0001
1000
0001
1000
0001
1000
0000
,
0001
0000
0000
1000
0000
0100
0000
0000
0001
0000
0000
1000
0000
0100
0000
0000
,
0001
0000
0000
1000
0000
0010
0000
0000
0001
0000
0000
1000
0000
0010
0000
0000
,
0001
0000
0000
1000
0000
0100
0000
0000
0010
0000
0000
1000
0000
0100
0000
0000
,
0010
0000
0000
0100
0000
0010
0000
0000
0100
0000
0000
0010
0000
0100
0000
0000
,
0010
1000
0010
1000
0010
1000
0010
0100
,
0001
0100
0001
0100
0001
0100
0010
1000
,
0100
1000
0100
1000
0010
0001
0010
0001
,
1000
0100
1000
0100
0001
0010
0002
0000
,
0103
0000
0000
0001
0000
1000
0000
0000
0010
0000
0000
1000
0000
0001
0000
0000
,
0100
0000
0000
0001
0000
1000
0000
0000
0010
0000
0000
1000
0000
0100
0000
0000
,
0001
0000
0000
1000
0000
0100
0000
0000
0010
0000
0000
1000
0000
0100
0000
0000
,
0001
0000
0000
1000
0000
0000
0000
0010
0000
1000
0000
0000
1001
0000
0000
0000
,
0010
0000
1000
0010
0000
1000
0010
0000
0100
0000
0000
0010
0000
0000
0100
0000
,
0001
0000
0100
0001
0000
0100
0001
0000
1000
0000
0000
0001
0000
0000
1000
0000
,
0010
0000
0000
0010
0000
0000
0010
0000
0100
0000
0000
0100
0000
0000
0100
0000
,
0001
0000
0000
0100
0000
0000
0001
0000
1000
0000
0000
0100
0000
0000
1000
0000
,
0010
0000
0000
0100
0000
0001
0100
0001
0000
0000
0100
0000
0010
0000
0100
0000
,
0010
0000
0000
1000
0000
0100
1000
0100
0000
0000
1000
0000
0010
0000
0010
0000
,
0100
0000
0000
0001
0000
1000
0001
1000
0000
0000
0010
0000
0010
0000
0100
0000
,
0001
1000
0010
0100
0001
0010
0100
0000
,
1001
0000
0000
1000
0000
0100
1000
0100
0000
0000
1000
0000
0010
0000
0100
0000
,
0001
0000
0000
1000
0000
0001
0010
0001
0000
0000
0100
0000
0010
0000
1000
0000
,
0100
0000
0000
1000
0000
0010
0100
0010
0000
0000
1000
0000
0100
0000
0000
0000
,
1100
1100
0101
0101
,
1002
0000
1000
0000
0000
0100
0000
0203
,
0000
0000
0302
0000
,
2003
0000
0000
0000
0000
3010
0000
0020
,
0000
0000
0000
0000
0000
0000
0000
0000
0100
0000
0000
0100
0000
0000
0130
0000
,
0000
0000
0001
0000
1000
0001
0000
0001
1000
0000
0010
0000
0100
0000
0001
0000
,
2002
0000
0000
0000
,
0000
0000
3003
0110
,
1000
0000
0000
0001
0000
0100
0010
0000
1000
0000
0000
0100
0000
0010
0001
0000
,
1000
0000
0000
0001
0000
0100
0010
0000
1000
0000
0100
0000
0010
0000
0001
0000
,
1000
0000
0000
0010
0000
0100
0010
0000
1000
0000
0000
0001
0000
0100
0001
0000
,
1000
0000
0000
0100
0000
1000
0100
0000
1000
0000
0010
0000
0100
0000
0001
0000
,
1000
0000
0000
1000
0100
0000
0000
0100
0010
0000
0000
0010
0001
0000
0000
0001
,
0100
0000
0000
0100
1000
0000
0000
1000
0100
0000
0000
0100
0001
0000
0000
0001
,
0010
0000
0000
0010
0100
0000
0000
0100
1000
0000
0000
1000
0001
0000
0000
0001
,
0010
0100
1000
0010
0100
0001
1001
0000
,
1000
0000
0010
1000
0000
0010
1000
0000
0100
0000
0000
0100
0000
0000
1000
0000
,
0010
0000
0100
0010
0000
0100
0010
0000
1000
0000
0000
1000
0000
0000
1000
0000
,
0001
0100
0010
1000
0001
0020
0000
2030
,
0001
0100
0010
3001
,
1000
0000
0100
1000
0000
0010
1000
0000
0001
0000
0000
0001
0000
0000
0100
0000
,
0001
0000
1000
0001
0000
0100
0001
0000
0010
0000
0000
0010
0000
0000
0001
0000
,
0100
0000
0000
0100
0000
0000
0010
0000
1000
0000
0000
1000
0000
0000
0001
0000
,
0100
0000
0000
0010
0000
0100
0010
0100
0000
0000
0001
0000
0100
0000
1000
0000
,
0020
0000
1000
0000
0130
0000
1000
0001
,
0200
0000
0001
0000
1300
0000
0010
1000
,
0200
0000
1000
0000
0301
0010
0100
1000
,
0020
0100
1000
0031
,
0110
0000
0000
0100
0010
0100
0000
0000
1001
0000
0000
0001
1000
0001
0000
0000
,
1100
0000
0000
1000
0100
1000
0000
0000
0011
0000
0000
0010
0001
0010
0000
0000
,
1100
0000
0000
0010
0000
0010
0000
0000
0101
0000
0000
0010
0000
0010
0000
0000
,
1001
0000
0000
0100
0000
0100
0000
0000
1001
0000
0000
0010
0000
0010
0000
0000
,
1100
0000
0000
0101
0000
0101
0000
0000
1100
0000
0000
0101
0000
0101
0000
0000
,
0011
0000
0000
1010
0000
1010
0000
0000
0011
0000
0000
0110
0000
0110
0000
0000
,
2002
0000
0000
0000
,
3003
0000
0000
0000
;

//---------------dance-double - ----------------
#NOTES:
     dance-double:
     :
     Hard:
     12:
     0.508,0.703,0.185,0.336,0.466:
00000000
00000000
00000000
00000000
,
00000000
00000000
00000000
00000000
,
00000000
00000000
00000000
00000000
,
00000000
00000000
00000000
00000000
,
00000000
00000000
00000000
00000000
,
00000000
00000000
20000000
00000000
00000000
30020000
00000000
00230000
,
00000000
00000000
00302000
00003000
,
00020000
00000000
00030200
00000000
,
00001300
00000010
00000001
00000100
,
00001001
00000000
00000000
00000010
00000000
00001000
00000000
00000000
00000001
00000000
00000000
00000010
00000000
00001000
00000000
00000000
,
00000100
00000000
00000000
00010000
00000000
00001000
00000000
00000000
00000100
00000000
00000000
00010000
00000000
00001000
00000000
00000000
,
01000000
00000000
00000000
00010000
00000000
00100000
00000000
00000000
01000000
00000000
00000000
00010000
00000000
00100000
00000000
00000000
,
01000000
00000000
00000000
00010000
00000000
00100000
00000000
00000000
10000000
00000000
00000000
00010000
00000000
00100000
00000000
00000000
,
10000000
01000000
10000000
01000000
00100000
00010000
00100000
00001000
,
00010000
00001000
00010000
00000100
00001000
00000100
00001000
00000010
,
00001000
00000100
00000010
00000001
00001000
00000100
00010000
00001000
,
01000000
00010000
10000000
00100000
01000000
00010000
20000000
00000000
,
31000000
00000000
00000000
10000000
00000000
01000000
00000000
00000000
00100000
00000000
00000000
00010000
00000000
00100000
00000000
00000000
,
10000000
00000000
00000000
00100000
00000000
01000000
00000000
00000000
00010000
00000000
00000000
00100000
00000000
00010000
00000000
00000000
,
00001000
00000000
00000000
00001000
00000000
00000100
00000000
00000000
00001000
00000000
00000000
00000001
00000000
00000100
00000000
00000000
,
00000001
00000000
00000000
00001000
00000000
00000000
00000000
00000010
00000000
00000010
00000000
00000000
00001001
00000000
00000000
00000000
,
00000100
00000000
00000000
00001000
00000000
00000000
00000100
00000000
00010000
00000000
00000000
00010000
00000000
00000000
00001000
00000000
,
01000000
00000000
00000000
00010000
00000000
00000000
01000000
00000000
00010000
00000000
00000000
00010000
00000000
00000000
10000000
00000000
,
00100000
00000000
01000000
00100000
00000000
01000000
00100000
00000000
10000000
00000000
00000000
01000000
00000000
00000000
00010000
00000000
,
00100000
00000000
01000000
00100000
00000000
01000000
00100000
00000000
01000000
00000000
00000000
00001000
00000000
00000000
00010000
00000000
,
00000100
00000000
00000000
00001000
00000000
00000010
00001000
00000010
00000000
00000000
00001000
00000000
00000100
00000000
00000010
00000000
,
00000001
00000000
00000000
00000100
00000000
00000001
00001000
00000001
00000000
00000000
00001000
00000000
00000100
00000000
00010000
00000000
,
00001000
00000000
00000000
00001000
00000000
01000000
00001000
01000000
00000000
00000000
00010000
00000000
00100000
00000000
01000000
00000000
,
10000000
00100000
01000000
00100000
10000000
00010000
10010000
00000000
,
10000000
00000000
00000000
00010000
00000000
10000000
01000000
10000000
00000000
00100000
01000000
00000000
00100000
00000000
10000000
00000000
,
01000000
00000000
00000000
00100000
00000000
00001000
00010000
00001000
00000000
00000000
00010000
00000000
00000100
00000000
00001000
00000000
,
00000010
00000000
00000000
00000100
00000000
00000001
00001000
00000001
00000000
00000000
00001000
00000000
00000100
00000000
00010000
00000000
,
00002000
02003000
03200000
10300000
,
22000000
00000000
00000000
00000000
00000000
00010000
30000000
00020000
,
00000000
03000000
00002000
00030000
,
00000020
00000000
00000000
00000000
00003000
00000100
00000000
00000200
,
00000000
00000000
00000000
00000000
00000330
00000000
00000000
00000000
00001001
00000000
00000000
00001000
00000000
00000000
00001000
00000000
,
00000200
00000000
00000000
00000000
00001300
00000100
00000000
00010000
00002000
00000000
00000000
00000000
02003000
00000000
00000000
00000000
,
03200000
00000000
00000000
00300000
,
20020000
00000000
00000000
30030000
,
10000000
00000000
00000000
10000000
00000000
00010000
01000000
00000000
10000000
00000000
00000000
10000000
00000000
00010000
01000000
00000000
,
00001000
00000000
00000000
00001000
00000000
00010000
00000100
00000000
00010000
00000000
00000100
00000000
00001000
00000000
00000001
00000000
,
00000100
00000000
00000000
00000100
00000000
00000001
00001000
00000000
00000100
00000000
00000000
00000100
00000000
00000001
00001000
00000000
,
00000100
00000000
00000000
00000100
00000000
00001000
00000100
00000000
00010000
00000000
00001000
00000000
01000000
00000000
00010000
00000000
,
10000000
00000000
00000000
10000000
01000000
00000000
00000000
01000000
00100000
00000000
00000000
00100000
00001000
00000000
00000000
00001000
,
00000100
00000000
00000000
00000100
00000001
00000000
00000000
00000001
00000100
00000000
00000000
00000100
00001000
00000000
00000000
00001000
,
00000100
00001000
00000100
00010000
00001000
01000000
00010000
10000000
,
01000000
00100000
00010000
01000000
00200000
00000000
02300000
00000000
,
03010000
00000000
10000000
00010000
00000000
00000000
01000000
00000000
00100000
00000000
00000000
00100000
00000000
00000000
01000000
00000000
,
00010000
00000000
00100000
00001000
00000000
00000000
00010000
00000000
00001000
00000000
00000000
00001000
00000000
00000000
00010000
00000000
,
00000010
00000100
00000001
00000100
00000010
00002000
00000000
00003002
,
00000010
00000010
00001000
00002003
,
00003100
00000000
00001000
00000100
00000000
00000000
00001000
00000000
00000100
00000000
00000000
00010000
00000000
00000000
00010000
00000000
,
00001000
00000000
00010000
00001000
00000000
00000000
01000000
00000000
00010000
00000000
00000000
01000000
00000000
00000000
00100000
00000000
,
10000000
00000000
00000000
10000000
00000000
00000000
00010000
00000000
01000000
00000000
00000000
01000000
00000000
00000000
00010000
00000000
,
00100000
00000000
00000000
00001000
00000000
00010000
00001000
00010000
00000000
00000000
00001000
00000000
00010000
00000000
00000100
00000000
,
00002000
00000000
00000010
00000000
00003010
00000200
00000000
00000302
,
00000010
00000010
00000203
00000010
,
00000320
00000000
00001000
00000000
00001030
00000200
00000000
00020300
,
00001000
00000100
00001000
01030000
,
02010000
00000000
13000000
00000000
10000000
00200000
00000000
02300000
,
00010000
03001000
00020000
00030100
,
00001100
00000000
00000000
00000010
00000000
00000100
00000000
00000000
00000011
00000000
00000000
00000100
00000000
00000010
00000000
00000000
,
00001100
00000000
00000000
00010000
00000000
00001000
00000000
00000000
00011000
00000000
00000000
00001000
00000000
00010000
00000000
00000000
,
00110000
00000000
00000000
10010000
00000000
10010000
00000000
00000000
00110000
00000000
00000000
00011000
00000000
00011000
00000000
00000000
,
00001100
00000000
00000000
00001001
00000000
00001001
00000000
00000000
00001100
00000000
00000000
00010000
00001000
00000000
00010000
00000000
,
00022000
00000000
00000000
00000000
,
00033000
00000000
00000000
00000000
;

//---------------dance-double - ----------------
#NOTES:
     dance-double:
     :
     Medium:
     9:
     0.411,0.506,0.235,0.462,0.097:
00000000
00000000
00000000
00000000
,
00000000
00000000
00000000
00000000
,
00000000
00000000
00000000
00000000
,
00000000
00000000
00000000
00000000
,
00000000
00000000
00000000
00000000
,
00000000
00000000
02000000
00000000
00000000
03020000
00000000
00000000
,
00032000
00000000
00003200
00000000
,
00000302
00000000
00002003
00000000
,
00003200
00001000
00001000
00001300
,
00000001
00000000
00000100
00000001
00001000
00000000
00000100
00000000
,
00010000
00000000
00001000
00010000
00001000
00000000
01000000
00000000
,
00010000
00000000
01000000
00010000
10000000
00000000
00010000
00000000
,
01000000
00000000
00001000
00010000
00001000
00000000
00010000
00000000
,
00000100
00001000
00000100
00000000
00001000
00000000
00000001
00000000
,
00001000
00000100
00001000
00000000
00000100
00000000
00010000
00000000
,
00001000
01000000
00001000
00000000
01000000
00010000
01000000
00000000
,
00100000
01000000
00100000
00000000
20000000
00000000
30010000
00000000
,
10000000
11000000
00010000
01010000
,
10000000
10100000
00100000
00110000
,
00001000
00011000
00010000
00011000
,
00010000
00000010
00000200
00000310
,
00000002
00000100
00001000
00000103
,
00002000
00000100
00010000
00003100
,
00020000
00031000
00002000
00013000
,
00002000
00010000
00100000
00013000
,
00200000
00000000
00310000
00000000
00100000
00010000
01000000
00000000
,
00200000
00000000
10300000
00000000
00100000
10000000
01000000
00000000
,
00200000
00000000
00301000
00000000
00010000
00001000
00010000
00000000
,
00002000
00003200
00002300
00003010
,
00000200
00000001
00001300
00000110
,
00000200
00001000
00000301
00000110
,
00020000
00001000
00030100
00010100
,
00002000
00010000
00100000
01003000
,
01020000
00000000
00000000
00000000
00000000
10000000
00000000
20030000
,
00000000
00000000
30200000
00000000
,
02300000
00000000
00000000
00000000
00000000
00001000
00000000
03002000
,
00000000
00000000
00023000
00000000
,
00030200
00001000
00000010
00000301
,
00002002
00000000
00000000
00000000
,
00000000
00000000
00003003
00002000
,
00003100
00020000
00001000
00031000
,
00100000
00020000
01000000
01030000
,
00100000
20000000
01000000
31000000
,
00200000
00001000
00010000
00310000
,
00011000
00011000
00001010
00001010
,
00011000
00011000
01010000
01010000
,
10000000
01000000
10000000
01000000
00100000
00010000
00100000
00010000
,
00001000
00010000
00001000
00010000
00000100
00001000
00000100
00001000
,
00000010
00000000
00000000
00000010
00000000
00000000
00000010
00000000
00000100
00000000
00000000
00000000
00001001
00000000
00000000
00000000
,
00001000
00000000
00000000
00001000
00000000
00000000
00001000
00000000
00000100
00000000
00000000
00000000
00011000
00000000
00000000
00000000
,
00002000
00000000
00023000
00000000
00031000
02000000
00000000
03200000
,
00000000
10000000
01000000
10300000
,
10000000
00000000
00000000
10000000
00000000
00000000
00010000
00000000
01000000
00000000
00000000
00000000
01001000
00000000
00000000
00000000
,
00010000
00000000
00000000
00010000
00000000
00000000
00001000
00000000
00010000
00000000
00000000
00000000
00010100
00000000
00000000
00000000
,
00000100
00000000
00000000
00001000
00000000
00000000
00001000
00000000
00000010
00000000
00000000
00000010
00000000
00000000
00000100
00000000
,
00000001
00000000
00000000
00000001
00000000
00000000
00001000
00000000
00000010
00000000
00000100
00000000
00000010
00000000
00001000
00000000
,
00000200
00000000
00010000
00000000
00000000
00020300
00000000
00032000
,
00000000
01000000
00023000
00001000
,
00032000
00000000
01000000
00000000
00000000
02003000
00000000
00100000
,
03200000
10000000
01000000
10300000
,
20000000
00000000
01000000
00000000
00000000
30200000
00000000
02300000
,
00000000
00001000
00010000
03002000
,
00013000
00000000
00000000
00001000
00000000
00001000
00000000
00000000
00010000
00000000
00000000
00001000
00000000
00001000
00000000
00000000
,
00010000
00000000
00000000
01000000
00000000
01000000
00000000
00000000
00010000
00000000
00000000
00000100
00000000
00000100
00000000
00000000
,
00010000
00000000
00000000
00011000
00000000
00011000
00000000
00000000
00001000
00000000
00000000
00011000
00000000
00011000
00000000
00000000
,
00010000
00000000
00000000
00000100
00000000
00001000
00000000
00000000
00010000
00000000
00000000
00001000
00000000
00010000
00000000
00000000
,
00022000
00000000
00000000
00000000
,
00033000
00000000
00000000
00000000
;

//---------------dance-single - ----------------
#NOTES:
     dance-single:
     :
     Medium:
     9:
     0.408,0.506,0.327,0.386,0.101:
0000
0000
0000
0000
,
0000
0000
0000
0000
,
0000
0000
0000
0000
,
0000
0000
0000
0000
,
0000
0000
0000
0000
,
0000
0000
0020
0000
0000
0032
0000
0000
,
2003
0000
3020
0000
,
0032
0000
2003
0000
,
3200
0010
0010
0310
,
0001
0000
0100
0001
1000
0000
0001
0000
,
0100
0000
0001
1000
0100
0000
0100
0000
,
1000
0000
0001
1000
0100
0000
0100
0000
,
0001
0000
1000
0001
1000
0000
0001
0000
,
0100
1000
0100
0000
1000
0000
0001
0000
,
1000
0100
1000
0000
0100
0000
0001
0000
,
1000
0100
1000
0000
0001
0100
0001
0000
,
1000
0100
1000
0000
2000
0000
3001
0000
,
1000
1100
0001
0101
,
1000
1010
0001
0011
,
1000
1001
0001
1001
,
0001
0010
0100
1001
,
0002
0100
1000
0103
,
2000
0100
0001
3100
,
0002
1003
2000
3001
,
2000
0001
0010
3001
,
0020
0000
0031
0000
0010
0001
0100
0000
,
0020
0000
1030
0000
0010
1000
0100
0000
,
0002
0000
1003
0000
0001
1000
0001
0000
,
2000
3200
0320
0031
,
1000
0000
0001
1000
0001
0000
1001
0000
,
0001
0000
1000
0001
1000
0000
1001
0000
,
0002
0013
0200
1300
,
0002
0010
0100
0013
,
1002
0000
0000
0000
0000
1000
0000
2003
,
0000
0000
3020
0000
,
0230
0000
0000
0000
0000
0001
0000
0302
,
0000
0000
0000
0000
0000
0000
0000
0000
1000
0000
0000
1000
0000
0000
0003
0000
,
0200
1000
0001
1300
,
2002
0000
0000
0000
,
0000
0000
3003
2000
,
3010
0010
0100
1001
,
0100
0100
0010
1001
,
0010
1001
0100
1001
,
0010
0010
0010
1001
,
0110
0110
1010
1010
,
1001
1001
0101
0101
,
1000
0100
1000
0000
0001
0100
0001
0000
,
1000
0001
1000
0000
0001
0000
1001
0000
,
0010
0000
0000
0010
0000
0000
0010
0000
0100
0000
0000
0000
1001
0000
0000
0000
,
0100
0000
0000
0100
0000
0000
0100
0000
0010
0000
0000
0000
1001
0000
0000
0000
,
0020
0000
0032
0000
0003
0200
0000
0320
,
0000
0100
0100
1030
,
0001
0000
0000
0001
0000
0000
1000
0000
0100
0000
0000
0000
1001
0000
0000
0000
,
1000
0000
0000
1000
0000
0000
0001
0000
0100
0000
0000
0000
1001
0000
0000
0000
,
1000
0000
0000
1000
0000
0000
1000
0000
0001
0000
0000
0001
0000
0000
0001
0000
,
0100
0000
0000
0100
0000
0000
0100
0000
0010
0000
0000
0000
1001
0000
0000
0000
,
0200
0000
0001
0000
0000
0302
0000
2003
,
0000
0100
3002
1000
,
2003
0000
0100
0000
0000
3020
0000
0100
,
0100
1000
0100
1030
,
2000
0000
0100
0000
0000
3020
0000
0230
,
0000
0001
0010
0301
,
1001
0000
0000
1000
0000
1000
0000
0000
1001
0000
0000
1000
0000
1000
0000
0000
,
1001
0000
0000
0001
0000
0001
0000
0000
1001
0000
0000
0001
0000
0001
0000
0000
,
0001
0000
0000
1001
0000
1001
0000
0000
1000
0000
0000
1001
0000
1001
0000
0000
,
0001
0000
0000
0100
0000
1000
0000
0000
0001
0000
0000
0100
0000
1000
0000
0000
,
2002
0000
0000
0000
,
3003
0000
0000
0000
;

//---------------dance-double - ----------------
#NOTES:
     dance-double:
     :
     Easy:
     5:
     0.296,0.309,0.050,0.395,0.000:
00000000
00000000
00000000
00000000
,
00000000
00000000
00000000
00000000
,
00000000
00000000
00000000
00000000
,
00000000
00000000
00000000
00000000
,
00000000
00000000
00000000
00000000
,
01000000
00020000
00000000
00030000
,
20000000
30000000
00020000
00030000
,
00002000
00000000
00000100
00000000
,
00003000
00000001
00001000
00000001
,
00000200
00000300
00000200
00000300
,
00020000
00030000
00002000
00003000
,
02000000
03000000
02000000
03000000
,
00002000
00003000
00020000
00030000
,
00000100
00000100
00010000
00001000
,
01000000
01000000
00001000
00010000
,
00001000
00010000
00001000
00010000
,
00022000
00000000
00033000
00000000
,
00000010
00001000
00000100
00001000
,
00000010
00000001
00000100
00001000
,
00010000
00001000
00010000
00001000
,
00100000
00010000
01000000
10000000
,
00200000
00300000
20000000
30000000
,
00020000
00030000
00002000
00003000
,
00000020
00000030
00000002
00000003
,
00000020
00000030
00002000
00003000
,
00000100
00010000
00002000
00003000
,
00010000
00001000
02000000
03000000
,
00100000
10000000
02000000
03000000
,
00100000
00010000
00000200
00000300
,
00001000
00000001
00002000
00003100
,
00000001
00001000
00000002
00000103
,
00010000
00001000
00010000
00001000
,
00100000
00010000
01000000
10010000
,
02000000
00100000
00100000
03100000
,
20000000
01000000
01000000
31000000
,
00200000
00010000
00010000
00310000
,
00002000
00010000
00010000
00013000
,
00000000
00001001
00000000
10010000
,
00200000
01000000
01000000
01000000
,
02000000
00000000
00000000
03300000
,
10010000
00000000
01000000
00000000
,
01000000
00000000
00100000
00001000
,
00000100
00000000
00000100
00000000
,
00000100
00000000
00000100
00010000
,
00001000
00001000
00010000
00010000
,
00001000
00010000
00001000
00010000
,
00000100
00001000
00000010
00000001
,
00000100
00001000
00020000
00031000
,
00002000
00003000
02000000
03000000
,
00001000
01000000
00010000
01000000
,
00002000
00003000
00020000
00030000
,
00010000
00000100
00010000
00001000
,
00020000
00030000
00000020
00000030
,
00020000
00030000
00200000
00300000
,
00010000
00000010
00010000
00100000
,
00020000
00030000
00002000
00003000
,
01000000
10000000
01000000
00010000
,
01000000
01000000
00100000
00100000
,
00010000
00001000
00010000
00001000
,
00000100
00000100
00000010
00000010
,
00000001
00000100
00001000
00000100
,
00010000
00001000
00010000
00001000
,
01000000
00010000
01000000
10000000
,
01000000
00010000
01000000
10000000
,
00100000
00010000
00100000
10000000
,
00100000
00010000
00001000
00010000
,
00022000
00000000
00000000
00000000
,
00033000
00000000
00000000
00000000
;

//---------------dance-single - ----------------
#NOTES:
     dance-single:
     :
     Easy:
     5:
     0.296,0.309,0.050,0.395,0.000: // measure 1
0000
0000
0000
0000
,  // measure 2
0000
0000
0000
0000
,  // measure 3
0000
0000
0000
0000
,  // measure 4
0000
0000
0000
0000
,  // measure 5
0000
0000
0000
0000
,  // measure 6
1000
0002
0000
0003
,  // measure 7
2000
3000
0002
0003
,  // measure 8
2000
0000
0001
0000
,  // measure 9
3000
0001
1000
0001
,  // measure 10
0200
0300
0200
0300
,  // measure 11
0002
0003
2000
3000
,  // measure 12
0200
0300
0200
0300
,  // measure 13
2000
3000
0002
0003
,  // measure 14
0100
0100
0001
1000
,  // measure 15
0100
0100
1000
0001
,  // measure 16
1000
0001
1000
0001
,  // measure 17
2002
0000
3003
0000
,  // measure 18
0010
1000
0100
1000
,  // measure 19
0010
0001
0100
1000
,  // measure 20
0001
1000
0001
1000
,  // measure 21
0010
0001
0100
1000
,  // measure 22
0020
0030
2000
3000
,  // measure 23
0002
0003
2000
3000
,  // measure 24
0020
0030
0002
0003
,  // measure 25
0020
0030
2000
3000
,  // measure 26
0100
0001
2000
3000
,  // measure 27
0001
1000
0200
0300
,  // measure 28
0010
1000
0200
0300
,  // measure 29
0010
0001
0200
0300
,  // measure 30
1000
0001
2000
3100
,  // measure 31
0001
1000
0002
0103
,  // measure 32
0001
1000
0001
1000
,  // measure 33
0010
0001
0100
1001
,  // measure 34
0200
0010
0010
0310
,  // measure 35
2000
0100
0100
3100
,  // measure 36
0020
0001
0001
0031
,  // measure 37
2000
0001
0001
3001
,  // measure 38
0000
1001
0000
1001
,  // measure 39
0020
0100
0100
0100
,  // measure 40
0200
0000
0000
0330
,  // measure 41
1001
0000
0100
0000
,  // measure 42
0100
0000
0010
1000
,  // measure 43
0100
0000
0100
0000
,  // measure 44
0100
0000
0100
0001
,  // measure 45
1000
1000
0001
0001
,  // measure 46
1000
0001
1000
0001
,  // measure 47
0100
1000
0010
0001
,  // measure 48
0100
1000
0002
1003
,  // measure 49
2000
3000
0200
0300
,  // measure 50
1000
0100
0001
0100
,  // measure 51
2000
3000
0002
0003
,  // measure 52
0001
0100
0001
1000
,  // measure 53
0002
0003
0020
0030
,  // measure 54
0002
0003
0020
0030
,  // measure 55
0001
0010
0001
0010
,  // measure 56
0002
0003
2000
3000
,  // measure 57
0100
1000
0100
0001
,  // measure 58
0100
0100
0010
0010
,  // measure 59
0001
1000
0001
1000
,  // measure 60
0100
0100
0010
0010
,  // measure 61
0001
0100
1000
0100
,  // measure 62
0001
1000
0001
1000
,  // measure 63
0100
0001
0100
1000
,  // measure 64
0100
0001
0100
1000
,  // measure 65
0010
0001
0010
1000
,  // measure 66
0010
0001
1000
0001
,  // measure 67
2002
0000
0000
0000
,  // measure 68
3003
0000
0000
0000
;

//---------------dance-single - ----------------
#NOTES:
     dance-single:
     :
     Beginner:
     3:
     0.152,0.197,0.034,0.101,0.000: // measure 1
0000
0000
0000
0000
,  // measure 2
0000
0000
0000
0000
,  // measure 3
0000
0000
0000
0000
,  // measure 4
0000
0000
0000
0000
,  // measure 5
0000
0000
0000
0000
,  // measure 6
2000
0000
3000
0000
,  // measure 7
0002
0000
0003
0000
,  // measure 8
2000
0000
3000
0000
,  // measure 9
0002
0000
0003
0000
,  // measure 10
0100
0000
0100
0000
,  // measure 11
0100
0000
0100
0000
,  // measure 12
0010
0000
0010
0000
,  // measure 13
0010
0000
0010
0000
,  // measure 14
0100
0100
0100
0000
,  // measure 15
0010
0010
0010
0000
,  // measure 16
1000
0000
0001
0000
,  // measure 17
2002
0000
3003
0000
,  // measure 18
1000
0000
1000
0000
,  // measure 19
0001
0000
0001
0000
,  // measure 20
1000
0000
1000
0000
,  // measure 21
0001
0000
0001
0000
,  // measure 22
0010
0000
0100
0000
,  // measure 23
0010
0000
0100
0000
,  // measure 24
0010
0000
0010
0000
,  // measure 25
0100
0000
0100
0000
,  // measure 26
0000
0001
0001
0000
,  // measure 27
0000
1000
1000
0000
,  // measure 28
0000
0001
0001
0000
,  // measure 29
0000
1000
1000
0000
,  // measure 30
0000
0010
0010
0000
,  // measure 31
0000
0100
0100
0000
,  // measure 32
0000
0010
0010
0000
,  // measure 33
0001
0000
1001
0000
,  // measure 34
0100
0000
0000
0000
,  // measure 35
1000
0000
0000
0000
,  // measure 36
0010
0000
0000
0000
,  // measure 37
0001
0000
0000
0000
,  // measure 38
0000
0001
0000
0001
,  // measure 39
0000
0000
0000
0000
,  // measure 40
0000
0000
0000
0000
,  // measure 41
0100
0000
0100
0000
,  // measure 42
0010
0000
0010
0000
,  // measure 43
0001
0000
1000
0000
,  // measure 44
0001
0000
1000
0000
,  // measure 45
0010
0000
0010
0000
,  // measure 46
0100
0000
0100
0000
,  // measure 47
0001
0000
1000
0000
,  // measure 48
2002
0000
3003
0000
,  // measure 49
0010
0000
0010
0000
,  // measure 50
0100
0000
0100
0000
,  // measure 51
0010
0000
0100
0000
,  // measure 52
0020
0000
0030
0000
,  // measure 53
1000
0000
0001
0000
,  // measure 54
1000
0000
0001
0000
,  // measure 55
1000
0000
1000
0000
,  // measure 56
0002
0000
0003
0000
,  // measure 57
0100
0000
0100
0000
,  // measure 58
0010
0000
0010
0000
,  // measure 59
1000
0000
1000
0000
,  // measure 60
0001
0000
0001
0000
,  // measure 61
1000
1000
1000
0000
,  // measure 62
0001
0001
0001
0000
,  // measure 63
0100
0000
0100
0000
,  // measure 64
0010
0000
0010
0000
,  // measure 65
1000
0000
1000
0000
,  // measure 66
0001
0000
0001
0000
,  // measure 67
2002
0000
0000
0000
,  // measure 68
3003
0000
0000
0000
;
