#TITLE:Space Dog;
#SUBTITLE:;
#ARTIST:Sana;
#TITLETRANSLIT:;
#SUBTITLETRANSLIT:;
#ARTISTTRANSLIT:;
#GENRE:;
#CREDIT:;
#BANNER:Space Dog.png;
#BACKGROUND:Space Dog-bg.png;
#LYRICSPATH:;
#CDTITLE:;
#MUSIC:Space Dog.ogg;
#OFFSET:0.662499;
#SAMPLESTART:71.284401;
#SAMPLELENGTH:12.743370;
#SELECTABLE:YES;
#BPMS:0.000000=113.000000
;
#STOPS:
;
#BGCHANGES:;
#KEYSOUNDS:;
#ATTACKS:;

//---------------dance-single - ----------------
#NOTES:
     dance-single:
     :
     Hard:
     10:
     0.342813,0.403148,0.119985,0.327958,0.019997,300.000000,285.000000,15.000000,41.000000,0.000000,0.000000,0.342813,0.403148,0.119985,0.327958,0.019997,300.000000,285.000000,15.000000,41.000000,0.000000,0.000000:
0000
0000
0000
0000
,
0000
0000
0000
0000
,
0000
0000
0000
0000
,
0000
0000
0000
0000
,
0000
0000
0000
0000
,
0002
0003
2002
3003
,
2000
0000
3000
0000
2002
0000
3003
0100
,
0001
1000
0020
0000
,
0200
0000
0330
0100
0001
0010
0100
1000
,
0001
0100
0010
0100
1000
0100
0010
0100
,
0001
0010
0100
0010
0001
0010
0100
0010
,
0001
0100
1000
0100
0002
0000
2003
0000
,
3020
0000
0130
0000
0001
0100
1000
0100
,
0001
0010
0100
0010
0001
0100
0010
0100
,
1000
0100
0010
0100
0001
1000
0100
0010
,
0001
0100
0010
0100
0002
0000
2003
0000
,
3020
0130
0001
2002
,
3003
0000
0000
1000
0001
0100
0001
0010
,
0001
0100
0001
0020
0000
0000
0230
0000
,
0301
0000
0000
1000
2000
0000
3002
0000
,
0103
0000
0000
0010
1000
0000
0000
0000
0100
0000
0000
0010
1000
0000
0000
0000
,
0001
0000
0000
1000
0010
1000
0001
0100
,
0010
1000
0001
0200
0000
0000
0310
0000
,
1000
0000
0000
0000
0000
0000
0001
0100
0001
0000
0000
0000
1000
0000
0100
0000
,
0000
0000
0010
0000
0001
0000
0000
0000
0100
0010
0100
0000
0001
1000
0001
0000
,
0000
0100
0010
1000
0000
0100
0010
1000
,
0000
0001
0100
0010
0000
0001
0100
0010
,
0000
1000
0100
0010
0000
1000
0100
0010
,
0000
0001
0100
0010
0000
0001
0100
0010
,
0000
1000
0001
0100
0000
1000
0001
0100
,
0000
0001
1000
0100
0000
0001
1000
0100
,
0000
0010
1000
0100
0000
0010
0001
0000
,
1000
0001
0200
0000
0301
1000
0200
0000
,
1300
0010
0100
0000
1001
1001
1001
0000
,
0000
0010
1000
0100
1000
0100
1000
0010
,
0100
0001
0100
0001
1000
0010
1000
0010
,
0000
0100
0001
0010
0001
0100
0001
0100
,
0010
1000
0010
1000
0001
0010
0100
1000
,
0000
0100
0010
1000
0100
1000
0100
0010
,
0001
0100
0001
0100
0001
0010
0100
1000
,
0000
0001
0100
0010
0100
0010
1000
0001
,
1000
0001
1000
0100
0010
0100
1000
0000
,
0002
0103
2002
3003
,
2000
3100
2002
3003
,
0002
1003
0220
0330
,
2000
3001
0220
0330
,
2000
3000
0002
0003
,
0200
0000
0300
0000
0020
0000
0030
1000
,
0100
1000
0010
0100
0101
0000
1001
0000
,
0001
0100
0010
0100
0110
0000
1001
0000
,
0001
0100
0010
0100
0001
0100
0010
0100
,
0001
1000
0100
0010
0001
0010
0100
1000
,
0000
0001
0100
0010
0100
0001
0100
0010
,
1000
0100
0010
0001
0100
0010
0100
0000
,
2002
0000
0000
0000
,
0000
0000
0000
0000
,
3003
0000
0000
0000
;

//---------------dance-double - ----------------
#NOTES:
     dance-double:
     :
     Hard:
     10:
     0.327958,0.380751,0.071991,0.255967,0.011998,287.000000,278.000000,9.000000,32.000000,0.000000,0.000000,0.327958,0.380751,0.071991,0.255967,0.011998,287.000000,278.000000,9.000000,32.000000,0.000000,0.000000:
// measure 0
00000000
00000000
00000000
00000000
,  // measure 1
00000000
00000000
00000000
00000000
,  // measure 2
00000000
00000000
00000000
00000000
,  // measure 3
00000000
00000000
00000000
00000000
,  // measure 4
00000000
00000000
00000000
00000000
,  // measure 5
20000000
00000000
00000000
00000000
31000000
00000000
00000000
00010000
,  // measure 6
00002000
00000000
00000000
00000000
00003100
00000000
00000000
00000010
,  // measure 7
00000001
00001000
00000200
00000300
,  // measure 8
00020000
00000000
00030000
00000000
00001000
00100000
00010000
00000000
,  // measure 9
01000000
00100000
01000000
00100000
10000000
01000000
00100000
00010000
,  // measure 10
01000000
00100000
01000000
00100000
01000000
00001000
00010000
00000100
,  // measure 11
00001000
00000100
00001000
00000001
00001000
00000000
00000110
00000000
,  // measure 12
00002002
00000000
00003003
00000000
00000010
00001000
00000100
00000000
,  // measure 13
00010000
00001000
00010000
00001000
01000000
00010000
10000000
00100000
,  // measure 14
10000000
01000000
10000000
01000000
00100000
00001000
00010000
00000100
,  // measure 15
00001000
00000001
00001000
00000100
00020000
00000000
00032000
00000000
,  // measure 16
02003000
00000000
03100000
00000000
10000000
01000000
00200000
00000000
,  // measure 17
00300000
00000000
00000000
10000000
00100000
01000000
00100000
10000000
,  // measure 18
00100000
01000000
00100000
20000000
00000000
00000000
30010000
00000000
,  // measure 19
00100000
00000000
00000000
00000010
00001000
00000000
00001001
00000000
,  // measure 20
00000001
00000000
00000000
00001000
00000100
00000000
00000000
00000000
00000001
00000000
00000000
00001000
00000100
00000000
00000000
00000000
,  // measure 21
00010000
00000000
00000000
00001000
00100000
00010000
10000000
01000000
,  // measure 22
00100000
00010000
10000000
02000000
00000000
00000000
03010000
00000000
,  // measure 23
00100000
00000000
00000000
00010000
00010000
00000000
10000000
01000000
,  // measure 24
00000000
00000000
00100000
00000000
00001000
00000000
00000000
00000000
00010000
00001000
00010000
00000000
00001000
00000000
00010000
00000000
,  // measure 25
00000100
00001000
00000010
00000100
00000000
00000001
00001000
00000100
,  // measure 26
00000000
00010000
00001000
01000000
00000000
10000000
00010000
01000000
,  // measure 27
00000000
10000000
00100000
01000000
00000000
00001000
00000100
00000010
,  // measure 28
00000000
00000001
00000100
00000010
00000000
00010000
00001000
01000000
,  // measure 29
00000000
10000000
00100000
01000000
00000000
01000000
00001000
00010000
,  // measure 30
00000000
00000010
00001000
00000100
00000000
01000000
00010000
00100000
,  // measure 31
00000000
10000000
01000000
00100000
00000000
00001000
00000100
00000001
,  // measure 32
00000010
00000001
00000100
00000000
00001000
00000100
00010000
00000000
,  // measure 33
00001000
01000000
00100000
00000000
10010000
10010000
10010000
00000000
,  // measure 34
20000000
00000000
01000000
00000000
30010000
00000000
00100000
00001000
,  // measure 35
00020000
00000000
00000100
00000000
00031000
00000000
00000100
00001000
,  // measure 36
00000020
00001000
00000130
00001000
,  // measure 37
00002002
00000000
00003003
00000000
00000010
00010000
00001000
00100000
,  // measure 38
00020000
00000000
01000000
00000000
10030000
00000000
00100000
10000000
,  // measure 39
02000000
00000000
10000000
00000000
03010000
00000000
01000000
00010000
,  // measure 40
00100000
00010000
01000000
00100000
10000000
00000000
11000000
00000000
,  // measure 41
00210000
00302000
00023000
00030020
,  // measure 42
00000130
00000001
00000100
00000001
00002000
00000000
00003100
00000000
,  // measure 43
00010000
00001000
00010000
00001000
02000000
00000000
03100000
00000000
,  // measure 44
10000000
01000000
00100000
00010000
02000000
00000000
03002000
00000000
,  // measure 45
00023000
00000000
00030200
00000000
00001300
00000100
00000010
00000001
,  // measure 46
00000100
00001000
00000100
00000001
00001000
00000000
00000100
00000000
,  // measure 47
00010000
00001000
01000000
00001000
00010000
00000000
00001000
01000000
,  // measure 48
00010000
10000000
01000000
00100000
00010000
00000000
00001000
00000000
,  // measure 49
00010000
00000010
00000100
00000001
00001000
00000000
00000100
00010000
,  // measure 50
00001000
00100000
00010000
00100000
00000000
10000000
01000000
10000000
,  // measure 51
00000000
00001000
01000000
00001000
00000000
00010000
00000100
00010000
,  // measure 52
00000000
00000010
00001000
00000100
00000000
00001000
00000100
00000010
,  // measure 53
00000000
00000001
00000100
00000010
00020000
00000000
00032000
00000000
,  // measure 54
00020000
00000000
00000000
00000000
,  // measure 55
00000000
00000000
00000000
00000000
,  // measure 56
00033000
00000000
00000000
00000000
;

//---------------dance-single - ----------------
#NOTES:
     dance-single:
     :
     Beginner:
     1:
     0.069705,0.111986,0.007999,0.087989,0.000000,61.000000,60.000000,1.000000,11.000000,0.000000,0.000000,0.069705,0.111986,0.007999,0.087989,0.000000,61.000000,60.000000,1.000000,11.000000,0.000000,0.000000:
0000
0000
0000
0000
,
0000
0000
0000
0000
,
0000
0000
0000
0000
,
0000
0000
0000
0000
,
0000
0000
0000
0000
,
0010
0000
0000
0000
,
0001
0000
0000
0000
,
0100
0000
0100
0000
,
0100
0000
0000
0000
,
0010
0000
0000
0000
,
1000
0000
0000
0000
,
0100
0000
0100
0000
,
0100
0000
0000
0000
,
0010
0000
0000
0000
,
0001
0000
0000
0000
,
0100
0000
0100
0000
,
0100
0000
0000
0000
,
0000
0000
0000
0000
,
0002
0000
0003
0000
,
0000
0000
0000
0000
,
0000
0000
2000
3000
,
0000
0000
0000
0000
,
0002
0000
0003
0000
,
0000
0000
0000
0000
,
0000
0000
1000
1000
,
0000
0010
0000
0010
,
0000
0010
0000
0010
,
0000
0100
0000
0100
,
0000
0100
0000
0100
,
0000
0001
0000
0001
,
0000
0001
0000
0001
,
0000
1000
0000
1000
,
1000
0000
0001
0000
,
2000
0000
3000
0000
,
0020
0000
0030
0000
,
0020
0000
0030
0000
,
0001
0000
1000
0000
,
0001
0000
0000
0000
,
0020
0000
0030
0000
,
0020
0000
0030
0000
,
1000
0000
0001
0000
,
1000
0000
0000
0000
,
0010
0000
0000
0000
,
0001
0000
0000
0000
,
0100
0000
0100
0000
,
0100
0000
0000
0000
,
0010
0000
0000
0000
,
1000
0000
0000
0000
,
0100
0000
0010
0000
,
0100
0000
0010
0000
,
0200
0000
0000
0000
,
0300
0000
0000
0000
,
0000
0000
0000
0000
,
0000
0000
0000
0000
,
2002
0000
0000
0000
,
0000
0000
0000
0000
,
3003
0000
0000
0000
;

//---------------dance-double - ----------------
#NOTES:
     dance-double:
     :
     Easy:
     3:
     0.116557,0.179177,0.015998,0.063992,0.000000,102.000000,100.000000,2.000000,8.000000,0.000000,0.000000,0.116557,0.179177,0.015998,0.063992,0.000000,102.000000,100.000000,2.000000,8.000000,0.000000,0.000000:
00000000
00000000
00000000
00000000
,
00000000
00000000
00000000
00000000
,
00000000
00000000
00000000
00000000
,
00000000
00000000
00000000
00000000
,
00000000
00000000
00000000
00000000
,
00100000
00000000
01000000
00000000
,
00100000
00000000
01000000
00000000
,
00010000
00000000
00001000
00000000
,
00000000
00000000
00000000
00000000
,
00000010
00000000
00000100
00000000
,
00000010
00000000
00000100
00000000
,
00010000
00000000
00001000
00000000
,
00010000
00000000
00000000
00000000
,
01000000
00000000
00100000
00000000
,
01000000
00000000
00100000
00000000
,
00010000
00000000
00001000
00000000
,
00010000
00000000
00000000
00000000
,
00000000
00000000
00000001
00000000
,
00000010
00000000
00001000
00000000
,
00000000
00000000
00010000
00000000
,
00100000
00000000
10000000
00000000
,
00000000
00000000
01000000
00000000
,
00010000
00000000
00100000
00000000
,
00000000
00000000
00000000
00000000
,
00000000
00000000
00000010
00000100
,
00000000
00001000
00000001
00001000
,
00000000
00010000
00001000
00010000
,
00000000
10000000
00010000
10000000
,
00010000
01000000
00100000
01000000
,
00000000
00001000
00010000
00001000
,
00000000
00001000
00000001
00001000
,
00000000
00010000
00001000
00010000
,
00001000
00000000
00100000
00000000
,
10000000
00000000
10010000
00000000
,
00000000
10000000
01000000
00010000
,
00000000
00001000
00000100
00000001
,
00000000
00000001
00000000
00001000
,
00000000
00000001
00000010
00001000
,
00000000
00000100
00010000
00001000
,
00000000
01000000
00010000
10000000
,
00000000
00100000
00000000
00001000
,
00000000
00010000
00000100
00001000
,
00000020
00000000
00000030
00000000
,
00002000
00000000
00003000
00000000
,
00020000
00000000
00030000
00000000
,
02000000
00000000
03000000
00000000
,
10000000
00000000
01000000
00000000
,
00010000
00000000
00000100
00000000
,
00000001
00000010
00000100
00000000
,
00010000
00100000
01000000
00000000
,
20000000
00000000
30000000
00000000
,
00020000
00000000
00030000
00000000
,
00001000
00000000
00000001
00000000
,
00010000
00000000
00001000
00000000
,
00022000
00000000
00000000
00000000
,
00000000
00000000
00000000
00000000
,
00033000
00000000
00000000
00000000
;

//---------------dance-single - ----------------
#NOTES:
     dance-single:
     :
     Easy:
     3:
     0.117699,0.179177,0.023997,0.167978,0.000000,103.000000,100.000000,3.000000,21.000000,0.000000,0.000000,0.117699,0.179177,0.023997,0.167978,0.000000,103.000000,100.000000,3.000000,21.000000,0.000000,0.000000:
0000
0000
0000
0000
,
0000
0000
0000
0000
,
0000
0000
0000
0000
,
0000
0000
0000
0000
,
0000
0000
0000
0000
,
0020
0000
0030
0000
,
0002
0000
0003
0000
,
0100
0000
0200
0000
,
0300
0000
0010
0010
,
0000
0001
0000
0001
,
0000
1000
0000
1000
,
0000
0001
0000
1000
,
2000
0000
3000
0000
,
0000
1000
0000
1000
,
0000
0001
0000
0001
,
0000
1000
0000
0001
,
0002
0000
0003
0000
,
0000
0100
0000
0100
,
0000
0100
0000
0100
,
0000
0001
0000
1000
,
0000
0001
0000
1000
,
0000
0010
0000
0010
,
0000
0010
0000
0010
,
0000
1000
0000
0100
,
0000
0000
0100
0100
,
0000
0001
1000
0001
,
0000
1000
0001
1000
,
0000
0010
0100
0010
,
1000
0100
0010
0001
,
0000
0100
0010
0100
,
0000
0010
0100
0010
,
0000
1000
0001
1000
,
0200
0300
0020
0030
,
0002
0003
2002
3003
,
0000
0010
1000
0100
,
0000
0010
0001
0100
,
0000
0010
1000
0001
,
2000
0000
0000
3000
,
0000
0010
0001
0100
,
0000
0010
1000
0100
,
0000
0001
0100
0010
,
2000
0000
3000
0000
,
0002
0000
0003
0000
,
0200
0000
0300
0000
,
0010
0000
0010
0000
,
0020
0000
0030
0000
,
2000
0000
3000
0000
,
0020
0000
0030
0000
,
1000
0001
1000
0000
,
0001
1000
0001
0000
,
2002
0000
0000
0000
,
3003
0000
0000
0000
,
0010
0000
0000
0000
,
0100
0000
0010
0000
,
2002
0000
0000
0000
,
0000
0000
0000
0000
,
3003
0000
0000
0000
;

//---------------dance-single - ----------------
#NOTES:
     dance-single:
     :
     Medium:
     6:
     0.199974,0.291163,0.095988,0.367953,0.000000,175.000000,163.000000,12.000000,46.000000,0.000000,0.000000,0.199974,0.291163,0.095988,0.367953,0.000000,175.000000,163.000000,12.000000,46.000000,0.000000,0.000000:
0000
0000
0000
0000
,
0000
0000
0000
0000
,
0000
0000
0000
0000
,
0000
0000
0000
0000
,
0000
0000
0000
0000
,
0002
0000
1003
0000
,
2000
0000
3001
0000
,
1000
0010
2002
0000
,
3003
0000
0000
0000
0010
0100
0010
0000
,
0002
0100
0200
0303
,
2000
0100
0200
3300
,
0001
0100
0010
1000
,
2002
3003
0220
0330
,
2000
0100
0200
3300
,
0002
0100
0200
0303
,
0010
1000
0100
0010
,
2002
3003
0010
0110
,
0000
0001
0000
1000
,
0001
0000
1000
0001
0000
0000
0200
0000
,
0020
0330
0000
0010
,
0000
0000
0010
0000
1000
0001
1000
0000
,
0000
0100
0000
0100
,
0001
0000
1000
0001
0000
0000
0100
0000
,
0100
0000
0010
0000
,
1001
0000
0000
0000
0010
0100
0010
0000
,
0000
1000
0001
1001
,
0000
0001
1000
1001
,
0000
1000
0010
0100
,
0001
1000
0020
0130
,
0000
0001
1000
1001
,
0000
1000
0001
1001
,
0000
0010
0100
0001
,
1000
0100
1000
0000
0001
0100
0001
0000
,
1000
0100
1000
0000
0010
0010
0010
0000
,
2000
0001
0200
3300
,
0002
1000
0200
0303
,
0001
1000
0001
1000
0001
0000
0200
0000
,
0020
0000
0330
1001
,
0002
0100
2000
3003
,
2000
0100
0002
3003
,
0010
0100
0010
0100
0010
0000
2000
0000
,
0002
0000
3003
0000
,
2000
0100
0200
3300
,
0002
0100
0200
0303
,
0010
0100
0010
0100
0010
0000
0002
0000
,
2000
0000
3003
0000
,
0020
1000
0200
0330
,
0200
0001
0020
0330
,
0001
0100
0001
0100
0001
0000
0000
0000
,
1000
0100
1000
0100
1000
0000
0000
0000
,
0020
0100
0000
0100
,
0000
0100
0000
0130
,
0001
0100
1000
0100
,
0001
0010
1000
0100
,
2002
0000
0000
0000
,
0000
0000
0000
0000
,
3003
0000
0000
0000
;

//---------------dance-double - ----------------
#NOTES:
     dance-double:
     :
     Medium:
     6:
     0.217115,0.268766,0.159980,0.223971,0.000000,190.000000,170.000000,20.000000,28.000000,0.000000,0.000000,0.217115,0.268766,0.159980,0.223971,0.000000,190.000000,170.000000,20.000000,28.000000,0.000000,0.000000:
00000000
00000000
00000000
00000000
,
00000000
00000000
00000000
00000000
,
00000000
00000000
00000000
00000000
,
00000000
00000000
00000000
00000000
,
00000000
00000000
00000000
00000000
,
02000000
03000000
10010000
00000000
,
00002000
00003000
00011000
00000000
,
00000010
00001000
00002020
00003030
,
00000202
00000303
00001000
00000100
,
00010000
00001000
01000000
00100000
,
10000000
01000000
00100000
00001000
,
00010000
00000100
00000001
00000100
,
00002000
00003100
00010000
00001000
,
01000000
00010000
00100000
00010000
,
10000000
01000000
00010000
00100000
,
00001000
00010000
00000010
00000100
,
00002002
00003003
00000110
00001001
,
00000000
00001010
00000000
00001010
,
00001000
00000100
00001000
00000100
00000000
00000000
00010000
00000000
,
00001000
00100000
00000000
00010000
,
00000000
01000000
00010000
10010000
,
10000000
00100000
00000000
01000000
,
00001000
00010000
00001000
00010000
00000000
00000000
00000100
00000000
,
00001000
00000010
00000000
00000100
,
00000000
00000001
00001001
00001001
,
00000000
00000010
00001000
00001100
,
00000000
00010000
00001000
01001000
,
00000000
00100000
10000000
00010000
,
10000000
00001000
00010000
00000100
,
00000000
00001000
00000010
00000110
,
00000000
00000001
00001000
00001100
,
00000000
00010000
00001000
01000000
,
00100000
01000000
00100000
00000000
10000000
00000000
01000000
00000000
,
00100000
00000000
00001000
00000000
00010000
00001000
00010000
00000000
,
00000000
00000010
00001000
00000100
,
00001000
00000000
00000001
00000000
00001000
00000100
00001000
00000000
,
00000010
00010000
00001000
00100000
,
00010000
00000000
01000000
00000000
00100000
01000000
00100000
00000000
,
10000000
00100000
01000000
00010000
,
00100000
00000000
00001000
00000000
00010000
00001000
00010000
00000000
,
00000100
00001000
00000001
00001000
,
00000200
00000300
00010000
00001000
,
00020000
00001000
00000200
00030300
,
00002000
00010000
02000000
03003000
,
02000000
00010000
00200000
03300000
,
20020000
30000000
02000000
00030000
,
03002000
00010000
00200000
00303000
,
00020000
00000010
00001000
00030010
,
00001000
00000100
00002002
00003003
,
00000100
00010000
00022000
00033000
,
00100000
00010000
01000000
00000000
,
00100000
10000000
00100000
00000000
,
00100000
00001000
00010000
00000000
,
00000100
00010000
00001000
00000000
,
00022000
00000000
00000000
00000000
,
00000000
00000000
00000000
00000000
,
00033000
00000000
00000000
00000000
;

//---------------dance-single - ----------------
#NOTES:
     dance-single:
     :
     Challenge:
     12:
     0.483367,0.559928,0.263966,0.311960,0.195975,423.000000,390.000000,33.000000,39.000000,0.000000,0.000000,0.483367,0.559928,0.263966,0.311960,0.195975,423.000000,390.000000,33.000000,39.000000,0.000000,0.000000:
0000
0000
0000
0000
,
0000
0000
0000
0000
,
0000
0000
0000
0000
,
0000
0000
0000
0000
,
0000
0000
0000
0000
,
1002
0000
0000
0000
1003
0000
0000
0000
2001
0000
0000
0000
3001
0000
0010
0100
,
0020
0000
0130
0000
2001
0000
3001
0001
,
0101
0100
0110
0010
2010
0000
3010
0000
,
0102
0000
0000
0000
0103
0000
0010
1000
0100
0000
1000
0000
0010
0000
0100
0001
,
0100
0000
0010
0000
1000
0000
0010
0000
0100
0000
0001
0000
0010
0000
0001
0100
,
0001
1000
0010
1000
0001
0100
0010
1000
,
1000
0001
0001
0100
0200
0000
0320
0000
,
1030
0000
0100
0000
0010
0000
0001
0000
1000
0000
0100
0000
0010
0000
0001
0100
,
0001
0000
0100
0000
0001
0000
0010
0000
0001
0000
1000
0000
0100
0000
1000
0001
,
1000
0000
0010
0000
1000
0000
0100
0000
1000
0000
0001
0000
0100
0000
0010
0100
,
0010
0100
0001
1000
0020
0000
0230
0000
,
0302
0000
0003
0001
2002
3003
0220
0330
,
1000
0010
0001
0010
1000
0100
0010
0001
,
1000
0100
0010
0002
0100
0100
0203
0000
,
0310
1000
0010
1000
0001
0100
0001
0100
,
0020
0000
0000
0031
1000
0000
0000
0000
0020
0000
0000
0031
1000
0000
0000
0000
,
0001
0100
1000
0100
0001
0010
0100
1000
,
0001
0010
0100
2000
0010
0010
3010
0000
,
0100
0000
0001
0000
0100
0000
0010
1000
0010
0000
1000
0000
0001
0000
0100
0000
,
1000
0000
0001
0100
0001
0000
0000
0000
1000
0100
1000
0000
0001
0100
0001
0000
,
0010
0000
1000
0100
1000
0100
1000
0000
0010
0000
0001
0100
0001
0100
0001
0000
,
0010
0000
1000
0001
1000
0001
1000
0000
0010
0000
0001
1000
0001
1000
0001
0000
,
0100
0000
0001
0010
0001
0100
0001
0000
0100
0000
0010
1000
0010
0100
0010
0000
,
1000
0000
0100
1000
0010
1000
0100
0000
1000
0000
0001
0100
0001
0010
0001
0000
,
1000
0000
0010
0100
0010
0100
0010
0000
1000
0000
0001
0100
0001
0100
0001
0000
,
1000
0000
0010
1000
0100
1000
0100
0000
1000
0000
0001
0100
0010
0100
0010
0000
,
1000
0000
0001
0100
0001
0000
0100
0000
0010
0000
1000
0010
1000
0000
0010
0000
,
1010
1000
1010
0000
0101
0001
0101
0000
,
0110
0000
0010
0000
0110
0000
0000
0000
1001
0000
0110
0000
0110
0000
1000
0001
,
1000
0000
0001
0000
1000
0000
0001
0000
1000
0000
0100
0000
0010
0000
0001
0100
,
0001
0000
0100
0000
0010
0000
0100
0000
0001
0000
0010
0000
0100
0000
1000
0010
,
1000
0010
0100
0100
0002
0000
0203
0000
,
0310
0000
1000
0000
0010
0000
1000
0000
0101
0000
0101
0000
1001
0000
0010
1000
,
0010
0000
0100
0000
0010
0000
0100
0000
0001
0000
0010
0000
0100
0000
1000
0001
,
1000
0000
0100
0000
0010
0000
0001
0000
0100
0000
0100
0000
0010
0000
1000
0100
,
1000
0001
0100
0010
0200
0000
0320
0000
,
1030
0100
0010
0001
0202
0303
2002
3003
,
0010
1000
0010
1000
0002
0000
2003
0000
,
3001
0100
0001
0100
0020
0000
2030
0000
,
3001
0010
0001
1000
0001
0010
0001
1000
,
0010
0100
0010
0100
0001
0010
0100
1000
,
0001
0100
0001
1000
0020
0000
0230
0000
,
0301
1000
0100
1000
0002
0000
0103
0010
,
0010
1000
0100
0010
1001
0000
1100
0000
,
0010
0010
0001
0100
1001
0000
0110
0000
,
1000
0000
0001
0100
0001
0000
1001
0000
0000
0000
0001
0000
1000
0000
1001
0000
,
0000
0000
0010
0100
0010
0000
0110
0000
0000
0000
0100
0000
0010
0000
0110
0000
,
0000
0000
0001
0100
0010
0000
0110
0000
0000
0000
1000
0000
0010
0000
0100
0000
,
0000
0000
0001
0100
0010
0000
1000
0000
0002
0000
0003
0000
2000
0000
3000
0000
,
2002
0000
0000
0000
,
0000
0000
0000
0000
,
3003
0000
0000
0000
;

//---------------dance-double - ----------------
#NOTES:
     dance-double:
     :
     Challenge:
     12:
     0.465083,0.537531,0.191975,0.247968,0.135983,407.000000,383.000000,24.000000,31.000000,0.000000,0.000000,0.465083,0.537531,0.191975,0.247968,0.135983,407.000000,383.000000,24.000000,31.000000,0.000000,0.000000:
// measure 0
00000000
00000000
00000000
00000000
,  // measure 1
00000000
00000000
00000000
00000000
,  // measure 2
00000000
00000000
00000000
00000000
,  // measure 3
00000000
00000000
00000000
00000000
,  // measure 4
00000000
00000000
00000000
00000000
,  // measure 5
20000000
00000000
00000000
00000000
30100000
00000000
00000000
01000000
,  // measure 6
00002000
00000000
00000000
00000000
00013000
00000000
00000000
00000100
,  // measure 7
00001000
00000010
00001000
00000100
00002000
00000000
00000010
00003000
,  // measure 8
00000200
00000000
00000000
00000000
00000301
00000000
00000010
00000001
00000100
00000000
00000010
00000000
00001000
00000000
00000100
00001000
,  // measure 9
00000100
00000000
00010000
00000000
00001000
00000000
00010000
00000000
00001000
00000000
01000000
00000000
00010000
00000000
01000000
00100000
,  // measure 10
01000000
00100000
10000000
00100000
01000000
00001000
00100000
00001000
,  // measure 11
00001000
00010000
00010000
00000010
00001000
00000100
00000010
00000001
,  // measure 12
00001000
00000000
00001000
00000000
00000100
00000000
00000100
00000000
00010000
00000000
00001000
00000000
00100000
00000000
00010000
01000000
,  // measure 13
00010000
00000000
01000000
00000000
00100000
00000000
10000000
00000000
00100000
00000000
01000000
00000000
00010000
00000000
00100000
00010000
,  // measure 14
00100000
00000000
00001000
00000000
00010000
00000000
00000010
00000000
00010000
00000000
00001000
00000000
00010000
00000000
00000100
00001000
,  // measure 15
00000010
00001000
00000100
00000010
00000002
00000000
00002003
00000000
,  // measure 16
00003010
00001000
00000100
00001000
00000020
00000030
00022000
00033000
,  // measure 17
00100000
00010000
01000000
00010000
10000000
01000000
00100000
00010000
,  // measure 18
10000000
01000000
00100000
00020000
00100000
00100000
00230000
00000000
,  // measure 19
00302000
00010000
00013000
00000100
00001000
00000000
00001001
00000000
,  // measure 20
00000011
00000000
00000000
00000100
00001000
00000000
00000000
00000000
00000011
00000000
00000000
00000100
00001000
00000000
00000000
00000000
,  // measure 21
00000100
00001000
00000001
00001000
00000001
00000010
00000100
00001000
,  // measure 22
00000001
00000010
00000100
00002000
00000010
00000010
00003020
00000000
,  // measure 23
00020030
00000000
00001000
00000000
00031000
00000000
00001000
00100000
00001000
00000000
00100000
00000000
00010000
00000000
01000000
00000000
,  // measure 24
00100000
00000000
10000000
01000000
10000000
00000000
00000000
00000000
00010000
01000000
00010000
00000000
01000000
00010000
01000000
00000000
,  // measure 25
00100000
00000000
10000000
01000000
10000000
00000000
00100000
00000000
01000000
00000000
00010000
00100000
00010000
00000000
01000000
00000000
,  // measure 26
00001000
00000000
00010000
00000100
00010000
00000000
00000100
00000000
00001000
00000000
00000001
00001000
00000100
00000000
00001000
00000000
,  // measure 27
00000100
00000000
00010000
00001000
00010000
00000000
00001000
00000000
01000000
00000000
00100000
10000000
01000000
00000000
10000000
00000000
,  // measure 28
00100000
00000000
10000000
00010000
01000000
00000000
00010000
00000000
00100000
00000000
00001000
00010000
00000100
00000000
00010000
00000000
,  // measure 29
00000010
00000000
00001000
00000100
00001000
00000000
00000001
00000000
00001000
00000000
00000100
00010000
00001000
00000000
00010000
00000000
,  // measure 30
00001000
00000000
00100000
00010000
01000000
00000000
00010000
00000000
00100000
00000000
10000000
00010000
01000000
00000000
00100000
00000000
,  // measure 31
10000000
00000000
01000000
10000000
01000000
10000000
01000000
00000000
10000000
00000000
00010000
00100000
00010000
00100000
00010000
00000000
,  // measure 32
01010000
00010000
01010000
00000000
00101000
00100000
00101000
00000000
,  // measure 33
00010100
00000000
00000100
00000000
00001100
00000000
00000000
00000000
00001001
00000000
00000101
00000000
00001001
00000000
00000001
00001000
,  // measure 34
00000100
00000000
00001000
00000000
00000010
00000000
00001000
00000000
00000200
00000000
00000000
00000000
00010300
00000000
00001000
00010000
,  // measure 35
00001000
01000000
00010000
01000000
00200000
00000000
01300000
00100000
,  // measure 36
10000000
01000000
00100000
00010000
02000000
00000000
03020000
00000000
,  // measure 37
00130000
00000000
00001000
00000000
00010000
00000000
00001000
00000000
00100000
00000000
00010000
00000000
01000000
00000000
00100000
01000000
,  // measure 38
00100000
00000000
10000000
00000000
01000000
00000000
10000000
00000000
00020000
00000000
00000000
00000000
00130000
00000000
00001000
00100000
,  // measure 39
00001000
00010000
00000100
00010000
00002000
00000000
00013000
00000100
,  // measure 40
00000100
00001000
00000010
00000100
00000202
00000303
00002020
00003030
,  // measure 41
00000001
00000100
00000010
00010000
00022000
00033000
00220000
00330000
,  // measure 42
00010000
01000000
00010000
01000000
00010000
01000000
10000000
01000000
,  // measure 43
00010000
01000000
00010000
00100000
00001000
00100000
00001000
00010000
,  // measure 44
00000100
00001000
00000100
00001000
00000100
00000001
00000100
00001000
,  // measure 45
00000010
00001000
00000010
00001000
00000010
00000001
00000010
00001000
,  // measure 46
00000100
00010000
00000100
00010000
00001000
00010000
01000000
00010000
,  // measure 47
00001000
01000000
00010000
01000000
00010000
00100000
01000000
10000000
,  // measure 48
00100000
00100000
10000000
10000000
10010000
00000000
01100000
00000000
,  // measure 49
10000000
00100000
01000000
00001000
00010000
00000000
00011000
00000000
,  // measure 50
00010000
00000100
00010000
00001000
00010000
00000100
00001000
00000001
,  // measure 51
00001000
00000100
00010000
00000100
00001000
00000100
00010000
00001000
,  // measure 52
00100000
00000000
00010000
00100000
00010000
00000000
00100000
00000000
00010000
00000000
10000000
00000000
01000000
00000000
00100000
00000000
,  // measure 53
00010000
00000000
00000100
00010000
00000100
00000000
00010000
00000000
00001100
00000000
00001100
00000000
00010100
00000000
00000000
00000000
,  // measure 54
00022000
00000000
00000000
00000000
,  // measure 55
00000000
00000000
00000000
00000000
,  // measure 56
00033000
00000000
00000000
00000000
;
