#TITLE:Snakey Kung-Fu;
#SUBTITLE:;
#ARTIST:金獅子 vs 麒麟 feat. 獏;
#TITLETRANSLIT:Snakey Kung-Fu;
#SUBTITLETRANSLIT:;
#ARTISTTRANSLIT:Kinjinshi vs Kirin feat. Baku;
#GENRE:;
#CREDIT:;
#MENUCOLOR:;
#METERTYPE:DDR;
#BANNER:Snakey Kung-Fu.png;
#BACKGROUND:Snakey Kung-Fu-bg.png;
#LYRICSPATH:;
#CDTITLE:;
#MUSIC:Snakey Kung-Fu.ogg;
#OFFSET:-0.070;
#SAMPLESTART:50.840;
#SAMPLELENGTH:24.960;
#SELECTABLE:YES;
#LISTSORT:;
#BPMS:0.000=156.000;
#STOPS:;
#BGCHANGES:0.000=Snakey Kung-Fu.avi=1.000=0=0=1,
336.000=Snakey Kung-Fu.avi=0.000=0=0=0,
99999=-nosongbg-=1.000=0=0=0 // don't automatically add -songbackground-
;
#ATTACKS:;

//---------------dance-single - ----------------
#NOTES:
     dance-single:
     :
     Hard:
     14:
     0.645,0.679,0.169,0.493,0.439:
0000
0000
0000
0000
,
0000
0000
0000
0000
,
0000
0000
0000
0000
,
0000
0000
0000
0000
,
0000
0000
0000
0000
,
0001
0100
0001
0100
1000
0100
1000
0100
,
0001
0100
1000
0100
0010
0010
0010
0000
,
1000
0010
1000
0010
0001
0010
0001
0010
,
1000
0000
0000
0100
0000
0000
0010
0000
0000
0001
0000
0000
1001
0000
0000
0000
,
0001
0000
0000
0100
0000
0000
0001
0000
0000
0001
0000
0000
0001
0000
0000
0000
,
1000
1000
0010
0000
1000
1000
0001
0000
,
1000
0000
0000
0010
0000
0000
1000
0000
0000
1000
0000
0000
1000
0000
0000
0000
,
0001
0001
0100
0000
0001
0001
1000
0000
,
0010
0000
0000
0100
0000
0000
0010
0000
0000
1000
0000
0000
1000
0000
0000
0000
,
0001
0100
0001
1000
0001
0100
0001
0000
,
0100
0000
0000
0010
0000
0000
0100
0000
0000
0000
0001
0000
1001
0000
0000
0000
,
0010
0001
0000
0001
0100
0000
0100
1000
0000
1000
0100
0000
0001
0000
0000
0000
,
0100
0000
0010
0100
0000
0010
0100
0000
0001
0000
0100
0000
0010
1000
0000
0010
,
1000
0000
0010
1000
0000
0010
0000
1000
0000
0001
1000
0000
0001
0000
0000
0000
,
0100
0000
0001
0100
0000
0001
0100
0000
0001
0000
1000
0000
0001
1000
0000
1000
,
0001
0000
1000
0001
0000
1000
0000
0001
0000
0000
0100
0000
0001
0000
0100
0000
,
0001
0000
0100
0001
0000
0100
0010
0000
0100
0000
0001
0000
1000
0001
0000
1000
,
0001
0000
1000
0010
0000
0100
0000
0010
0000
1000
0100
0000
0010
0000
0001
0000
,
0100
0000
0001
0100
0000
0001
0100
0000
0010
0000
1000
0000
0001
0100
0000
0001
,
0100
0000
0000
0110
0000
0000
1000
0000
0000
1001
0000
0000
0110
0000
0000
0000
,
1000
0000
0000
0000
1000
0000
0000
1000
0001
0000
0100
0000
0010
0000
0100
0000
,
0000
0001
0100
0010
1000
0100
1000
0010
,
1000
0000
0000
0000
0001
0000
0000
0001
0100
0000
0010
0000
1000
0000
0100
0000
,
1000
0010
1000
0100
1000
0010
0100
0000
,
1001
0000
0000
0000
0001
0000
0000
1000
0010
0000
0100
0000
0010
0000
1000
0000
,
0000
0000
0001
0000
0100
0000
0000
0001
0100
0000
0010
0000
0010
0000
0100
0000
,
0001
0000
1000
0000
0001
0000
1000
0000
0100
0000
1000
0001
0000
0001
1000
0000
,
0010
0000
0000
0100
0000
0000
0001
0000
0000
1000
0000
0000
0001
0000
1000
0000
,
1002
0203
0320
2030
,
3020
0000
0000
0000
2030
0000
0000
0000
3100
0000
0000
1000
0000
0000
0010
0000
,
0200
0000
0000
0000
0302
0000
0000
0000
0023
0000
0000
0030
2000
0000
0000
0000
,
3001
0000
0000
0100
0000
0000
0010
0000
1000
0000
0000
0010
0000
0000
0100
0000
,
0101
0000
0000
0000
0002
0010
0000
0000
0023
0100
0000
0000
0230
1000
0000
0000
,
2300
0000
0000
0000
3002
0000
0000
0000
0203
0000
0000
0310
0000
0000
1000
0000
,
0002
0000
0000
0103
0000
0000
0001
0000
2000
0000
0000
3010
0000
0000
1000
0000
,
0002
0000
0000
1003
0000
0000
0010
0000
0220
0000
0000
0000
0000
0000
0330
0000
,
1000
0001
1000
0000
0010
0000
0100
0001
,
0100
0010
0100
0001
1000
0010
0100
0000
,
0001
0100
0001
0000
1000
0000
0010
0100
,
0001
0100
0001
0100
0001
0010
0100
1000
,
0010
1000
0010
0000
1000
0000
0000
0000
0001
0000
0100
0000
0001
0000
0000
0000
,
1000
0001
1000
0100
1000
0010
0100
0001
,
1000
0000
0000
1001
0000
0000
0001
0000
0100
0000
0000
0110
0000
0000
0010
0000
,
1000
0000
0000
0100
0000
0000
0010
0000
2002
0000
0000
0000
3003
0000
0000
0000
,
0011
0000
1000
0200
0000
0300
0000
1000
,
0020
0000
1030
0002
0000
1003
0010
0000
,
0100
0000
0001
2000
0000
0000
3010
0100
,
0000
0001
1000
0000
0010
0100
0001
1000
,
0200
0000
1300
0020
0000
0000
0130
0002
,
0000
0000
1003
0010
1000
0100
1000
0010
,
2000
0000
3001
0200
0000
0000
0310
2000
,
0000
0000
0000
3001
0200
0000
2300
0000
,
3020
0001
0100
1030
,
2000
0100
0001
3010
,
0002
0100
1000
0103
,
2000
0010
0001
3010
,
0102
0000
1000
0000
0100
0100
0103
0000
,
2010
0000
0001
0000
0100
0100
3100
0000
,
0010
0000
0100
0000
0001
0000
0100
0000
0010
0000
0000
1000
0000
0000
0100
0000
,
1000
0000
0010
0000
1000
0001
1000
0000
0010
0000
0100
0000
0110
0000
0000
0000
,
1001
0000
0000
0000
2000
0100
0000
0000
3200
0010
0000
0000
0320
0001
0000
0000
,
0032
0100
0000
0000
0203
0010
0000
0000
0320
0000
0000
1030
0000
0000
0100
0000
,
1000
0000
0000
0000
2000
0010
0000
0000
3020
0100
0000
0000
0230
0001
0000
0000
,
0301
0000
0000
0100
0000
0000
1000
0000
0001
0000
0000
0100
0000
0000
1000
0000
,
1001
0000
0000
0000
0200
0010
0000
0000
0320
0001
0000
0000
0032
0100
0000
0000
,
0203
1000
0000
0000
2300
0010
0000
0000
3020
0000
0000
0130
0000
0000
0001
0000
,
1001
0000
0000
0100
0000
0000
0010
0000
1001
0000
0000
0010
0000
0000
0100
0000
,
1100
0000
0000
0001
0000
0000
0002
0000
0200
0000
0000
0000
0300
0003
0000
0000
,
0100
0000
0010
0100
0000
0010
0100
0000
0001
0000
0100
0000
0010
1000
0000
0010
,
1000
0000
0010
1000
0000
0010
0000
1000
0000
0001
1000
0000
0001
0000
0000
0000
,
0100
0000
0001
0100
0000
0001
0100
0000
0001
0000
1000
0000
0001
1000
0000
1000
,
0001
0000
1000
0001
0000
1000
0000
0001
0000
0000
0100
0000
0001
0000
0100
0000
,
0001
0000
0100
0001
0000
0100
0010
0000
0100
0000
0001
0000
1000
0001
0000
1000
,
0001
0000
1000
0010
0000
0100
0000
0010
0000
1000
0100
0000
0010
0000
0001
0000
,
1000
0000
0001
2000
0000
0000
3010
0000
0001
0000
1000
0002
0000
0000
0013
0000
,
0001
1000
0001
1000
0000
0010
0100
0000
0002
0000
0203
0000
0310
0000
0000
0000
,
2002
0000
0000
0000
,
0000
0000
0000
0000
,
0000
0000
0000
0000
,
3003
0000
0000
0000
;

//---------------dance-single - Copied from----------------
#NOTES:
     dance-single:
     Copied from:
     Medium:
     9:
     0.423,0.550,0.223,0.416,0.150:
0000
0000
0000
0000
,
0000
0000
0000
0000
,
0000
0000
0000
0000
,
0000
0000
0000
0000
,
0000
0000
0000
0000
,
0001
0100
1000
0100
,
0001
0100
1000
0100
,
1001
1001
0110
0110
,
1000
0000
0000
1000
0000
0000
1000
0000
0000
1000
0000
0000
1000
0000
0000
0000
,
0001
0000
0000
0001
0000
0000
0001
0000
0000
0100
0000
0000
0100
0000
0000
0000
,
0000
0110
0000
1001
,
1000
0000
0000
1000
0000
0000
1000
0000
0000
1000
0000
0000
1000
0000
0000
0000
,
0000
0110
0000
1001
,
0010
0000
0000
0010
0000
0000
0010
0000
0000
0010
0000
0000
0010
0000
0000
0000
,
1000
1001
0001
1001
,
0100
0000
0000
0010
0000
0000
0100
0000
0000
0000
0000
0000
1001
0000
0000
0000
,
0010
0000
0000
0010
0000
0000
0100
0000
0000
0100
0000
0000
0100
0000
0000
0000
,
0001
0000
0000
0001
0000
0000
0000
0000
1000
0000
0000
0000
0100
0000
0000
0000
,
1000
0000
0000
1000
0000
0000
0000
0000
0001
0000
0000
0000
0010
0000
0000
0000
,
0001
0000
0000
0001
0000
0000
0000
0000
1000
0000
0000
0000
1000
0000
0000
0000
,
0010
0000
0000
0010
0000
0000
0000
0000
1000
0000
0000
0000
0001
0000
0000
0000
,
0100
0000
0000
0100
0000
0000
0100
0000
0000
0000
0001
0000
1000
0000
0000
0000
,
0010
0000
0000
0010
0000
0000
0010
0000
0000
0000
1000
0000
0001
0000
0000
0000
,
0100
0000
0000
0100
0000
0000
0100
0000
0000
0000
0001
0000
1000
0000
0000
0000
,
0010
0000
0000
0010
0000
0000
0010
0000
0000
0010
0000
0000
0000
0000
0000
0000
,
1000
0000
1000
0000
0001
0100
0001
0000
,
1000
0000
1000
0000
0001
0010
0001
0000
,
0100
0000
0100
0000
0001
1000
0001
0000
,
0010
0010
1000
1000
,
0101
0000
0001
0000
1000
0001
1000
0000
,
0100
0000
1000
0000
0010
1000
0010
0000
,
1001
0001
1100
1000
,
0011
1100
0011
0100
,
0001
2000
3020
0230
,
0302
2003
3020
0030
,
2000
3002
0203
0310
,
2000
3100
0002
0103
,
0001
2000
3020
0230
,
0302
0203
0320
1030
,
2200
3300
0202
0303
,
0220
0330
2002
3003
,
1000
0001
1000
0000
0010
0000
0100
0000
,
0100
0010
0100
0000
0001
0000
0100
0000
,
0001
0100
0001
0000
1000
0000
0010
0000
,
0001
0100
0001
0000
1000
0010
1000
0000
,
0001
1000
0001
0000
0010
0000
0100
0000
,
1000
0001
1000
0000
0100
0000
0010
0000
,
1000
0000
0000
1000
0000
0000
0000
0000
0001
0000
0000
0001
0000
0000
0000
0000
,
0100
0000
0000
0100
0000
0000
2000
0000
0002
0000
0000
0000
3003
0000
0000
0000
,
0010
0000
0000
1000
0000
0000
0000
0000
,
0010
0000
0000
0001
0000
0000
0100
0000
,
0010
0000
0000
1000
0000
0000
0001
0100
,
0000
0001
1000
0100
,
1001
0000
0000
0200
0000
0000
0300
0000
,
0010
0000
0000
2000
0000
0000
3000
0000
,
0001
0000
0000
0100
0000
0000
1000
0200
,
0000
0300
0001
0100
,
2002
0000
0000
0000
,
0000
0000
0000
3003
,
0010
0010
1000
1000
,
0100
0100
0001
1000
,
2002
0000
0000
0000
,
0000
0000
0000
3003
,
0010
1000
0010
1000
,
0001
0000
0001
0001
0001
0000
0000
0000
,
1001
2000
3200
0320
,
0032
0000
0000
0000
0203
0000
0000
0000
0310
0000
0000
0010
0000
0000
0010
0000
,
1000
2000
3020
0230
,
0301
0000
0000
0001
0000
0000
0000
0000
1000
0000
0000
1000
0000
0000
0000
0000
,
1001
0200
0320
0032
,
0203
0000
0000
0000
2300
0000
0000
0000
3010
0000
0000
0010
0000
0000
0001
0000
,
1000
0000
0000
1000
0000
0000
0000
0000
0001
0000
0000
0001
0000
0000
0000
0000
,
0100
0000
0000
0100
0000
0000
0000
0000
0220
0000
0000
0000
0330
0000
0000
0000
,
0100
0000
0000
0100
0000
0000
0100
0000
0001
0000
0100
0000
0010
0000
0000
0000
,
1000
0000
0000
1000
0000
0000
1000
0000
0000
0000
1000
0000
0001
0000
0000
0000
,
0100
0000
0000
0100
0000
0000
0100
0000
0001
0000
1000
0000
0001
0000
0000
0000
,
0001
0000
0000
0001
0000
0000
0000
0000
0100
0000
0000
0000
1001
0000
0000
0000
,
0001
0000
0000
0001
0000
0000
0100
0000
0001
0000
0000
0000
1000
0000
0000
0000
,
0001
0000
0000
0001
0000
0000
0000
0000
1000
0000
0001
0000
0100
0000
0000
0000
,
1000
0000
0000
2000
0000
0000
3000
0000
0001
0000
0000
0002
0000
0000
0003
0000
,
1000
0000
0000
0010
0000
0000
0100
0000
0002
0000
0000
0000
1003
0000
0000
0000
,
2002
0000
0000
0000
,
0000
0000
0000
0000
,
0000
0000
0000
0000
,
3003
0000
0000
0000
;

//---------------dance-single - ----------------
#NOTES:
     dance-single:
     :
     Easy:
     6:
     0.325,0.421,0.208,0.339,0.023:
0000
0000
0000
0000
,
0000
0000
0000
0000
,
0000
0000
0000
0000
,
0000
0000
0000
0000
,
0000
0000
0000
0000
,
0001
0000
1000
0000
,
0001
0000
1000
0000
,
0010
0010
0010
0010
,
1000
0000
0000
1000
0000
0000
1000
0000
0000
0000
0000
0000
1000
0000
0000
0000
,
0001
0000
0000
0001
0000
0000
0001
0000
0000
0000
0000
0000
0000
0000
0000
0000
,
0000
0010
0000
0010
,
1000
0000
0000
1000
0000
0000
1000
0000
0000
0000
0000
0000
0000
0000
0000
0000
,
0000
0100
0000
0100
,
0010
0000
0000
0010
0000
0000
0010
0000
0000
0000
0000
0000
0000
0000
0000
0000
,
0000
1000
0000
0001
,
0001
0000
0000
0002
0000
0000
0003
0000
,
0010
0000
0000
0010
0000
0000
0100
0000
,
0002
0003
1000
0100
,
2000
3000
0001
0010
,
0002
0003
1000
1000
,
0020
0030
1000
0001
,
0200
0300
0002
1003
,
0020
0030
2000
3001
,
0200
0300
2002
3003
,
0010
0000
0000
0010
0000
0000
0010
0000
0000
0010
0000
0000
0000
0000
0000
0000
,
0010
0010
0001
1001
,
0010
0010
1000
1001
,
0100
1100
0001
0101
,
0010
1000
0100
0001
,
0010
0010
0001
1001
,
0100
0100
1000
1001
,
0010
0011
1000
0100
,
1000
0010
2002
3003
,
0010
1000
0100
1000
,
0010
0001
0200
0300
,
1000
0001
1000
0010
,
2000
3000
0002
0003
,
0010
1000
0100
0001
,
0020
0030
0200
0300
,
2002
3003
0220
0330
,
2000
0000
0002
3003
,
0010
0001
0100
0001
,
0010
1000
0010
0001
,
0010
1000
0100
1000
,
0010
0001
0100
1000
,
0010
1000
0001
0010
,
0100
0001
1000
0100
,
0001
0001
1000
1000
,
0010
0100
2002
3003
,
0020
0000
0030
0000
,
2000
0000
3000
0000
,
0200
0000
0300
0000
,
0002
0000
0003
0000
,
2000
0000
3000
0000
,
0002
0000
0003
0000
,
0200
0000
0300
0000
,
0010
0000
1000
0001
,
2002
0000
0000
0000
,
0000
0000
0000
0000
,
3003
0000
0000
0000
,
0010
0000
0100
0100
,
2002
0000
0000
0000
,
0000
0000
0000
3003
,
0010
0000
1000
0000
,
0001
0001
0001
0000
,
0010
0001
0100
0001
,
0010
1000
0010
0001
,
0010
1000
0100
1000
,
0010
0001
0100
1000
,
0010
1000
0001
0010
,
0100
0001
1000
0100
,
0001
0001
1000
1000
,
0010
0100
2002
3003
,
1000
0100
0001
1001
,
0001
0100
1000
1001
,
0010
0001
0100
1001
,
0010
1000
0100
1001
,
1000
0100
0010
1001
,
0001
0010
0100
1001
,
1000
1100
0001
0101
,
0110
0110
2002
3003
,
2002
0000
0000
0000
,
0000
0000
0000
0000
,
0000
0000
0000
0000
,
3003
0000
0000
0000
;

//---------------dance-single - ----------------
#NOTES:
     dance-single:
     :
     Beginner:
     3:
     0.182,0.226,0.054,0.154,0.000:
0000
0000
0000
0000
,
0000
0000
0000
0000
,
0000
0000
0000
0000
,
0000
0000
0000
0000
,
0000
0000
0000
0000
,
0010
0000
0010
0000
,
0010
0000
0010
0000
,
1000
0000
1000
0000
,
0100
0000
0100
0000
,
0002
0000
0003
0000
,
1000
0000
1000
0000
,
2000
0000
3000
0000
,
0010
0000
0010
0000
,
0200
0000
0300
0000
,
0010
0000
0010
0000
,
0002
0000
0003
0000
,
1000
0000
0001
0000
,
0100
0000
0100
0000
,
0001
0000
1000
0000
,
0010
0000
0010
0000
,
1000
0000
0001
0000
,
0100
0000
0100
0000
,
0010
0000
0010
0000
,
1000
0000
1000
0000
,
0001
0000
0001
0000
,
1000
0000
0100
0000
,
0010
0010
0010
0000
,
0001
0000
0100
0000
,
0010
0010
0010
0000
,
1000
0000
0100
0000
,
0010
0010
0010
0000
,
1001
0000
0001
0000
,
0200
0000
0300
0000
,
0010
0000
0010
0000
,
1000
0000
0100
0000
,
0010
0000
0010
0000
,
0001
0000
0100
0000
,
1000
0000
1000
0000
,
0010
0000
0001
0000
,
0001
0000
0100
0000
,
0100
0000
1001
0000
,
0010
0000
0010
0000
,
1000
0000
1000
0000
,
0100
0000
0100
0000
,
0001
0000
0001
0000
,
0010
0000
1000
0000
,
0100
0000
0001
0000
,
0010
0000
0100
0000
,
0001
0001
0001
0000
,
0020
0000
0030
0000
,
2000
0000
3000
0000
,
0200
0000
0300
0000
,
0002
0000
0003
0000
,
2000
0000
3000
0000
,
0002
0000
0003
0000
,
0200
0000
0300
0000
,
0010
0000
0001
0000
,
2002
0000
0000
0000
,
0000
0000
0000
0000
,
3003
0000
0000
0000
,
0010
0000
0100
0000
,
2002
0000
0000
0000
,
0000
3003
0000
0000
,
0010
0000
0010
0000
,
0100
0100
0100
0000
,
0000
0001
0000
0001
,
0000
1000
0000
1000
,
0000
0010
0000
0010
,
0010
0000
0100
0000
,
0000
1000
0000
1000
,
0000
0001
0000
0001
,
0001
0000
1000
0000
,
0010
0000
2002
3003
,
0000
0100
0000
0100
,
0000
0100
0000
0100
,
0000
0010
0000
0010
,
0010
0000
1001
0000
,
0000
1000
0000
0001
,
0000
0100
0000
0010
,
0010
0000
0100
0000
,
1000
0000
0001
0000
,
2002
0000
0000
0000
,
0000
0000
0000
0000
,
0000
0000
0000
0000
,
3003
0000
0000
0000
;

//---------------dance-double - Copied from----------------
#NOTES:
     dance-double:
     Copied from:
     Hard:
     14:
     0.535,0.679,0.123,0.354,0.289:
00000000
00000000
00000000
00000000
,
00000000
00000000
00000000
00000000
,
00000000
00000000
00000000
00000000
,
00000000
00000000
00000000
00000000
,
00000000
00000000
00000000
00000000
,
00010000
01000000
00010000
00000000
00001000
00000100
00001000
00000000
,
00010000
01000000
00010000
00000000
00001000
00001000
00001000
00000000
,
00010000
00100000
00010000
00000000
00000010
00010000
00000010
00000000
,
00000100
00000000
00000000
00001000
00000000
00000000
00100000
00000000
00000000
00010000
00000000
00000000
01010000
00000000
00000000
00000000
,
00010000
00000000
00000000
01000000
00000000
00000000
00010000
00000000
00000000
00010000
00000000
00000000
00010000
00000000
00000000
00000000
,
10000000
00100000
00001000
00010000
,
00000010
00000000
00000000
00000010
00000000
00000000
00001000
00000000
00000000
00001000
00000000
00000000
00001000
00000000
00000000
00000000
,
00000001
00000100
00000010
00001000
,
00010000
00000000
00000000
00001000
00000000
00000000
00010000
00000000
00000000
00010000
00000000
00000000
00010000
00000000
00000000
00000000
,
00001000
00000000
01000000
00000000
00010000
10000000
00010000
00000000
,
01000000
00000000
00000000
00100000
00000000
00000000
01000000
00000000
00000000
00000000
00000000
00000000
10010000
00000000
00000000
00000000
,
10000000
00000000
00000000
00010000
00000000
00000000
10000000
00000000
00000000
00010000
00000000
00000000
00100000
00000000
00000000
00000000
,
01000000
00000000
00000000
00010000
00000000
00000000
01000000
00000000
00010000
00000000
00000000
00000000
00001000
00000000
00000000
00000000
,
00000010
00000000
00000000
00001000
00000000
00000000
00000100
00000000
00001000
00000000
00000010
00000000
00000100
00000000
00000000
00000000
,
00000001
00000000
00000000
00000100
00000000
00000000
00000001
00000000
00000100
00000000
00000010
00000000
00001000
00000000
00000000
00000000
,
00000100
00000000
00000000
00010000
00000000
00000000
00000100
00000000
00010000
00000000
00001000
00000000
00100000
00000000
00000000
00000000
,
00010000
00000000
00000000
01000000
00000000
00000000
00100000
00000000
10000000
00000000
01000000
00000000
00100000
00000000
00000000
00000000
,
00010000
00000000
00000000
00001000
00000000
00000000
00010000
00000000
00000000
00000000
00000100
00000000
00001100
00000000
00000000
00000000
,
00000010
00000000
00001000
00000100
00000000
00000100
00010000
00000000
00001000
00000000
00000000
00000000
01000000
00000000
00000000
00000000
,
00010000
00000000
00000000
01010000
00000000
00000000
10000000
00000000
00000000
10010000
00000000
00000000
01100000
00000000
00000000
00000000
,
10000000
00000000
00000000
00000000
10000000
00000000
00000000
10000000
00010000
00000000
01000000
00000000
00100000
00000000
01000000
00000000
,
00000000
00010000
01000000
00001000
01000000
00001000
00010000
00001000
,
00010000
00000000
00000010
00000000
00010000
00000000
00000000
00010000
00000100
00000000
00001000
00000000
00000001
00000000
00001000
00000000
,
00000010
00001000
00000100
00001000
00000100
00010000
00001000
00000000
,
00011000
00000000
00000000
00000000
00001000
00000000
00000000
00001000
01000000
00000000
00010000
00000000
01000000
00000000
00010000
00000000
,
00000000
00000000
10000000
00000000
00010000
00000000
00000000
00010000
01000000
00000000
00100000
00000000
00100000
00000000
01000000
00000000
,
00010000
00000000
00100000
00000000
00010000
00000000
00000000
00000000
01000000
00000000
00001000
00010000
00000000
00010000
00001000
00000000
,
00000000
00000000
00000100
00000000
00001000
00000010
00001000
00000000
00000001
00000000
00000000
00000000
00001001
00000000
00000000
00000000
,
00000001
00000000
00000000
00000000
00000200
00000000
00000000
00000000
00002300
00000000
00000000
00000000
00023000
00000000
00000000
00030000
,
00200000
00000000
00000000
00000000
02300000
00000000
00000000
00000000
13000000
00000000
00000000
00010000
00000000
00000000
01000000
00000000
,
00010000
00002000
00023000
00030200
,
00001300
00000000
00000000
00000010
00000000
00000000
00000100
00000000
00000001
00000000
00000000
00000100
00000000
00000000
00000010
00000000
,
00002000
00000000
00000000
00000000
00003200
00000000
00000000
00000300
00020000
00000000
00000000
00000000
00032000
00000000
00000000
00000000
,
02003000
00000000
00000000
00000000
03020000
00000000
00000000
00000000
10030000
00000000
00000000
00100000
00000000
00000000
01000000
00000000
,
00010000
00000000
00000000
00010000
00000000
00000000
00000000
00000000
10000000
00000000
00000000
10000000
00000000
00000000
00000000
00000000
,
00100000
00000000
00000000
00100000
00000000
00000000
00001000
00000000
00020000
00000000
00000000
00000000
00031000
00000000
00000000
00000000
,
00010000
00001000
00010000
00000000
00000100
00001000
00000100
00000000
,
00000010
00000100
00000010
00001000
00000001
00000100
00000010
00000000
,
00001000
00000010
00001000
00000000
00000001
00000000
00000100
00000000
,
00001000
00010000
01000000
10000000
,
00100000
10000000
00100000
00000000
10000000
00000000
00000000
00000000
00010000
00000000
01000000
00000000
00010000
00000000
00000000
00000000
,
10000000
00010000
10000000
01000000
10000000
00100000
01000000
00010000
,
00100000
00000000
00000000
00100000
00000000
00000000
00001000
00000000
00010000
00000000
00000000
00010000
00000000
00000000
00000010
00000000
,
00001000
00000000
00000000
00000001
00000000
00000000
00001000
00000000
00002002
00000000
00000000
00000000
00003003
00000000
00000000
00000000
,
00000010
00000000
00001000
00000200
00000000
00000000
00000300
00000000
,
00010000
00000000
00001000
00010000
00000000
00001000
00010000
00000000
,
00001000
00000000
01000000
00020000
00000000
00000000
01030000
00100000
,
00000000
10000000
01000000
00000000
00100000
00001000
00000000
00001000
,
00010000
00000000
00000100
00002000
00000000
00000000
00003010
00000100
,
00000000
00000000
00000000
00000001
00001000
00000100
00010000
00000100
,
00010000
00000000
00001000
01000000
00000000
00000000
10000000
02000000
,
00000000
03000000
00100000
00001000
,
00020000
00001000
00001000
00001000
,
00000100
00030100
00001000
00001000
,
00000001
00000000
00000010
00000000
00001000
00000100
00001000
00000000
,
00000100
00010000
00001000
01000000
,
02020000
00000000
00000000
03030000
,
00100000
00000000
10000000
00000000
01000000
10000000
01000000
00000000
,
10000000
00000000
00100000
00000000
10000000
00000000
00000000
00000000
00010000
00000000
00100000
00010000
00000000
00010000
00100000
00000000
,
00001000
00010000
00000100
00001000
00000020
00000000
00000130
00000000
,
00001001
00000000
00000000
00000000
00000002
00000010
00000000
00000000
00000023
00000100
00000000
00000000
00000230
00001000
00000000
00000000
,
00002300
00000010
00000000
00000000
00003020
00000100
00000000
00000000
00000230
00000000
00000000
00000301
00000000
00000000
00000010
00000000
,
00000001
00000000
00000000
00000000
00000002
00000100
00000000
00000000
00000203
00000010
00000000
00000000
00000320
00001000
00000000
00000000
,
00001030
00000000
00000000
00000010
00000000
00000000
00010000
00000000
00001000
00000000
00000000
01000000
00000000
00000000
00010000
00000000
,
10010000
00000000
00000000
00000000
02000000
00100000
00000000
00000000
03200000
00010000
00000000
00000000
00320000
01000000
00000000
00000000
,
02030000
10000000
00000000
00000000
23000000
00100000
00000000
00000000
30200000
00000000
00000000
01300000
00000000
00000000
00010000
00000000
,
10000000
00000000
00000000
10010000
00000000
00000000
00000000
00000000
00010000
00000000
00000000
00011000
00000000
00000000
00000000
00000000
,
00001000
00000000
00000000
00000001
00000000
00000000
00000200
00000000
00000020
00000000
00000000
00000000
00000330
00000000
00000000
00000000
,
00000001
00000000
00000000
00000001
00000000
00000000
00000100
00000000
00000010
00000000
00000100
00000000
00000010
00000000
00000000
00000000
,
00001000
00000000
00000000
00000100
00000000
00000000
00010000
00000000
00001000
00000000
00010000
00000000
00001000
00000000
00000000
00000000
,
00001000
00000000
00000000
00010000
00000000
00000000
00001000
00000000
00001000
00000000
00000000
00000000
01000000
00000000
00000000
00000000
,
00010000
00000000
10000000
00010000
00000000
10000000
00010000
00000000
01000000
00000000
00100000
00000000
00010000
00000000
00000000
00000000
,
00100000
00000000
00100000
00001000
00000000
00001000
00010000
00000000
00010000
00000000
00000100
00000000
00000100
00000000
00000000
00000000
,
00000100
00000000
00000100
00001000
00000000
00001000
00000010
00000000
00000100
00000000
00000001
00000000
00001000
00000000
00000000
00000000
,
00000001
00000000
00000001
00001000
00000000
00001000
00000010
00000000
00000010
00000000
00001000
00000100
00000000
00000100
00001000
00000000
,
00000100
00000000
00000000
00000000
00000000
00000000
00000000
00000000
00000000
00000000
00000000
00000000
00000000
00000000
00000000
00000000
00000000
00000000
00000000
00000000
00000000
00000000
00000000
00000000
00000000
00000000
00000000
00000000
00000000
00000000
00000000
00000000
00000000
00000000
00000000
00000000
00010000
00000000
00000000
00000000
00000000
00000000
00000000
00000000
00000000
00000000
00000000
00000000
00000000
00000000
00000000
00000000
00000000
00000000
00000000
00000000
00000000
00000000
00000000
00000000
00000000
00000000
00000000
00000000
00000000
00000000
00000000
00000000
00000000
00000000
00000000
00000000
00001000
00000000
00000000
00000000
00000000
00000000
00000000
00000000
00000000
00000000
00000000
00000000
00000000
00000000
00000000
00000000
00000000
00000000
00000000
00000000
00000000
00000000
00000000
00000000
00022000
00000000
00000000
00000000
00000000
00000000
00000000
00000000
00000000
00000000
00000000
00000000
00000000
00000000
00000000
00000000
00000000
00000000
00000000
00000000
00000000
00000000
00000000
00000000
00000000
00000000
00000000
00000000
00000000
00000000
00000000
00000000
00000000
00000000
00000000
00000000
00000000
00000000
00000000
00000000
00000000
00000000
00000000
00000000
00000000
00000000
00000000
00000000
00003000
00030000
00000000
00000000
00000000
00000000
00000000
00000000
00000000
00000000
00000000
00000000
00000000
00000000
00000000
00000000
00000000
00000000
00000000
00000000
00000000
00000000
00000000
00000000
00000000
00000000
00000000
00000000
00000000
00000000
00000000
00000000
00000000
00000000
00000000
00000000
00000000
00000000
00000000
00000000
00000000
00000000
00000000
00000000
00000000
00000000
00000000
00000000
,
00022000
00000000
00000000
00000000
,
00000000
00000000
00000000
00000000
,
00000000
00000000
00000000
00000000
,
00033000
00000000
00000000
00000000
;

//---------------dance-double - Copied from Copied f----------------
#NOTES:
     dance-double:
     Copied from Copied f:
     Medium:
     9:
     0.424,0.485,0.416,0.200,0.065: // measure 1
00000000
00000000
00000000
00000000
,  // measure 2
00000000
00000000
00000000
00000000
,  // measure 3
00000000
00000000
00000000
00000000
,  // measure 4
00000000
00000000
00000000
00000000
,  // measure 5
00000000
00000000
00000000
00000000
,  // measure 6
00010000
00010000
00000100
00000100
,  // measure 7
00010000
00010000
01000000
01000000
,  // measure 8
00010000
10000000
00010000
00000000
01000000
00000000
00001000
00000000
,  // measure 9
00010000
00000000
00000000
00010000
00000000
00000000
00010000
00000000
00000000
00010000
00000000
00000000
00010000
00000000
00000000
00000000
,  // measure 10
00001000
00000000
00000000
00001000
00000000
00000000
00001000
00000000
00000000
00000000
00000000
00000000
00001001
00000000
00000000
00000000
,  // measure 11
00000010
00001001
00000100
00001001
,  // measure 12
00000010
00000000
00000000
00000010
00000000
00000000
00000010
00000000
00000000
00000000
00000000
00000000
00001100
00000000
00000000
00000000
,  // measure 13
00000100
00011000
00010000
00110000
,  // measure 14
01000000
00000000
00000000
01000000
00000000
00000000
01000000
00000000
00000000
00000000
00000000
00000000
10010000
00000000
00000000
00000000
,  // measure 15
10000000
01010000
10000000
01010000
,  // measure 16
00100000
00000000
00000000
00001000
00000000
00000000
00011000
00000000
00000000
00000000
00000000
00000000
00000000
00000000
00000000
00000000
,  // measure 17
00000100
00000000
00000000
00001000
00000000
00000000
00000010
00000000
00000000
00000100
00000000
00000000
00001001
00000000
00000000
00000000
,  // measure 18
00000001
00000000
00000000
00000001
00000000
00000000
00000000
00000000
00001000
00000000
00000000
00000000
00001000
00000000
00000000
00000000
,  // measure 19
00000010
00000000
00000000
00000010
00000000
00000000
00000000
00000000
00010000
00000000
00000000
00000000
00010000
00000000
00000000
00000000
,  // measure 20
00001000
00000000
00000000
00001000
00000000
00000000
00000000
00000000
01000000
00000000
00000000
00000000
01000000
00000000
00000000
00000000
,  // measure 21
00100000
00000000
00000000
00100000
00000000
00000000
00000000
00000000
00100000
00000000
00000000
00000000
10010000
00000000
00000000
00000000
,  // measure 22
01000000
00000000
00000000
01000000
00000000
00000000
00000000
00000000
00010000
00000000
00000000
00000000
00110000
00000000
00000000
00000000
,  // measure 23
00001000
00000000
00000000
00001000
00000000
00000000
00000000
00000000
00010000
00000000
00000000
00000000
00010010
00000000
00000000
00000000
,  // measure 24
00000010
00000000
00000000
00000010
00000000
00000000
00000000
00000000
00000100
00000000
00000000
00000000
00001001
00000000
00000000
00000000
,  // measure 25
00000001
00000000
00000000
00000001
00000000
00000000
00000001
00000000
00000000
00000001
00000000
00000000
00000001
00000000
00000000
00000000
,  // measure 26
00000100
00000000
00000100
00000000
00000001
00000100
00001000
00000000
,  // measure 27
00000010
00000000
00001000
00000000
00000100
00000100
00000100
00000000
,  // measure 28
00010000
00000000
00001000
00000000
01000000
00010000
01000000
00000000
,  // measure 29
00010000
10000000
00010000
10000000
01000000
00000000
00100000
00000000
,  // measure 30
10000000
00000000
00010000
00000000
01000000
00010000
01000000
00000000
,  // measure 31
00001000
00000000
00010000
00000000
00001000
00010000
00001000
00000000
,  // measure 32
00010000
00000100
00001000
00000000
00001000
00000010
00000100
00000000
,  // measure 33
00000001
00000100
00000010
00001000
00002002
00000000
00003003
00000000
,  // measure 34
00000010
00001000
00000100
00010000
,  // measure 35
00001000
01000000
01010000
10010000
,  // measure 36
01000000
00100000
10000000
10010000
,  // measure 37
22000000
33000000
02020000
03030000
,  // measure 38
01000000
00001000
00010000
00001000
,  // measure 39
00010000
00000010
00000001
00000100
,  // measure 40
00002002
00003003
00000220
00000330
,  // measure 41
00001100
00010000
00022000
00033000
,  // measure 42
00001000
00000000
00100000
00000000
00010000
01000000
00010000
00000000
,  // measure 43
10000000
00000000
01000000
00000000
10000000
00100000
10000000
00000000
,  // measure 44
00100000
00000000
01000000
00000000
00010000
01000000
00010000
00000000
,  // measure 45
00100000
00001000
00100000
00000000
00001000
00010000
00001000
00000000
,  // measure 46
00010000
00010000
00010000
00000000
00000100
00000000
00001000
00000000
,  // measure 47
00000001
00001000
00000001
00000000
00001000
00000000
00001000
00000000
,  // measure 48
00000010
00000010
00000010
00000000
00001000
00001000
00001000
00000000
,  // measure 49
00000100
00010000
00010000
00000000
00002000
00000000
00013000
00000000
,  // measure 50
00022000
00000000
00000000
00033000
,  // measure 51
00100000
00000000
00000000
01000000
00000000
00000000
10000000
00000000
,  // measure 52
01000000
00000000
00000000
10000000
00000000
00000000
01000000
01000000
,  // measure 53
00000000
00100000
00010000
00001000
,  // measure 54
00000100
00000000
00000000
00000010
00000000
00000000
00000100
00000100
,  // measure 55
00000000
00000000
00000000
00001000
00000001
00000000
00001000
00000000
,  // measure 56
00000100
00000000
00000000
00001000
00000000
00000000
00010000
00001000
,  // measure 57
00000000
00000000
01000000
00010000
,  // measure 58
20020000
00000000
00000000
00000000
,  // measure 59
00000000
00000000
00000000
30030000
,  // measure 60
10000000
00100000
10000000
00010000
,  // measure 61
01000000
00001000
00010000
00000100
,  // measure 62
00002002
00000000
00000000
00000000
,  // measure 63
00000000
00000000
00000000
00003003
,  // measure 64
00000010
00001000
00000200
00000300
,  // measure 65
00010000
00001000
00022000
00033000
,  // measure 66
01000000
10010000
10000000
11000000
,  // measure 67
00100000
00010000
00001000
00011000
,  // measure 68
00010000
00000100
00001000
00000100
,  // measure 69
00000010
00000110
00000010
00001001
,  // measure 70
00001000
00001100
00000001
00000011
,  // measure 71
00001000
00001100
00000100
00010100
,  // measure 72
00001000
00011000
00100000
00110000
,  // measure 73
01010000
10010000
02200000
03300000
,  // measure 74
10000000
01010000
10000000
01010000
,  // measure 75
10000000
01000000
00100000
00000000
00010000
00000000
00011000
00000000
,  // measure 76
00001000
00000101
00001000
00000101
,  // measure 77
00000001
00000010
00000100
00000000
00001000
00000000
00001100
00000000
,  // measure 78
00000100
00011000
00000100
00011000
,  // measure 79
00001000
01000000
00010000
00000000
10010000
00000000
01100000
00000000
,  // measure 80
10000000
00010000
01000000
00000000
00010000
01000000
00001000
00000000
,  // measure 81
00010000
00000100
00001000
00000000
00000001
00001000
00000100
00000000
,  // measure 82
00022000
00000000
00000000
00000000
,  // measure 83
00000000
00000000
00000000
00000000
,  // measure 84
00000000
00000000
00000000
00000000
,  // measure 85
00033000
00000000
00000000
00000000
;

//---------------dance-double - ----------------
#NOTES:
     dance-double:
     :
     Easy:
     6:
     0.311,0.387,0.177,0.324,0.000: // measure 1
00000000
00000000
00000000
00000000
,  // measure 2
00000000
00000000
00000000
00000000
,  // measure 3
00000000
00000000
00000000
00000000
,  // measure 4
00000000
00000000
00000000
00000000
,  // measure 5
00000000
00000000
00000000
00000000
,  // measure 6
00000100
00000100
00000010
00000010
,  // measure 7
00001000
00001000
00000100
00000100
,  // measure 8
00000001
00000001
00000010
00000010
,  // measure 9
00002000
00000000
00000000
00003000
,  // measure 10
10010000
00010000
00000000
00010000
,  // measure 11
00000000
10000000
00000000
10000000
,  // measure 12
00000000
00010000
00000000
00010000
,  // measure 13
00000000
00001000
00000000
00001000
,  // measure 14
00001001
00000001
00000000
00001000
,  // measure 15
00000000
00010000
00000000
10000000
,  // measure 16
00100000
00100000
00100000
00000000
,  // measure 17
01000000
01000000
01000000
00000000
,  // measure 18
20000000
30000000
01000000
10000000
,  // measure 19
00200000
00300000
10000000
01000000
,  // measure 20
00020000
00030000
00100000
00010000
,  // measure 21
02000000
03000000
00010000
00001000
,  // measure 22
00000200
00000300
00000001
00001001
,  // measure 23
00000020
00000030
00001000
00001001
,  // measure 24
00001100
00000000
00011000
00000000
,  // measure 25
00100000
00010000
01000000
10010000
,  // measure 26
00100000
00100000
10000000
10010000
,  // measure 27
00000000
01000000
00100000
00010000
,  // measure 28
00001000
00001000
00010000
00011000
,  // measure 29
00020000
00030000
00000200
00000300
,  // measure 30
00001000
00000010
00000001
00001001
,  // measure 31
00000000
00000010
00000010
00001001
,  // measure 32
00000100
00000100
00010000
00010000
,  // measure 33
00002000
00003000
00022000
00033000
,  // measure 34
00000000
00100000
00100000
00100000
,  // measure 35
10000000
10000000
00020000
00030000
,  // measure 36
01000000
01000000
00001000
00001000
,  // measure 37
00020000
00030000
00002000
00003000
,  // measure 38
00000100
00000100
00000001
00000010
,  // measure 39
00001000
00001000
00000100
00000100
,  // measure 40
00020000
00030000
00002000
00003000
,  // measure 41
02000000
03000000
20020000
30030000
,  // measure 42
10000000
00010000
10000000
00010000
,  // measure 43
10000000
01000000
00100000
00001000
,  // measure 44
00010000
00000010
00001000
00000010
,  // measure 45
00000100
00000001
00001000
00000100
,  // measure 46
00010000
00001000
01000000
00001000
,  // measure 47
01000000
00010000
00100000
01000000
,  // measure 48
20000000
30000000
00020000
00030000
,  // measure 49
00002000
00003000
00000002
00000003
,  // measure 50
00000020
00000000
00000030
00000000
,  // measure 51
00002000
00000000
00003000
00000000
,  // measure 52
00020000
00000000
00030000
00000000
,  // measure 53
00200000
00000000
00300000
00000000
,  // measure 54
20000000
00000000
30000000
00000000
,  // measure 55
02000000
00000000
03000000
00000000
,  // measure 56
00020000
00000000
00030000
00000000
,  // measure 57
00002000
00003000
00000100
00000001
,  // measure 58
00002002
00000000
00000000
00000000
,  // measure 59
00000000
00000000
00000000
00000000
,  // measure 60
00003003
00000000
00000000
00000000
,  // measure 61
00001000
00000000
00010000
01000000
,  // measure 62
20020000
00000000
00000000
00000000
,  // measure 63
00000000
00000000
00000000
30030000
,  // measure 64
01000000
01000000
00010000
00010000
,  // measure 65
00002000
00003000
00000200
00000300
,  // measure 66
00000000
00000001
00000100
00001000
,  // measure 67
00000010
00000010
00001000
00001000
,  // measure 68
00000100
00010000
01000000
10000000
,  // measure 69
00100000
00100000
01000000
01000000
,  // measure 70
00010000
10000000
01000000
00010000
,  // measure 71
00001000
00001000
00000100
00000100
,  // measure 72
00000010
00000001
00000010
00001000
,  // measure 73
00000100
00000100
00002002
00003003
,  // measure 74
00000010
00000010
00001000
00001100
,  // measure 75
00010000
00010000
00001000
01000000
,  // measure 76
00010000
00010000
01000000
11000000
,  // measure 77
10000000
10010000
01000000
01100000
,  // measure 78
10000000
10000000
01000000
01010000
,  // measure 79
00100000
00100000
00001000
00011000
,  // measure 80
00010000
00000100
00001000
00000001
,  // measure 81
00001000
00000100
00010000
00022000
,  // measure 82
00000000
00000000
00000000
00000000
,  // measure 83
00000000
00000000
00000000
00000000
,  // measure 84
00000000
00000000
00000000
00033000
;
