#TITLE:シュッパツシンコウ·シサカンコ;
#SUBTITLE:;
#ARTIST:星野奏子;
#TITLETRANSLIT:Shuppatsushinkou Shisakankou;
#SUBTITLETRANSLIT:;
#ARTISTTRANSLIT:Kanako Hoshino;
#GENRE:;
#CREDIT:;
#BANNER:Shuppatsushinkou Shisakankou.png;
#BACKGROUND:Shuppatsushinkou Shisakankou-bg.png;
#LYRICSPATH:;
#CDTITLE:;
#MUSIC:Shuppatsushinkou Shisakankou.ogg;
#OFFSET:-0.048000;
#SAMPLESTART:55.260029;
#SAMPLELENGTH:12.000000;
#SELECTABLE:YES;
#BPMS:0.000000=182.000000
;
#STOPS:
;
#BGCHANGES:0.000=Shuppatsushinkou Shisakankou.avi=1.000=0=0=0=StretchNoLoop====,
99999=-nosongbg-=1.000=0=0=0 // don't automatically add -songbackground-
;
#KEYSOUNDS:;
#ATTACKS:;

//---------------dance-single - ----------------
#NOTES:
     dance-single:
     :
     Beginner:
     3:
     0.174502,0.212037,0.038412,0.092190,0.000000,159.000000,154.000000,5.000000,12.000000,0.000000,0.000000,0.174502,0.212037,0.038412,0.092190,0.000000,159.000000,154.000000,5.000000,12.000000,0.000000,0.000000:
0000
0000
0000
0000
,
0000
0000
0000
0000
,
0000
0000
0000
0000
,
0000
0000
0000
0000
,
0000
0000
0000
0000
,
0000
0000
0000
0000
,
0001
0000
0000
0000
,
1000
0000
0000
0000
,
0010
0000
0010
0000
,
0010
0000
0010
0000
,
1000
0000
0000
0000
,
0001
0000
0000
0000
,
0010
0000
0010
0000
,
0010
0000
0010
0000
,
0000
0001
0000
0001
,
0000
1000
0000
1000
,
0000
0001
0000
0001
,
0000
0100
0000
0100
,
0000
0001
0000
0001
,
0000
1000
0000
1000
,
0000
0100
0000
0100
,
0000
0001
0000
0001
,
0000
1000
0000
0100
,
0000
1000
0000
1000
,
0000
0001
0000
0100
,
0000
0001
0000
0001
,
0000
0010
0000
1000
,
0000
0010
0000
1000
,
0000
0001
0000
0010
,
0000
0001
0000
1001
,
0000
0000
1000
0000
,
0000
0000
0001
0000
,
0000
0000
0100
0000
,
0000
0000
0010
0000
,
0000
0000
1000
0000
,
0000
0000
0001
0000
,
0000
0100
0000
0100
,
0000
1000
0000
1000
,
0000
0001
0000
0001
,
0000
1000
0000
1000
,
0001
0000
1000
0000
,
0020
0000
0000
0030
,
0001
0000
1000
0000
,
0001
0001
0001
0000
,
1000
0000
0001
0000
,
2000
3000
1000
0000
,
0010
0000
0010
0000
,
0100
0100
0100
0000
,
0020
0030
0010
0000
,
0200
0300
0100
0000
,
0001
0000
1000
0000
,
0001
0001
0001
0000
,
1000
0000
0001
0000
,
2000
3000
1000
0000
,
0001
0000
1000
0000
,
0010
0000
0100
0000
,
0001
0000
1000
0000
,
0001
0000
1001
0000
,
0100
0000
0200
0000
,
0000
0000
0300
0000
,
0000
0001
0000
0001
,
0000
1000
0000
1000
,
0000
0010
0000
0100
,
0000
0001
0000
1000
,
1000
0000
0000
0000
,
0010
0000
0000
0000
,
0001
0000
0000
0000
,
0100
0000
0000
0000
,
0001
0000
0000
0000
,
1000
0000
0000
0000
,
0000
0010
0000
0010
,
0000
0100
0100
0000
,
0001
0000
0001
0000
,
1000
1000
1000
0000
,
0001
0000
1000
0000
,
0002
0003
0001
0000
,
0100
0000
0010
0000
,
0200
0300
0100
0000
,
0010
0000
0020
0030
,
0010
0000
1001
0000
,
0100
0000
0200
0000
,
0000
0000
0300
0000
,
0001
0000
1000
0000
,
0010
0000
0100
0000
,
0001
0000
2002
0000
,
0000
0000
3003
0000
,
0010
0000
0010
0000
,
1000
0000
1000
0000
,
0001
0000
0001
0000
,
0100
0000
0100
0000
,
0010
0000
1000
0000
,
0001
0000
0100
0000
,
1001
0000
0000
0000
;

//---------------dance-single - ----------------
#NOTES:
     dance-single:
     :
     Challenge:
     16:
     0.790200,1.024845,0.929582,0.046095,0.291935,720.000000,599.000000,121.000000,6.000000,172.000000,0.000000,0.790200,1.024845,0.929582,0.046095,0.291935,720.000000,599.000000,121.000000,6.000000,172.000000,0.000000:
// measure 0
0000
0000
0000
0000
,  // measure 1
0000
0000
0000
0000
,  // measure 2
0000
0000
0000
0000
,  // measure 3
0000
0000
0000
0000
,  // measure 4
0000
0000
0000
0000
,  // measure 5
1000
0000
0001
0100
1000
0000
1000
0100
0001
0000
0001
0100
0010
0100
0001
0000
,  // measure 6
1000
0100
1000
0010
0100
0001
0010
0001
,  // measure 7
1000
0100
0010
0001
0100
0000
0110
0000
,  // measure 8
1001
MMMM
1001
0000
0011
0011
0011
0000
,  // measure 9
1001
MMMM
1001
0000
1010
1010
1010
0000
,  // measure 10
0010
1000
0100
1000
0010
0100
0001
0010
,  // measure 11
0001
0100
0010
1000
0100
0000
0011
0000
,  // measure 12
0110
MMMM
0110
0000
1000
0001
0100
0000
,  // measure 13
0110
MMMM
0110
0000
0001
1000
0100
0000
,  // measure 14
1001
0000
1001
MMMM
1001
1000
0010
0000
,  // measure 15
1000
0000
1001
MMMM
1001
0001
0010
0000
,  // measure 16
0001
0000
1001
MMMM
1010
0010
0100
0000
,  // measure 17
0001
0000
1001
MMMM
0101
0100
0010
0000
,  // measure 18
1000
0000
1001
MMMM
1010
1000
0001
0000
,  // measure 19
1000
0000
1001
MMMM
1100
1000
0001
0000
,  // measure 20
0001
0000
1001
MMMM
0101
0001
1000
0000
,  // measure 21
0001
0100
0010
1000
0000
0101
0000
1010
,  // measure 22
0000
0000
0101
MMMM
1100
MMMM
0101
0000
,  // measure 23
0000
0000
0011
MMMM
1010
MMMM
0011
0000
,  // measure 24
0000
0000
1100
MMMM
0011
MMMM
1100
0000
,  // measure 25
0000
0000
0110
MMMM
1001
MMMM
0110
0000
,  // measure 26
0000
0000
1001
MMMM
0101
MMMM
0011
0000
,  // measure 27
0000
0000
1001
MMMM
1010
MMMM
1100
0000
,  // measure 28
0000
0000
0110
MMMM
1001
0000
0110
MMMM
,  // measure 29
1001
MMMM
1001
MMMM
1001
0001
1001
0000
,  // measure 30
1010
0000
0010
0100
0010
0100
0000
0001
,  // measure 31
0100
0010
1000
0100
0010
0001
0100
0001
,  // measure 32
0100
0000
0010
0000
1001
0000
0001
0100
,  // measure 33
0000
1010
0000
0001
0100
0010
1000
0000
,  // measure 34
0100
0000
1000
0001
1000
0100
0000
1000
,  // measure 35
0010
0100
0001
0010
0000
0001
0100
0010
,  // measure 36
0000
0000
1000
0010
0100
0000
0010
1000
0010
0000
0100
0000
0001
0000
0010
0000
,  // measure 37
0001
0000
0100
0010
0100
0000
0001
1000
0001
0000
0100
0000
0010
0000
1000
0000
,  // measure 38
0100
0000
0010
0001
0100
0000
0010
1000
0100
0000
0010
0001
0100
0000
0010
1000
,  // measure 39
0010
0000
0100
0001
0100
0000
0001
0010
0100
0000
0010
0001
0100
0000
0010
0100
,  // measure 40
1000
0000
0100
0010
1000
0000
0001
1000
0001
0000
1000
0010
1000
0000
0100
1000
,  // measure 41
0010
0100
0010
0100
0010
0100
0010
0100
0001
0010
0100
1000
0001
0010
0100
1000
,  // measure 42
0010
1000
0100
0010
0001
1000
0001
1000
,  // measure 43
0001
0010
0100
1000
0010
0000
1001
0000
,  // measure 44
1100
0000
0000
0000
0101
0000
0000
0000
0001
0010
0100
0010
0001
0000
0100
0000
,  // measure 45
0010
0000
0000
0000
0101
0000
0000
0000
0010
1000
0100
1000
0010
0000
0100
0000
,  // measure 46
0010
0000
0010
0100
0001
0001
1001
1001
,  // measure 47
MMMM
1100
1000
1010
MMMM
0010
0001
0100
,  // measure 48
0110
0010
1000
1100
MMMM
0101
0001
0011
,  // measure 49
0011
0001
0100
0010
0110
0010
1000
0100
,  // measure 50
1000
0001
0100
0001
1000
0100
0010
0001
,  // measure 51
0100
0010
0110
0110
0110
MMMM
0110
0000
,  // measure 52
0001
0000
1000
0000
0010
0000
0000
0000
1000
0001
0100
0010
1000
0000
0001
0000
,  // measure 53
1000
0000
0001
0000
0010
0000
0000
0000
0001
1000
0010
0100
0010
0000
1000
0000
,  // measure 54
0101
0000
0000
0000
0010
0000
1000
0000
0100
1000
0100
0000
1000
0000
0010
0000
,  // measure 55
0100
0001
0100
0000
0010
0000
1000
0000
0100
0000
0010
0000
0001
0000
0100
0000
,  // measure 56
0020
0000
0130
0001
1001
0000
MMMM
0000
,  // measure 57
1100
1000
1100
MMMM
0011
0001
0011
MMMM
,  // measure 58
1000
0010
1000
0010
0100
0001
0100
0001
,  // measure 59
1000
0100
1000
0100
0010
0001
0010
0001
,  // measure 60
0100
0000
0010
0000
1000
0000
0010
0100
0010
0100
0010
1000
0001
1000
0001
1000
,  // measure 61
0100
0000
1000
0000
0010
0000
0100
0001
0100
0001
0100
0010
1000
0010
1000
0010
,  // measure 62
0100
0001
0100
0000
0010
1000
0010
0000
1000
0100
1000
0000
0001
0010
0001
0000
,  // measure 63
1000
0100
0010
0001
1000
0100
0010
0001
1000
0100
0010
0001
0200
0000
0000
0000
,  // measure 64
0310
1000
0100
0001
,  // measure 65
0010
0001
0100
0010
,  // measure 66
1000
0000
0100
0000
0010
0001
0010
0001
,  // measure 67
0010
0000
0001
0000
0100
0010
0100
0010
,  // measure 68
0100
0000
0000
1000
0001
1000
0001
1000
,  // measure 69
0000
0010
0100
0010
0000
0000
0000
0000
,  // measure 70
0000
0000
1001
0000
MMMM
0000
1001
MMMM
,  // measure 71
1100
MMMM
0011
MMMM
1100
MMMM
0011
0000
,  // measure 72
1000
0000
0001
0100
1000
0000
1000
0100
0001
0000
0010
0001
0100
0000
0001
0010
,  // measure 73
1000
0000
1000
0010
0001
0000
0001
1000
0010
0000
0010
0000
0100
0000
0001
0000
,  // measure 74
1000
0000
0101
0000
0110
0010
1000
0010
,  // measure 75
0110
MMMM
1001
0000
0101
0100
0010
0100
,  // measure 76
0101
0000
0010
1000
0100
0010
0001
0101
,  // measure 77
MMMM
1010
1000
1100
0000
0010
1000
0001
,  // measure 78
0100
0000
0001
1000
0001
0000
0010
0000
0010
0000
1000
0001
1000
0000
0100
0000
,  // measure 79
1100
1100
1000
0001
0101
0101
0100
0010
,  // measure 80
2000
0000
0000
0002
0000
0000
0000
0000
,  // measure 81
0000
0000
0000
3003
0000
0001
0100
0010
,  // measure 82
2000
0000
0000
0001
0002
0000
3003
0000
,  // measure 83
0110
0100
0110
MMMM
1001
0001
1001
MMMM
,  // measure 84
1100
1000
0010
0100
0001
0100
0010
1000
,  // measure 85
1100
1000
0010
0100
0101
0000
0011
0000
,  // measure 86
1000
0000
0100
0010
0001
0000
1000
0100
0010
0000
0100
0010
0001
0000
1000
0100
,  // measure 87
0010
0000
0100
0010
0001
0000
1000
0010
0100
0000
0001
0000
0100
0000
0010
0000
,  // measure 88
1000
0000
0001
0100
0010
0000
1000
0010
0100
0000
0001
0100
0001
0000
1000
0100
,  // measure 89
1000
0010
0100
0001
1000
0000
0101
0000
,  // measure 90
1100
0000
0011
0000
0110
0110
0110
0000
,  // measure 91
0001
0100
0101
0000
1000
0100
1100
0000
,  // measure 92
1001
0000
0000
0000
;

//---------------dance-single - ----------------
#NOTES:
     dance-single:
     :
     Hard:
     12:
     0.556432,0.636111,0.483997,0.169015,0.046095,507.000000,444.000000,63.000000,22.000000,0.000000,0.000000,0.556432,0.636111,0.483997,0.169015,0.046095,507.000000,444.000000,63.000000,22.000000,0.000000,0.000000:
0000
0000
0000
0000
,
0000
0000
0000
0000
,
0000
0000
0000
0000
,
0000
0000
0000
0000
,
0000
0000
0000
0000
,
0000
0000
0000
0000
,
0010
1000
0010
1000
0001
0100
0001
0100
,
0010
1000
0100
0010
0001
0000
0110
0000
,
1001
0000
1100
0000
0001
0100
0001
0000
,
1001
0000
0101
0000
1000
0100
1000
0000
,
0001
0010
0001
0010
0100
1000
0100
1000
,
0001
0010
0100
1000
0010
0000
0110
0000
,
1001
0000
1001
0000
1000
0001
0100
0000
,
1001
1100
1001
0101
,
0010
0000
1000
0100
0000
1000
0001
0100
,
0001
0000
1000
0010
0000
1000
0001
0010
,
0001
0000
0100
0010
0000
1000
0001
1000
,
0100
0000
0010
0001
0000
0100
0010
0100
,
0001
0000
1000
0010
0000
0100
0001
0100
,
0010
0000
0001
0100
0000
0010
1000
0010
,
0100
0000
1000
0001
0000
1000
0100
0000
,
1000
0001
1000
0001
0000
0110
0000
1001
,
0000
0000
0001
0010
0000
0100
1000
0000
,
1001
0000
1000
0100
0000
0010
0001
0000
,
0110
0000
0001
1000
0000
1000
0001
0000
,
0110
0000
1000
0001
0000
0001
1000
0000
,
0101
0000
1000
0010
0000
0100
0001
0000
,
1010
0000
0001
0010
0000
0100
1000
0000
,
0110
0000
1000
0001
0000
1000
0001
0000
,
0110
0000
0110
0000
0001
1000
0001
0000
,
1100
0000
0001
0000
0100
0001
0000
1000
,
0001
1000
0000
0010
0000
0100
0010
0100
,
0010
0000
1000
0000
0001
0000
0100
0010
,
0000
1010
0000
0000
0002
0000
0103
0000
,
0010
0000
1000
0000
0100
0010
0000
1000
,
0001
1000
0000
0001
0000
0100
0010
0100
,
0000
0001
0100
0010
0100
0001
0000
1001
,
0000
1000
0010
0100
0010
1000
0100
1000
,
0001
0000
0000
0001
0100
0000
0000
0100
0010
0000
0000
0010
1000
0000
0000
1000
,
0020
0230
0302
2003
,
3010
0000
0000
0010
1000
0000
0000
1000
0001
0000
0000
0001
1000
0000
0000
1000
,
0200
0000
2300
0000
,
3010
0100
0010
0100
0010
0100
0010
0100
,
0001
0010
0100
1000
0010
0000
1000
0000
,
0101
0000
0101
0000
1000
0001
1000
0000
,
1100
0000
1100
0000
0001
1000
0001
0000
,
0110
0000
0000
0001
0100
0001
0100
0010
,
0000
1000
0010
0100
0000
0000
1001
0000
,
0100
0000
0001
1000
0000
1000
0100
1000
,
0000
0001
0100
0000
1001
0000
1001
0000
,
1100
1100
0011
0011
,
1000
0010
0100
0001
0100
0000
0011
0000
,
1010
0000
1010
0000
0001
0100
0010
0000
,
1010
0000
1010
0000
0001
0100
0010
0000
,
1001
0000
0000
0010
0100
0001
0100
0010
,
0000
1000
0100
0010
0000
0001
0100
0000
,
2002
3003
2200
3300
,
0001
0100
0001
0000
1000
0100
1000
0000
,
0010
0000
0100
0000
0001
1000
0001
0000
,
0100
0000
0010
0000
1000
0001
1000
0000
,
0001
0100
0001
0100
0010
0100
0010
0100
,
0001
0100
0001
0100
0001
1000
0001
1000
,
0100
1000
0100
1000
0010
0100
0010
0100
,
0001
0010
0001
1000
0100
0010
0001
0000
,
0100
0000
0001
0000
,
0010
0000
1000
0000
,
0001
1000
0001
0000
,
1000
0001
1000
0000
,
0010
0000
0100
0000
,
0001
0000
1000
0000
,
0000
0110
0000
0110
,
0000
1001
1100
1001
,
0001
0100
0001
0100
0010
1000
0010
1000
,
0010
0010
0100
0100
0010
0000
1000
0000
,
0001
0000
1100
0000
0001
0010
0100
0000
,
1000
0000
0101
0000
1000
0010
0100
0000
,
1001
0000
0000
1000
0001
0100
0010
1000
,
0000
0001
0100
0001
0000
0000
1000
0010
,
0200
0000
0000
0300
2002
0000
3003
0000
,
0001
0010
0001
0000
1000
0100
1000
0000
,
0020
0000
0000
0200
0000
0000
0000
0000
,
0000
0000
0000
0330
0000
0000
1000
0000
,
0002
0003
2000
3000
,
0202
0303
2200
3300
,
0010
0100
0010
0100
0001
1000
0001
1000
,
0010
0100
0010
0100
0010
0000
1000
0000
,
1000
0100
0000
0000
0100
0010
0000
0000
0010
0000
0001
0000
0100
0000
0000
0000
,
0001
0010
0000
0000
0010
0100
0000
0000
0100
0000
1000
0000
0010
0000
0000
0000
,
1000
0001
1000
0001
0100
0010
0100
0010
,
1000
0100
0010
0001
0100
0000
0010
0000
,
1010
1010
0101
0101
,
0100
0010
0110
0000
0001
1000
1001
0000
,
1001
0000
0000
0000
;

//---------------dance-double - ----------------
#NOTES:
     dance-double:
     :
     Challenge:
     16:
     0.689230,1.130864,0.483997,0.069142,0.249681,628.000000,565.000000,63.000000,9.000000,296.000000,0.000000,0.689230,1.130864,0.483997,0.069142,0.249681,628.000000,565.000000,63.000000,9.000000,296.000000,0.000000:
00000000
00000000
00000000
00000000
,
00000000
00000000
00000000
00000000
,
00000000
00000000
00000000
00000000
,
00000000
00000000
00000000
00000000
,
00000000
00000000
00000000
00000000
,
10000000
00000000
00100000
01000000
00100000
00000000
10000000
00100000
10000000
00000000
00100000
01000000
00100000
01000000
00100000
00000000
,
10000000
00100000
01000000
00000000
00010000
00100000
00001000
00000000
,
00010000
00000100
00001000
00000010
00000100
00000000
00001001
00000000
,
00011000
00000000
1001MMMM
00000000
10000000
00010000
10010000
00000000
,
00011000
00000000
MMMM1001
00000000
00001000
00000100
00010000
0000MMMM
,
00001000
01000000
00001000
01000000
00010000
01000000
00100000
01000000
,
00010000
10000000
00100000
10000000
01000000
00000000
10010000
00000000
,
00011000
00000000
MMMM1001
00000000
00001000
00000010
00010000
00000100
,
00100000
00001000
01000000
00000000
MMMM1000
00010000
00000100
00000000
,
0000MMMM
00001001
MMMMMMMM
00011000
,
MMMMMMMM
01010000
MMMMMMMM
00001100
,
MMMMMMMM
00001010
MMMMMMMM
00011000
,
MMMMMMMM
00110000
MMMMMMMM
00001010
,
MMMMMMMM
00110000
MMMMMMMM
11000000
,
MMMMMMMM
01010000
MMMMMMMM
00001100
,
MMMMMMMM
00001001
MMMMMMMM
00011000
,
MMMMMMMM
00001001
MMMMMMMM
00001100
,
MMMMMMMM
01010000
MMMMMMMM
10010000
,
MMMMMMMM
00011000
MMMMMMMM
10010000
,
MMMMMMMM
11000000
MMMMMMMM
00011000
,
MMMMMMMM
01010000
MMMMMMMM
00011000
,
MMMMMMMM
00001100
MMMMMMMM
00011000
,
MMMMMMMM
00000101
MMMMMMMM
00011000
,
MMMMMMMM
01010000
MMMMMMMM
00010000
,
00011000
00000000
00011000
00000000
00010000
00001000
00011000
00000000
,
00001100
00000000
00001000
00000010
00000100
00000001
00000000
00000100
,
00000010
00001000
00000100
00010000
00001000
01000000
00010000
10000000
,
00100000
00000000
10000000
00000000
00010000
01000000
00001000
00010000
,
00000000
00010000
00000010
00001000
00000010
00001000
00000100
00010000
,
00001000
00000000
00010000
00001000
00100000
00010000
00000000
01000000
,
00100000
10000000
01000000
00100000
00010000
01000000
00001000
00010000
,
00000000
00000000
00010000
00000100
00010000
00000000
00000100
00001000
00000100
00000000
00001000
00000000
00000010
00000000
00000100
00000000
,
00000001
00000000
00001000
00000001
00001000
00000000
00000100
00001000
00000100
00000000
00001000
00000000
00000100
00000000
00010000
00000000
,
00001000
00000000
00100000
00010000
01000000
00000000
00100000
10000000
01000000
00000000
00100000
00010000
01000000
00000000
00010000
00100000
,
00001000
00000000
00010000
00000100
00001000
00000000
00000010
00001000
00000001
00000000
00000100
00000001
00001000
00000000
00000100
00010000
,
00001000
00100000
00010000
01000000
00100000
10000000
01000000
00100000
,
00002000
00000000
00020000
00033000
,
00010000
00000100
00010000
00000010
00010000
00000100
00010000
00001000
,
01000000
00001000
00010000
00001000
00100000
00000000
00110000
MMMMMMMM
,
11000000
00000000
MMMMMMMM
00000000
00110000
00000000
00000000
00000000
10000000
00100000
01000000
00100000
10000000
00000000
00010000
00000000
,
00100000
00000000
00001000
00000000
00010000
00000000
00000010
00000000
00000100
00000001
00001000
00000001
00000100
00000000
00000010
00000000
,
00001000
00000000
00000100
00010000
00001000
01000000
00001000
00010000
,
00000100
00001000
00000010
00010000
00000000
00010000
00001000
00100000
,
00010000
10000000
00010000
00100000
00000000
00000010
00001000
00000001
,
00000000
00010000
00001000
01000000
00010000
00100000
00001000
00010000
,
00000100
00001000
00000001
00001000
00000100
00010000
00001000
01000000
,
00001000
00010000
00000010
00010000
00001000
00000000
01010000
MMMMMMMM
,
11000000
00000000
MMMMMMMM
00000000
01010000
00000000
00000000
00000000
10000000
00010000
00100000
00010000
01000000
00000000
00001000
00000000
,
00010000
00000000
00000100
00000000
00001000
00000000
00000010
00000000
00001000
00000001
00001000
00000100
00001000
00000000
00000010
00000000
,
00010000
00000000
00001000
00000000
01000000
00000000
00010000
00000000
10000000
00100000
01000000
00000000
00010000
00000000
10000000
00100000
,
01000000
00010000
00100000
00001000
00010000
00000010
00001000
00000100
,
00002200
00003300
00000202
00000303
,
00000011
00001000
00000010
00000000
00001100
00000001
00000100
00000000
,
00000001
00000100
00000010
00001000
00000100
00010000
00001000
01000000
,
00010000
10000000
00100000
01000000
00001000
00010000
00000010
00000100
,
00000001
00000010
00000001
00000000
00000100
00000010
00000100
00000000
00000001
00000100
00000001
00000100
00000010
00001000
00000010
00001000
,
00000100
00001000
00000100
00000000
00010000
00001000
00010000
00000000
00001000
01000000
00001000
01000000
00010000
01000000
00100000
00000000
,
00010000
10000000
01000000
00100000
00010000
10000000
01000000
00100000
00010000
00100000
00001000
00100000
00001000
00010000
00000100
00010000
,
00000100
00001000
00000100
00000010
00000001
00001000
00000100
00000010
00000001
00001000
00000100
00010000
00001000
00000000
00000000
00000000
,
00100000
00010000
01000000
10000000
,
01000000
00010000
00100000
00001000
,
00010000
00000010
00001000
00000010
,
00100000
00001000
01000000
00000100
,
00010000
00000000
00000000
00000000
00000010
00000100
00000010
00000100
,
00000000
00010000
00001000
00010000
00000000
00000000
00000000
00000000
,
00000000
11000000
MMMMMMMM
01010000
,
11000000
00110000
00001100
00000011
,
00000001
00000000
00000001
00000100
00001000
00000000
00001000
00000100
00000001
00000000
00001000
00000100
00000010
00000000
00000001
00000010
,
00001000
00000000
00001000
00000010
00000001
00000000
00000100
00000000
00000010
00000000
00010000
00000000
00001000
00000000
01000000
00000000
,
00100000
00000000
10100000
00000000
00100000
01000000
00001000
00010000
,
00000010
00000100
00000001
00000000
00000100
00000010
00010000
00001000
,
01000000
00100000
10000000
00100000
01000000
00001000
00010000
00000010
,
00000000
00000100
00000001
00001000
00000000
00000100
00010000
00001000
,
01000000
00000000
00010000
01000000
00200000
00000000
10300000
00000000
,
01010000
00000000
00000000
00000000
10000000
00100000
01000000
00000000
00010000
00000000
00100000
00000000
00001000
00010000
00000100
00000000
,
00001000
00000001
00001000
00000100
00010000
00000100
00010000
00001000
,
00100000
00001000
00010000
00000010
00010000
00000100
00010000
00001000
,
00200000
00000000
00000000
00010000
00320000
00000000
00000000
00000000
,
01030000
00010000
01010000
00000000
10000000
00100000
10100000
00000000
,
10000000
00100000
01000000
00001000
00010000
00000010
00000100
00000001
,
00001000
00000100
00010000
00001000
00100000
00010000
01000000
00100000
,
10000000
00010000
00100000
00001000
00010000
00000010
00000100
00000001
,
00000100
00000010
00010000
00001000
01000000
00100000
10000000
00000000
,
00010000
00000000
00100000
00001000
00100000
00000000
00000100
00010000
00000100
00000000
00001000
00000001
00001000
00000000
00000100
00010000
,
00000100
00000000
00100000
00010000
00100000
00000000
00010000
10000000
00010000
00000000
10000000
00100000
01000000
00000000
00010000
00000000
,
00100000
00001000
00010000
00000010
00001000
00000100
00000010
00000001
,
00000100
00000010
00001000
00000000
00000100
00010000
00001000
00000000
,
00011000
00000000
00000000
00000000
;

//---------------dance-double - ----------------
#NOTES:
     dance-double:
     :
     Hard:
     12:
     0.530092,0.600771,0.368760,0.084507,0.015365,483.000000,435.000000,48.000000,11.000000,0.000000,0.000000,0.530092,0.600771,0.368760,0.084507,0.015365,483.000000,435.000000,48.000000,11.000000,0.000000,0.000000:
00000000
00000000
00000000
00000000
,
00000000
00000000
00000000
00000000
,
00000000
00000000
00000000
00000000
,
00000000
00000000
00000000
00000000
,
00000000
00000000
00000000
00000000
,
00000000
00000000
00000000
00000000
,
10000000
00010000
10000000
00000000
00010000
00100000
00010000
00000000
,
00100000
00001000
00010000
00001000
00100000
00000000
00001000
00000000
,
00010000
00000000
00000010
00000000
00001000
00000001
00001000
00000000
,
00000100
00000000
00010000
00000000
00001000
01000000
00001000
00000000
,
01000000
00010000
10000000
00000000
00010000
00100000
00001000
00000000
,
00010000
00000100
00001000
00000000
00000010
00000000
00001000
00000000
,
00000001
00001100
00000010
00001100
,
00000100
00011000
00001000
00011000
,
00010000
00000000
00001000
01000000
00000000
01000000
00010000
00000000
,
10000000
00000000
00010000
01000000
00000000
01000000
00001000
00000000
,
00010000
00000000
00000100
00001000
00000000
00001000
00000001
00000000
,
00001000
00000000
00000100
00010000
00000000
00010000
00001000
00000000
,
00100000
00000000
00010000
10000000
00000000
10000000
00010000
00000000
,
00100000
00000000
00001000
00010000
00000000
00010000
00000010
00000000
,
00001000
00000000
00000001
00000100
00000000
00000100
00000010
00000000
,
00001000
00000010
00001000
00000010
00000000
00010000
00000000
00001000
,
00010000
00000000
00001000
01000000
00000000
00001000
00100000
00000000
,
00001000
00000000
00010000
00000100
00000000
00010000
00000010
00000000
,
00010000
00000000
00000010
00001000
00000000
00000010
00000100
00000000
,
00001000
00000000
00000001
00000100
00000000
00000010
00000100
00000000
,
00001000
00000000
00000100
00010000
00000000
00001000
00010000
00000000
,
00001000
00000000
01000000
00010000
00000000
01000000
00100000
00000000
,
10000000
00000000
00010000
01000000
00000000
00010000
00100000
00000000
,
00001000
00000000
00010000
00000000
00000100
00001000
00000100
00000000
,
00001000
00000000
00000001
00000000
00001000
00000100
00000000
00010000
,
00001000
00010000
00000000
00001000
00000000
00100000
00010000
01000000
,
00100000
00000000
00000000
00000000
10100000
00000000
01000000
01010000
,
00000000
10010000
00000000
00000000
00100000
00000000
00000000
00000000
,
00010000
00000000
01000000
00000000
00001000
00010000
00000000
00010000
,
00000100
00001000
00000000
00001010
00000000
00000001
00000100
00000010
,
00000000
00001000
00000100
00001000
00000100
00001000
00000000
00011000
,
00000000
00100000
00010000
01000000
00010000
00100000
00010000
01000000
,
00100000
00000000
00000000
00100000
10000000
00000000
00000000
10000000
01000000
00000000
00000000
01000000
00010000
00000000
00000000
00010000
,
00100000
00001000
00010000
00000000
00010000
00000100
00001000
00000000
,
00000010
00000101
00001010
00000101
,
00000010
00001000
00000100
00000000
00010000
00001000
00100000
00000000
,
00010000
01000000
00010000
01000000
00001000
00010000
00001000
00010000
,
00000100
00001000
00000100
00001000
00000100
00000000
00000101
00000000
,
00001100
00000000
00011000
00000000
00100000
00010000
01000000
00000000
,
01010000
00000000
00011000
00000000
00010000
00000100
00001000
00000100
,
00001000
00000000
00000000
00000001
00001000
00000100
00001000
00000001
,
00000000
00001000
00000100
00010000
00000000
00000000
00000000
00001000
,
00100000
00010000
00100000
00010000
00000000
01000000
00010000
10000000
,
00000000
10000000
01000000
00100000
00010000
00000000
00011000
00000000
,
00010000
00000100
00001000
00000001
00001000
00000100
00010000
00000010
,
00010000
00000100
00010000
00001000
01000000
00000000
01010000
00000000
,
00110000
00000000
01010000
00000000
10000000
00100000
01000000
00010000
,
00100000
00000000
00101000
00000000
00010000
00000100
00001000
00000010
,
00001000
00000000
00000100
00000000
00010000
00001000
00100000
00001000
,
00000000
00100000
00010000
01000000
00000000
00100000
10000000
01000000
,
20000000
00000000
30100000
01000000
00200000
00000000
01300000
00000000
,
00110000
11000000
00101000
01010000
,
00020000
00000000
00000000
00002000
00000000
00000000
00000000
00000000
,
00000000
00000000
00033000
00000000
,
00001000
00000010
00000100
00000000
00000001
00001000
00000100
00000000
,
00001000
00000100
00010000
00000000
00010000
00001000
00100000
00000000
,
00010000
01000000
00100000
10000000
00010000
01000000
00100000
00000000
,
01000000
00001000
00010000
00000000
00010000
00000100
00001000
00000000
,
00001100
00000000
00000001
00000000
,
00001000
00000000
00010000
00000000
,
10000000
01000000
00100000
00000000
,
00001000
00000100
00000010
00000000
,
00001001
00000000
00001100
00000000
,
00110000
00000000
10010000
00000000
,
00011000
00000000
00001001
00000000
,
00000010
00001000
00000100
00000000
00010000
00001000
00100000
00000000
,
00010000
01000000
00010000
10000000
00010000
01000000
00001000
00010000
,
00000100
00001000
00000010
00000100
00000001
00000000
00001100
00000000
,
00000100
00000010
00010000
00000000
00001000
01000000
00100000
00000000
,
01000000
00001000
00010000
00000000
00000010
00000100
00000001
00000100
,
00000010
00000000
00001000
00000000
00000100
00010000
00001000
00010000
,
00000000
00001000
00100000
00010000
00000000
00000000
00010000
01000000
,
00200000
00300000
20020000
30030000
,
11000000
00110000
11000000
00110000
,
02000000
00000000
00002000
00000000
,
00000000
00000000
03003000
00010000
,
00000200
00000000
00002000
00003300
,
00000001
00000100
00001000
00000000
00000010
00000100
00001000
00000000
,
00000100
00010000
00000100
00010000
00001000
00100000
00001000
00100000
,
00001000
00010000
01000000
00100000
01000000
00000000
10010000
00000000
,
11000000
00000000
00110000
00000000
01000000
00001000
00010000
00000100
,
00010000
00000000
00001100
00000000
00001000
00000010
00000100
00000000
,
00000001
00000100
00000001
00000100
00001000
00000100
00001000
00000100
,
00000001
00000100
00000010
00001000
00000100
00000000
00010100
00000000
,
00001000
00000000
00101000
00000000
00100000
00010000
01000000
00100000
,
10000000
01010000
00001000
00010100
,
00011000
00000000
00000000
00000000
;

//---------------dance-double - ----------------
#NOTES:
     dance-double:
     :
     Medium:
     8:
     0.374247,0.459413,0.153650,0.099872,0.000000,341.000000,321.000000,20.000000,13.000000,0.000000,0.000000,0.374247,0.459413,0.153650,0.099872,0.000000,341.000000,321.000000,20.000000,13.000000,0.000000,0.000000:
00000000
00000000
00000000
00000000
,
00000000
00000000
00000000
00000000
,
00000000
00000000
00000000
00000000
,
00000000
00000000
00000000
00000000
,
00000000
00000000
00000000
00000000
,
00000000
00000000
00000000
00000000
,
00100000
00100000
00100000
00100000
,
10000000
00010000
10000000
00010000
10000000
00000000
00000000
00000000
,
10000000
00000000
01000000
00000000
00100000
00010000
00100000
00000000
,
00010000
00000000
00001000
00000000
00010000
00001000
00010000
00000000
,
00000100
00000100
00000100
00000100
,
00000001
00001000
00000001
00001000
00000001
00000000
00000000
00000000
,
00000001
00000000
00000100
00000000
00000010
00001000
00000010
00000000
,
00001000
00000100
00010000
00001000
,
00000000
10010000
00000000
10010000
,
00000000
00100000
00001000
00010000
,
00000000
00011000
00000000
00011000
,
00000000
00000010
00001000
00000100
,
00000000
00001001
00000000
00001001
,
00000000
00001000
00000100
00010000
,
00000000
00011000
00000000
00011000
,
00001000
00100000
00001000
00100000
00000000
00010000
00000000
00010000
,
01000000
00000000
00100000
10000000
00000000
00100000
10000000
00000000
,
00010000
00000000
00100000
00010000
00000000
00100000
00010000
00000000
,
00001000
00000000
00010000
00000100
00000000
00000100
00010000
00000000
,
00000010
00000000
00001000
00000001
00000000
00001000
00000001
00000000
,
00001000
00000000
00000100
00001000
00000000
00000100
00001000
00000000
,
00000100
00000000
00010000
00001000
00000000
00010000
00001000
00000000
,
00100000
00000000
00010000
01000000
00000000
00010000
01000000
00000000
,
00100000
00000000
00100000
00000000
10000000
00010000
10000000
00000000
,
00100000
00000000
10010000
00000000
,
00100000
00001000
00010000
00000000
,
00000010
00000000
00001001
00000000
,
00000010
00010000
00001000
00000000
,
00100000
00000000
01010000
00000000
,
00001000
00000000
00010000
00000000
00000100
00000000
00000000
00001000
,
00000000
00000010
00000100
00000000
00000010
00000000
00000000
00001000
,
00000000
00000100
00010000
00000000
00000100
00000000
00000000
00000000
,
00010000
00010000
00001000
00001000
,
00100000
00010000
01000000
10000000
,
00100000
00100000
00001000
00001000
,
00022000
00000000
00000000
00033000
,
00010000
00010000
00000100
00000100
,
00010000
00000100
00010000
00000100
00010000
00000000
00000100
00000000
,
00001000
00000000
00000001
00000000
00001000
00000001
00001000
00000000
,
00000100
00000000
00010000
00000000
00001000
00010000
00001000
00000000
,
00100000
00010000
01000000
10000000
,
00100000
00100000
10010000
00000000
,
01000000
00001000
00010000
00000100
,
00001000
00001000
00000001
00000001
,
00000100
00000100
00000010
00000010
,
00001000
00000100
00001000
00000100
00001000
00000000
00000000
00000000
,
00000100
00000000
00000100
00000000
00010000
00001000
00010000
00000000
,
00001000
00000000
01000000
00000000
00010000
01000000
00010000
00000000
,
01000000
00000000
00100000
10000000
,
01000000
00010000
00100000
00000000
,
00110000
00000000
00011000
00000000
,
00001100
00000000
00011000
00000000
,
00200000
00000000
02000000
00000000
,
00000000
00000000
00000000
03300000
,
10000000
00000000
00010000
00000000
10000000
00010000
10000000
00000000
,
00010000
00100000
00001000
00010000
,
00000100
00000000
00001000
00000000
00000001
00001000
00000001
00000000
,
00001000
00000100
00020000
00030000
,
00001000
00001000
00100000
00100000
,
00010000
01000000
10000000
00000000
,
01000000
00000000
00010000
00000000
,
00001000
00000000
00000100
00000000
,
00000001
00000000
00001000
00000000
,
00010000
00000000
10000000
00000000
,
00100000
00100000
00100000
00000000
,
10000000
00010000
01000000
00000000
,
10000000
00010000
10000000
00000000
00010000
00000000
00100000
00000000
,
00001000
00010000
00001000
00000000
00010000
00000000
00000100
00000000
,
00001000
00000000
00000001
00000000
00001000
00000001
00001000
00000000
,
00000100
00000000
00010000
00000000
00001000
00010000
00001000
00000000
,
00100000
00000000
00010000
01000000
,
10000000
01000000
10000000
00000000
01000000
00000000
00010000
00000000
,
00002000
00003000
00020000
00030000
,
00000010
00000100
00000010
00000000
00010000
00001000
00010000
00000000
,
00002000
00000000
00020000
00000000
,
00000000
00000000
00033000
00000000
,
00200000
00000000
02000000
03300000
,
01010000
00000000
11000000
00000000
,
00100000
01000000
00100000
01000000
,
00010000
10000000
00010000
10000000
00010000
00000000
10000000
00000000
,
01000000
00100000
00010000
00001000
,
00000100
00000010
00000001
00000100
,
00000010
00000100
00000010
00000000
00000001
00001000
00000001
00000000
,
00000100
00000010
00000100
00000010
00000100
00000000
00000001
00000000
,
00000100
00000010
00010000
00001000
,
00020000
00031000
00002000
00013000
,
00011000
00000000
00000000
00000000
;

//---------------dance-single - ----------------
#NOTES:
     dance-single:
     :
     Medium:
     8:
     0.369857,0.565432,0.199745,0.169015,0.000000,337.000000,311.000000,26.000000,22.000000,0.000000,0.000000,0.369857,0.565432,0.199745,0.169015,0.000000,337.000000,311.000000,26.000000,22.000000,0.000000,0.000000:
0000
0000
0000
0000
,
0000
0000
0000
0000
,
0000
0000
0000
0000
,
0000
0000
0000
0000
,
0000
0000
0000
0000
,
0000
0000
0000
0000
,
0010
0010
0010
0010
,
1000
0001
1000
0001
1000
0000
0000
0000
,
0100
1000
0100
1000
,
0001
0100
0001
0100
,
0010
0010
0010
0010
,
0001
1000
0001
1000
0001
0000
0000
0000
,
0100
0100
0001
0010
,
1000
1001
0001
1001
,
0010
0100
0000
1001
,
0100
0010
0000
1001
,
0010
0000
0100
0001
0000
0000
1001
0000
,
0010
0000
0100
1000
0000
0000
1001
0000
,
0100
0000
0001
1000
0000
1000
0001
0000
,
0100
0000
0001
1000
0000
1000
0001
0000
,
0100
0000
1000
0001
0000
0001
1000
0000
,
0010
0100
0010
0100
0000
0010
0000
0010
,
0000
1010
0000
0101
,
0000
1100
0000
0011
,
0000
0000
1000
0000
0001
1000
0001
0000
,
0000
0000
1000
0000
0001
1000
0001
0000
,
0100
0000
0010
0000
0100
0001
1000
0000
,
0010
0000
0100
0000
0001
0100
0010
0000
,
1000
0100
1000
0001
,
0100
0000
0100
0000
0010
0100
0010
0000
,
2000
0000
0000
3000
0100
0000
0000
0000
,
0002
0000
0000
0003
0100
0000
0000
0000
,
0020
0000
0000
0030
0100
0000
0000
0000
,
0200
0000
0000
0300
0010
0000
0000
0000
,
1000
0000
0001
0000
,
1000
0000
0000
0000
0001
0000
0000
0100
,
0000
0010
0100
0000
1001
0000
0000
0100
,
0000
0010
0100
0000
1001
0000
0000
0000
,
1000
1000
0001
0001
,
1000
0100
0010
0001
,
2002
0000
0000
3003
,
0020
0000
0200
0330
,
0001
0100
1000
0100
,
0001
1000
0001
1000
0001
0000
1000
0000
,
0100
0000
0001
0000
1000
0001
1000
0000
,
0001
0000
0100
0000
1000
0001
1000
0000
,
0010
0000
0100
0000
,
0001
0100
1000
0000
,
0010
0010
1000
1000
,
0010
0001
0100
1000
,
0010
0010
0100
0100
,
0001
0100
0001
0100
0001
0000
1000
0000
,
0100
0000
0100
0000
1000
0001
1000
0000
,
0010
0000
0010
0000
1000
0001
1000
0000
,
0100
0000
1000
0010
,
0100
0001
1001
0000
,
0110
0000
1001
0000
,
0010
1001
0100
1001
,
0020
0000
0200
0000
,
0000
0000
0000
0330
,
1000
1000
0001
0001
,
0100
0100
0010
0010
,
1000
0001
0100
0010
,
1000
0001
1000
0000
0010
0100
0010
0000
,
2000
0000
0000
3000
,
0002
0000
0000
0003
,
0200
0300
0020
0030
,
2000
3000
0002
0003
,
0200
0000
0000
0300
,
0020
0000
0000
0030
,
0000
1000
0000
0001
,
0000
1000
0100
0001
,
1000
0001
1000
0000
0001
1000
0001
0000
,
0100
0100
0100
0010
,
0010
0000
1000
0000
0001
0100
0001
0000
,
1000
0000
1000
0000
0001
0100
0001
0000
,
1000
0000
0010
1000
,
0100
0001
1001
0000
,
0110
0000
1001
0000
,
0010
0010
0100
0100
,
0002
0000
2000
0000
,
0000
0000
3003
0010
,
2000
0000
0002
3003
,
0010
0100
0010
0000
1000
0001
1000
0000
,
0001
0001
1000
1000
,
0010
1000
0010
1000
0010
0000
1000
0000
,
0100
0001
0100
1000
,
0001
0010
1000
0010
,
0001
0001
0100
0100
,
0001
0100
1000
0100
0001
0000
0010
0000
,
1001
1001
0110
0110
,
1000
0001
1000
0000
0001
1000
0001
0000
,
1001
0000
0000
0000
;

//---------------dance-single - ----------------
#NOTES:
     dance-single:
     :
     Easy:
     6:
     0.269985,0.353395,0.192062,0.192062,0.000000,246.000000,221.000000,25.000000,25.000000,0.000000,0.000000,0.269985,0.353395,0.192062,0.192062,0.000000,246.000000,221.000000,25.000000,25.000000,0.000000,0.000000:
0000
0000
0000
0000
,
0000
0000
0000
0000
,
0000
0000
0000
0000
,
0000
0000
0000
0000
,
0000
0000
0000
0000
,
0000
0000
0000
0000
,
0010
0010
0010
0010
,
1000
0001
1000
0000
,
0100
0000
0100
0000
,
0010
0000
0010
0000
,
0010
0010
0010
0010
,
0001
1000
0001
0000
,
0100
0000
0100
0000
,
0010
1000
0001
0000
,
0010
0100
0000
1001
,
0000
0010
0000
1001
,
0000
0100
0000
1001
,
0000
0010
0000
1001
,
0000
0001
0000
1001
,
0000
1000
0000
1001
,
0000
0001
0000
1000
,
0000
0010
0000
0100
,
0000
1000
0010
0100
,
0000
0001
0100
0010
,
0000
1000
0001
1000
,
0000
0001
1000
0001
,
0000
0010
0100
1000
,
0000
0100
0010
0001
,
0000
0100
0000
1001
,
0100
0100
0200
0300
,
2000
0000
3001
0000
,
0002
0000
1003
0000
,
0020
0000
0130
0000
,
0200
0000
0310
0000
,
1000
0100
0001
0000
,
1000
0100
0001
0000
,
0000
0110
1001
0000
,
0000
0110
1001
0000
,
1000
1000
0001
0001
,
1000
0100
0010
0001
,
2002
0000
0000
3003
,
0020
0000
0200
0330
,
0001
0100
1000
0100
,
0001
0001
1001
0000
,
0100
0001
1000
0000
,
0100
1000
0001
0000
,
0010
0000
0100
0000
,
0001
0100
1000
0000
,
0010
0000
0100
0000
,
1000
0100
0001
0000
,
1000
0100
0001
0100
,
1000
1000
1001
0000
,
0100
0000
1000
0000
,
0010
0000
0001
0000
,
0100
0000
1000
0010
,
0100
0000
1001
0000
,
0010
0000
0010
0000
,
0010
0001
0100
0000
,
0020
0000
0200
0000
,
0000
0000
0000
0330
,
1000
1000
0001
0001
,
0100
0100
0010
0010
,
1000
0001
0100
0010
,
2002
0000
3003
0000
,
2000
0000
0000
3000
,
0002
0000
0000
0003
,
0200
0300
0020
0030
,
2000
3000
0002
0003
,
0200
0000
0000
0300
,
0020
0000
0000
0030
,
0000
1000
0000
0001
,
0000
1000
0100
0001
,
1000
1000
0001
0000
,
0100
0100
0100
0000
,
0010
1000
0001
0000
,
0010
0001
1000
0000
,
1000
0000
0010
0000
,
0001
0100
1000
0000
,
0110
0000
1001
0000
,
0010
0010
0100
0100
,
0002
0000
2000
0000
,
0000
0000
3003
0010
,
2000
0000
0002
3003
,
0110
0000
1001
0000
,
0001
0100
1000
0100
,
0001
0001
1001
0000
,
0010
0001
0100
0000
,
0010
1000
0100
0000
,
1000
0100
0001
0100
,
1000
1000
1001
0000
,
1000
0001
1000
0001
,
1001
0000
0110
0000
,
1001
0000
0000
0000
;

//---------------dance-double - ----------------
#NOTES:
     dance-double:
     :
     Easy:
     6:
     0.261205,0.353395,0.107555,0.061460,0.000000,238.000000,224.000000,14.000000,8.000000,0.000000,0.000000,0.261205,0.353395,0.107555,0.061460,0.000000,238.000000,224.000000,14.000000,8.000000,0.000000,0.000000:
00000000
00000000
00000000
00000000
,
00000000
00000000
00000000
00000000
,
00000000
00000000
00000000
00000000
,
00000000
00000000
00000000
00000000
,
00000000
00000000
00000000
00000000
,
00000000
00000000
00000000
00000000
,
00100000
00100000
00100000
00100000
,
10000000
00010000
10000000
00000000
,
10000000
00000000
01000000
00000000
,
00010000
00000000
00001000
00000000
,
00000100
00000100
00000100
00000100
,
00000001
00001000
00000001
00000000
,
00000100
00000000
00001000
00000000
,
00010000
00000000
00001000
00000000
,
00000000
00010000
00000000
00010000
,
00000000
00001000
00000000
00010000
,
00000000
00000100
00000000
00000100
,
00000000
00010000
00000000
00001000
,
00000000
01000000
00000000
00100000
,
00000000
00010000
00000000
00001000
,
00000000
00000100
00000000
00000010
,
00000000
00010000
00000000
00001000
,
00000000
01000000
00010000
01000000
,
00000000
00001000
00010000
00001000
,
00000000
00000100
00001000
00000100
,
00000000
00010000
00001000
00010000
,
00000000
01000000
00010000
10000000
,
00000000
00010000
01000000
00001000
,
00000000
00010000
00000100
00001000
,
00000001
00000001
00001001
00000000
,
00000000
00000000
00000010
00000000
,
00001000
00000000
00000100
00000000
,
00000000
00000000
00010000
00000000
,
00001000
00000000
01000000
00000000
,
00000000
00000000
00100000
00000000
,
10000000
00000000
01000000
00000000
,
00000000
00010000
00001000
00010000
,
00000000
00001000
00010000
00001000
,
00100000
00100000
01000000
01000000
,
00100000
00010000
00001000
00000000
,
00100000
00100000
00001000
00001000
,
00022000
00000000
00000000
00033000
,
00010000
00010000
00000100
00000100
,
00010000
00010100
00010100
00000000
,
00001000
00000001
00001000
00000000
,
00000100
00010000
00001000
00000000
,
00100000
00010000
01000000
00000000
,
00100000
00100000
10010000
00000000
,
01000000
00001000
00010000
00000000
,
00001000
00001000
00001001
00000000
,
00000100
00000100
00000010
00000010
,
00001000
00010000
00001000
00000000
,
00000100
00000100
00010000
00011000
,
00001000
01000000
00010000
00000000
,
01000000
00000000
00100000
10000000
,
00010000
00000000
00100000
00000000
,
00110000
00000000
00011000
00000000
,
00001100
00000000
00011000
00000000
,
00200000
00000000
02000000
00000000
,
00000000
00000000
00000000
03300000
,
10000000
00010000
10000000
00000000
,
00001000
00010000
00001000
00000000
,
00000001
00001000
00000001
00000000
,
00010000
00001000
00010000
00000000
,
00001000
00000000
00000000
00000000
,
00010000
00000000
00000000
00000000
,
00001000
00000000
00000000
00000000
,
00010000
00000000
00000000
00000000
,
00001000
00000000
00000000
00000000
,
00010000
00000000
00000000
00000000
,
00000000
01000000
00000000
01000000
,
00000000
00100000
00001000
00010000
,
00000100
00000100
00010000
00010000
,
00001000
00100000
00010000
01000000
,
00100000
10000000
00100000
01000000
,
00001000
00010000
00000100
00001000
,
00000010
00000100
00000001
00001000
,
00000100
00010000
00001000
01000000
,
00100000
00000000
01000000
00000000
,
00001000
00010000
00001000
00000000
,
00002000
00000000
00020000
00000000
,
00000000
00000000
00033000
00000000
,
00200000
00000000
02000000
03300000
,
01010000
00000000
11000000
00000000
,
00100000
01000000
00100000
01000000
,
00010000
10000000
00010000
00000000
,
10000000
00100000
00010000
00000000
,
00001000
00000010
00000001
00000000
,
00000010
00000010
00000100
00000100
,
00000001
00001000
00000001
00000000
,
00000001
00000100
00001000
00000000
,
00010000
01000000
10000000
00000000
,
10010000
00000000
00000000
00000000
;
