#TITLE:Seize My Day;
#SUBTITLE:;
#ARTIST:RainbowDragonEyes;
#TITLETRANSLIT:;
#SUBTITLETRANSLIT:;
#ARTISTTRANSLIT:;
#GENRE:;
#CREDIT:;
#MENUCOLOR:;
#METERTYPE:DDR;
#BANNER:Seize My Day.png;
#BACKGROUND:Seize My Day-bg.png;
#LYRICSPATH:;
#CDTITLE:;
#MUSIC:Seize My Day.ogg;
#OFFSET:0.000;
#SAMPLESTART:27.000;
#SAMPLELENGTH:15.000;
#SELECTABLE:YES;
#LISTSORT:;
#DISPLAYBPM:160.000;
#BPMS:0.000=160.000;
#STOPS:;
#BGCHANGES:0.000=Seize My Day.avi=1.000=1=1=0,
99999=-nosongbg-=1.000=0=0=0 // don't automatically add -songbackground-
;
#ATTACKS:;

//---------------dance-single - ----------------
#NOTES:
     dance-single:
     :
     Hard:
     13:
     0.720,0.765,0.194,0.485,0.181:
0000
0000
0000
0000
,
0000
0000
0000
0000
,
0000
0000
0000
0000
,
0000
0000
0000
0000
,
1000
0001
1000
0000
0001
1000
0001
0000
,
0010
0100
0010
0000
0100
0010
0100
0000
,
0001
0100
0001
0100
0001
0100
0001
0000
,
1000
0001
1000
0001
1000
0000
0001
0000
0100
0000
0000
0000
2002
0000
0000
0000
,
0000
0000
0000
3003
,
0002
0003
2000
3000
,
0002
0003
1000
0100
0002
0003
2000
3000
,
0001
0100
0001
1000
0002
0003
1000
0010
,
2000
3020
0230
0302
2003
3002
1003
0000
,
0001
0100
0001
0010
1000
0100
1000
0010
,
1000
0000
0100
0000
1000
0010
1000
0000
0010
0000
1000
0000
0100
0000
1000
0000
,
0001
0000
0100
0001
0100
0000
0001
0000
0100
0000
0010
0000
0100
0000
0010
0000
,
1000
0100
1000
0001
0001
0100
0001
0100
,
0010
0100
0010
0100
0010
0000
0100
0000
0002
0000
1000
0000
1003
0000
0000
0000
,
1000
0001
0100
0001
1000
0100
0010
0002
,
0000
1003
0020
0000
0130
0001
2000
0000
,
3001
0001
1000
1000
0010
0010
0100
0100
,
0001
0100
0000
0000
0100
1000
0000
0000
1000
0010
0000
0000
0010
0100
0000
0000
,
0001
1000
0001
0100
0010
0010
0100
0100
,
0000
0001
0100
1000
1000
0100
0001
0000
,
1000
0100
0000
0000
0101
0000
0000
0000
0001
0100
0000
0000
1100
0000
0000
0000
,
0010
0010
0000
2001
0000
0000
3001
0000
,
1000
0010
0100
0010
1000
0010
0100
0010
,
1000
0100
0010
0100
1000
0100
0010
0100
,
1000
0001
0100
0001
1000
0001
0100
0001
,
0100
0010
1000
0010
0100
0010
1000
0001
,
0010
0100
1000
0100
0010
0100
1000
0100
,
0001
0010
0100
0010
0001
0010
0100
1000
,
0010
0010
0100
0000
0100
0100
0010
0010
,
0000
0001
0001
1000
2000
3000
0002
0003
,
0010
0001
0101
0000
0010
1000
1100
0000
,
0010
0100
0110
0000
1000
0001
1001
0000
,
1000
0000
0000
1000
0000
0000
1000
0000
0001
0000
0000
0001
0000
0000
0001
0000
,
0100
0000
0000
0100
0000
0000
0100
0000
0020
0000
0100
0000
0130
0000
0001
0000
,
1000
0100
1100
0000
0001
0100
0101
0000
,
1000
0010
1010
0000
0001
0010
0011
0000
,
1000
0000
0010
1000
0010
0000
0001
0000
1000
0000
0001
0000
1000
0000
0001
0000
,
1000
0010
0100
0001
1000
0000
1001
0000
,
1200
0001
1300
0011
,
1020
0001
1030
0101
,
1200
0001
1300
0110
,
1002
0100
0013
1001
,
1000
0100
0000
0000
0100
0010
0000
0000
0010
0001
0000
0000
0001
0100
0000
0000
,
0100
1000
0000
0000
1000
0100
0000
0000
0100
0001
0000
0000
0001
1000
0000
0000
,
2000
0010
3010
0000
0002
0100
0103
0000
,
0020
0100
0100
0100
0100
0100
0130
0000
,
1000
0100
0001
0100
2000
3000
0002
0003
,
1000
0000
0100
1000
0100
0000
1000
0000
0200
0000
0300
0000
1000
0000
0010
0000
,
0100
0001
0100
0001
1000
0100
1000
0100
,
1000
1000
0001
0001
0100
0100
0010
0000
,
1000
0001
0100
0001
2000
3000
0002
0003
,
1000
0000
0010
0100
0010
0000
1000
0000
0002
0000
0003
0000
0100
0000
0010
0000
,
1000
0100
0010
0000
0001
0100
0010
0000
,
1000
0100
1000
0100
1000
0000
0010
0000
0100
0000
0100
0000
0110
0000
0000
0000
,
0002
0003
1000
0100
0020
0000
2030
0000
,
3001
0000
0100
0001
0100
0000
0001
0000
2000
0000
0000
0000
3010
0000
0100
0000
,
0002
1003
2000
3010
0020
0130
0200
0301
,
0001
1000
1000
1000
0010
1000
1000
1000
,
0100
0000
1000
0000
0010
1000
0010
0000
1000
0000
0100
0000
1000
0100
1000
0000
,
0001
0000
0100
0000
0001
0010
0001
0000
0100
0000
0010
0000
0100
0010
0100
0000
,
0002
1003
2000
3010
0020
0130
0200
0301
,
0001
1000
0001
1000
0001
0000
1000
0000
2000
0000
0001
0000
3001
0000
0000
0000
,
1000
0000
0010
0000
1000
0000
0010
0000
1000
0000
0010
0000
1000
0000
0001
1000
,
0001
0000
0100
0000
0001
0000
0100
0000
0001
0000
0100
0000
0010
0000
0100
0010
,
0100
0000
0001
0000
0100
0000
0001
0000
0100
0000
0001
0000
1000
0000
0001
1000
,
0001
0000
1000
0000
0001
0000
1000
0000
0010
0000
0100
0000
0010
0100
0010
0000
,
1000
0000
0100
1000
0100
0000
1000
0000
0010
0000
0100
0000
0001
0000
0100
0000
,
0010
0000
0100
0010
0100
0000
0010
0000
1000
0000
0100
0000
1000
0000
0010
0000
,
0200
0001
0301
1000
0020
0100
0130
1000
,
0002
0100
0203
0010
0320
1000
2030
0002
,
0000
0000
0000
0000
,
0000
0000
3003
0000
;

//---------------dance-single - ----------------
#NOTES:
     dance-single:
     :
     Medium:
     10:
     0.480,0.499,0.203,0.388,0.013:
0000
0000
0000
0000
,
0000
0000
0000
0000
,
0000
0000
0000
0000
,
0000
0000
0000
0000
,
0010
0100
0010
0000
1000
0000
0001
0000
,
0100
0010
0100
0000
0001
0000
1000
0000
,
0001
0100
0001
0000
1000
0100
1000
0000
,
0010
0100
0010
0100
0010
0000
2002
0000
,
0000
0000
0000
3003
,
2000
3000
0002
0003
,
0100
0000
1000
0001
1000
0000
0100
0000
,
1000
0010
1000
0010
1000
0000
0001
0000
,
0200
0310
2000
3001
,
1000
0100
1000
0000
0001
0100
0001
0000
,
1000
0000
0010
0100
0010
0000
1000
0000
,
0001
0100
0001
0100
0001
0000
1000
0000
,
0020
1030
0200
0310
,
0001
1000
0001
1000
0001
0000
0000
0000
,
0000
1000
0001
1000
0001
0000
0100
0000
,
0010
0000
0001
0000
1000
0010
1000
0000
,
0001
0000
0001
0000
0010
0100
0010
0000
,
0220
0000
0000
0330
,
0000
1000
0100
0000
1000
0001
1000
0000
,
0001
0000
1000
0000
0010
0100
0010
0000
,
2000
3200
0302
0203
,
0310
0100
0000
0020
0000
0000
0030
0000
,
0000
1000
0001
0000
1000
0000
1000
0000
,
0001
1000
0001
0000
0100
0000
0100
0000
,
0010
1000
0010
0000
0100
0001
0100
0000
,
0220
0000
0000
0330
,
1000
0000
1100
0000
0001
0100
0001
0000
,
0001
0000
0101
0000
1000
0100
1000
0000
,
0020
0000
0230
0000
0301
0000
1000
1000
,
0000
0100
0000
2002
0000
0000
3003
0000
,
1000
0000
0001
0000
1000
0010
1000
0000
,
0001
0000
1000
0000
0001
0010
0001
0000
,
1000
0000
0000
1000
0000
0000
1000
0000
0001
0000
0000
0001
0000
0000
0001
0000
,
0100
0000
0000
0100
0000
0000
0001
0000
2000
0000
0000
0000
3000
0000
0000
0000
,
0010
0000
0010
0000
1000
0001
1000
0000
,
0100
0000
0100
0000
0001
1000
0001
0000
,
1000
0100
1000
0000
0001
0100
0001
0000
,
0100
0100
2002
3003
,
0020
0100
0130
0001
,
2000
0100
3100
0001
,
0200
0010
0310
0001
,
2000
0010
3010
0001
,
0100
1001
0100
1001
,
0010
1001
0100
0010
,
0002
0003
2000
3000
,
0020
0100
0100
0130
,
0001
0000
0100
0001
0100
0000
0010
0000
,
1000
0100
1000
0100
1000
0000
0001
0000
,
0101
0100
1100
0100
,
0001
1000
0001
0000
1000
0001
1000
0000
,
0010
0000
0010
0001
0010
0000
0100
0000
,
1000
0010
1000
0010
1000
0000
0001
0000
,
0101
0101
1100
1100
,
0001
0100
0001
0100
0002
0000
0003
0000
,
1000
0000
1000
0010
1000
0000
1000
0000
,
0001
0000
0001
0100
0001
0000
0001
0000
,
0100
0010
0100
0000
0010
0100
0010
0000
,
1000
0001
1000
0000
0001
1000
0001
0000
,
0100
0000
0100
0001
0100
0000
0100
0000
,
0010
0000
0010
1000
0010
0000
0010
0000
,
1000
0100
1000
0000
0001
0100
0001
0000
,
0100
0010
0100
0010
0200
0000
0300
0000
,
0002
0100
0103
1000
,
2000
0010
3010
0100
,
0002
0100
0103
0010
,
2000
0100
3100
0010
,
0110
0110
1001
1001
,
0001
0100
0010
1000
,
2002
3003
2200
3300
,
0020
0001
0130
2002
,
0000
0000
0000
0000
,
0000
0000
3003
0000
;

//---------------dance-single - ----------------
#NOTES:
     dance-single:
     :
     Easy:
     5:
     0.332,0.299,0.106,0.388,0.000:
0000
0000
0000
0000
,
0000
0000
0000
0000
,
0000
0000
0000
0000
,
0000
0000
0000
0000
,
2000
0000
0000
3000
,
0002
0000
0000
0003
,
0200
0300
0020
0030
,
1000
0100
0001
2002
,
0000
0000
0000
3003
,
0020
0030
0200
0300
,
0001
0001
0200
0300
,
1000
1000
0200
0300
,
0020
0030
0200
0300
,
0001
0100
1001
0000
,
1000
1000
0002
0003
,
0001
0001
2000
3000
,
0010
0100
0010
0100
,
0001
1000
1001
0000
,
0000
1000
0100
1000
,
0000
0001
0100
0001
,
0010
0010
0100
0100
,
2002
0000
0000
3003
,
0000
0010
1000
0010
,
0000
0010
0001
0010
,
0001
0001
1000
1000
,
0010
0010
0010
0000
,
0000
1000
0100
0001
,
0000
0001
0100
1000
,
0010
0010
0100
0100
,
2002
0000
0000
3003
,
0000
0001
0010
1000
,
0000
1000
0010
0001
,
0100
0100
0010
0010
,
2002
0000
3003
0000
,
1000
0100
0001
0001
,
1000
0100
0001
0001
,
0020
0030
0200
0300
,
0002
0003
1001
0000
,
0001
0100
1000
1000
,
0001
0100
1000
1000
,
0010
0010
0100
0100
,
0001
0100
1001
0000
,
2000
0000
3000
0010
,
0200
0000
0300
0010
,
2000
0000
3000
0001
,
0002
0000
0003
0100
,
0010
0010
0100
0100
,
1000
0001
1000
0001
,
2000
3000
0002
0003
,
2002
0000
0000
3003
,
0010
0010
0001
1000
,
0010
0010
1000
0001
,
0100
0100
0100
0100
,
0001
0010
0100
1000
,
0100
0100
0001
1000
,
0100
0100
1000
0001
,
0010
0010
0010
0010
,
1000
0100
1001
0000
,
0010
0010
0002
0003
,
0010
0010
2000
3000
,
0100
0100
2000
3000
,
0100
0100
0002
0003
,
0010
0100
0010
0100
,
0001
1000
0001
1000
,
0001
0010
0100
1000
,
0010
0010
1001
0000
,
0200
0010
0310
0000
,
2000
0100
3100
0000
,
0002
0100
0103
0000
,
0020
0100
0130
0000
,
1000
0100
0010
0001
,
0100
0100
0010
0010
,
2000
3000
0002
0003
,
2000
0000
3000
2002
,
0000
0000
0000
0000
,
0000
0000
3003
0000
;

//---------------dance-single - Copied from ----------------
#NOTES:
     dance-single:
     Copied from:
     Beginner:
     3:
     0.170,0.233,0.026,0.132,0.000: // measure 1
0000
0000
0000
0000
,  // measure 2
0000
0000
0000
0000
,  // measure 3
0000
0000
0000
0000
,  // measure 4
0000
0000
0000
0000
,  // measure 5
1000
0000
0000
0000
,  // measure 6
0001
0000
0000
0000
,  // measure 7
1000
0000
0001
0000
,  // measure 8
1000
0000
0001
0000
,  // measure 9
0000
0000
0000
0000
,  // measure 10
0000
0000
0000
0000
,  // measure 11
0001
0000
0001
0000
,  // measure 12
1000
0000
1000
0000
,  // measure 13
0001
0000
1000
0000
,  // measure 14
0001
0000
1000
0000
,  // measure 15
1000
0000
1000
0000
,  // measure 16
0001
0000
0001
0000
,  // measure 17
0010
0000
0010
0000
,  // measure 18
0100
0000
0100
0000
,  // measure 19
0000
1000
0000
1000
,  // measure 20
0000
0001
0000
0001
,  // measure 21
0000
1000
0000
0001
,  // measure 22
0002
0000
0003
0000
,  // measure 23
0000
0010
0000
0010
,  // measure 24
0000
0100
0000
0100
,  // measure 25
0000
0010
0000
0010
,  // measure 26
0000
0100
0100
0000
,  // measure 27
0000
1000
0000
0001
,  // measure 28
0000
1000
0000
0001
,  // measure 29
0000
0010
0000
0010
,  // measure 30
0020
0000
0030
0000
,  // measure 31
0000
0001
0000
1000
,  // measure 32
0000
0001
0000
1000
,  // measure 33
0000
0100
0000
0100
,  // measure 34
0200
0000
0300
0000
,  // measure 35
1000
0000
0001
0000
,  // measure 36
1000
0000
0001
0000
,  // measure 37
0100
0000
0100
0000
,  // measure 38
0100
0000
0100
0000
,  // measure 39
0001
0000
1000
0000
,  // measure 40
0001
0000
1000
0000
,  // measure 41
0010
0000
0010
0000
,  // measure 42
0010
0000
0000
0000
,  // measure 43
2000
0000
3000
0000
,  // measure 44
0002
0000
0003
0000
,  // measure 45
2000
0000
3000
0000
,  // measure 46
0002
0000
0003
0000
,  // measure 47
0010
0000
0010
0000
,  // measure 48
0100
0000
0100
0000
,  // measure 49
1000
0000
0001
0000
,  // measure 50
2002
0000
3003
0000
,  // measure 51
0010
0000
0010
0000
,  // measure 52
0100
0000
0100
0000
,  // measure 53
0010
0000
0100
0000
,  // measure 54
0001
0000
1000
0000
,  // measure 55
0001
0000
0001
0000
,  // measure 56
1000
0000
1000
0000
,  // measure 57
0001
0000
1000
0000
,  // measure 58
0010
0000
0100
0000
,  // measure 59
0010
0000
0000
0000
,  // measure 60
0010
0000
0000
0000
,  // measure 61
0100
0000
0000
0000
,  // measure 62
0100
0000
0000
0000
,  // measure 63
1000
0000
0001
0000
,  // measure 64
1000
0000
0001
0000
,  // measure 65
0010
0000
0100
0000
,  // measure 66
1000
0000
0001
0000
,  // measure 67
0200
0000
0300
0000
,  // measure 68
2000
0000
3000
0000
,  // measure 69
0002
0000
0003
0000
,  // measure 70
0020
0000
0030
0000
,  // measure 71
1000
0000
1000
0000
,  // measure 72
0001
0000
0001
0000
,  // measure 73
1000
0000
0001
0000
,  // measure 74
1001
0000
0000
2002
,  // measure 75
0000
0000
0000
0000
,  // measure 76
0000
0000
3003
0000
;
