#TITLE:SUNSET;
#SUBTITLE:;
#ARTIST:nc feat. NRG Factory;
#TITLETRANSLIT:;
#SUBTITLETRANSLIT:;
#ARTISTTRANSLIT:;
#GENRE:;
#CREDIT:;
#BANNER:SUNSET.png;
#BACKGROUND:SUNSET-bg.png;
#LYRICSPATH:;
#CDTITLE:;
#MUSIC:SUNSET.ogg;
#OFFSET:-0.060000;
#SAMPLESTART:64.540001;
#SAMPLELENGTH:25.000000;
#SELECTABLE:YES;
#DISPLAYBPM:147.000000;
#BPMS:0.000000=147.000000
;
#STOPS:
;
#BGCHANGES:;
#KEYSOUNDS:;
#ATTACKS:;

//---------------dance-single - ----------------
#NOTES:
     dance-single:
     :
     Hard:
     11:
     0.383061,0.490838,0.172702,0.281777,0.131799,295.000000,276.000000,19.000000,31.000000,0.000000,0.000000,0.383061,0.490838,0.172702,0.281777,0.131799,295.000000,276.000000,19.000000,31.000000,0.000000,0.000000:
0000
0000
0000
0000
,
0000
0000
0000
0000
,
0000
0000
0000
0000
,
0000
0000
0000
0000
,
1000
0000
0100
0000
1000
0001
1000
0000
,
0001
0000
0100
0000
0001
1000
0001
0000
,
1000
0000
0010
0000
1000
0001
1000
0000
,
0001
0000
0000
0000
0010
0000
0000
0000
1000
0000
0000
1000
0000
0000
0001
0000
,
0100
0010
0100
0000
0001
0000
1001
0000
,
0100
0010
0100
0000
1000
0000
1001
0000
,
0010
0100
0010
0000
1000
0001
1000
0000
,
0100
0000
0001
0000
0010
1000
0010
0000
,
1000
0100
1000
0000
0001
0000
0100
0000
,
0001
0100
0001
0000
1000
0000
0100
0000
,
0010
1000
0010
0000
0100
0001
0100
0000
,
0010
1000
0100
0000
0010
0001
0100
0000
,
2200
0000
0000
0000
3300
0000
0000
0000
0010
0100
0010
0100
0000
0000
0000
0000
,
0202
0303
0220
0330
,
2002
0000
0000
0000
3003
0000
0000
0000
1000
0001
1000
0001
0000
0000
0000
0000
,
2002
3003
0220
0330
,
2000
0000
3100
0000
0001
0100
0001
0000
,
0002
0000
0103
0000
1000
0100
1000
0000
,
0010
0100
0010
0000
1001
0000
0100
0000
,
0100
0010
0100
0000
0001
0000
1000
0000
,
1002
0000
0000
0203
0000
0000
0020
0000
,
0000
0000
0330
0000
,
0002
0000
0003
0000
,
2000
0000
3020
0000
,
2030
0000
0000
3020
0000
0000
0200
0000
,
0000
0000
0330
0000
,
0002
0000
0003
0000
,
2000
0000
3002
0000
,
0103
0000
0010
0000
0100
0000
0000
0010
0000
0000
0100
0000
0010
0000
0000
0100
,
0000
0000
0001
0000
1000
0000
0000
0001
0000
0000
1000
0000
0001
0000
0000
1000
,
0000
0000
0001
0000
0100
0000
0000
0001
0000
0000
1000
0000
0100
0000
0000
1000
,
0000
0000
0001
0000
0010
0000
0000
0001
0000
0000
1000
0000
0010
0000
0000
1000
,
0000
0000
0001
0000
0100
0000
0010
0100
0000
0000
0001
0000
0100
0000
0010
0100
,
0000
0000
0001
0000
1000
0000
0001
0100
0000
0000
0001
0000
1000
0000
0001
0100
,
0000
0000
1000
0000
0100
0000
1000
0001
0000
0000
1000
0000
0100
0000
1000
0001
,
0000
0100
0010
1000
0002
0000
0203
0000
,
0301
0010
0011
0000
1000
0010
1010
0000
,
0001
0100
0101
0000
1000
0100
1100
0000
,
0010
0100
0101
0000
0100
0010
1010
0000
,
0001
0010
0001
0000
1000
0100
1000
0000
,
0001
0100
0001
0000
1000
0010
1000
0000
,
0010
0100
0010
0000
0100
0010
0100
0000
,
1000
0100
1000
0000
0010
0001
0010
0000
,
0001
0100
0001
1000
0001
0000
0110
0000
,
1000
0000
0010
0000
1000
0000
0010
1000
0000
0000
0001
0000
0100
0000
0001
0100
,
0000
0000
0010
0000
0100
0000
0010
0100
0000
0000
1000
0000
0100
0000
1000
0100
,
0000
0000
0001
0000
0100
0000
0001
0100
0000
0000
0010
0000
0100
0000
0010
0100
,
0000
0000
1000
0000
0001
0000
1000
0100
0000
0000
1000
0000
0001
0000
0100
0000
,
0001
0000
1000
0000
0001
0000
1000
0001
0000
0000
0100
0000
0010
0000
0100
0010
,
0000
0000
1000
0000
0100
0000
1000
0100
0000
0000
0001
0000
0100
0000
0001
0000
,
0100
0010
0100
0000
0001
0100
0001
0000
,
1000
0100
0010
0001
0100
0000
0010
0000
,
0110
0000
0000
1001
0000
0000
0200
0000
,
0000
0000
0000
0300
,
2000
0000
0000
0000
,
0002
0000
0000
0000
,
3003
0000
0000
0000
;

//---------------dance-single - ----------------
#NOTES:
     dance-single:
     :
     Medium:
     8:
     0.307747,0.409031,0.372673,0.263598,0.000000,237.000000,196.000000,41.000000,29.000000,0.000000,0.000000,0.307747,0.409031,0.372673,0.263598,0.000000,237.000000,196.000000,41.000000,29.000000,0.000000,0.000000:
0000
0000
0000
0000
,
0000
0000
0000
0000
,
0000
0000
0000
0000
,
0000
0000
0000
0000
,
1000
0100
1000
1001
,
0001
0100
0001
1001
,
1000
0010
1000
1001
,
0001
0010
1000
1001
,
0100
0100
0001
1001
,
0100
0100
1000
1001
,
0010
0010
1000
1001
,
0100
0001
0010
1000
,
1000
1100
0001
0100
,
0001
0101
1000
0100
,
0010
1010
0100
0101
,
0010
0110
2002
3003
,
1001
0100
0002
0103
,
1001
0100
2000
3100
,
1001
0010
2000
3010
,
1001
0010
0002
0013
,
2000
0000
3100
0000
0001
0100
0001
0000
,
0002
0000
0103
0000
1000
0100
1000
0000
,
0010
0110
0001
1001
,
0100
0010
0100
0000
0001
0000
1000
0000
,
1001
0000
0000
0100
0000
0000
0020
0000
,
0000
0000
0030
0000
,
0002
0000
0003
0000
,
2000
3000
0002
0003
,
1001
0000
0000
0010
0000
0000
0200
0000
,
0000
0000
0300
0000
,
0002
0000
0003
0000
,
2000
0000
3002
0000
,
0103
0000
0000
0010
0000
0000
2002
0000
,
0000
0000
0000
3003
,
2000
0001
0000
3001
,
0002
0003
2000
0000
,
3010
0000
0000
0100
0000
0000
2002
0000
,
0000
0000
0000
3003
,
0002
0100
0100
0103
,
2000
3100
0002
0103
,
0001
0011
1000
1010
,
0001
0101
1000
1100
,
0010
0101
0100
1010
,
0001
0011
1000
1100
,
0001
0100
0001
0000
1000
0000
1010
0000
,
0010
0100
0010
0000
0100
0000
0110
0000
,
1000
0100
1000
0000
0010
0000
0011
0000
,
0001
0100
0001
0000
1001
0000
0110
0000
,
1000
0010
1000
0000
0100
0000
0110
0000
,
0001
0010
0001
0000
0010
0000
0110
0000
,
1000
0001
1000
0000
0100
0000
0110
0000
,
0001
1000
0001
0000
0010
0000
0110
0000
,
1000
0001
1000
0000
0001
1000
0001
0000
,
0010
0100
0010
0000
0100
0001
0100
0000
,
0010
0100
0010
0000
1000
0001
1000
0000
,
1000
0010
0100
0001
,
1001
0000
0000
0010
0000
0000
0200
0000
,
0000
0000
0000
0300
,
2000
0000
0000
0000
,
0002
0000
0000
0000
,
3003
0000
0000
0000
;

//---------------dance-single - ----------------
#NOTES:
     dance-single:
     :
     Easy:
     5:
     0.211658,0.272688,0.036358,0.127254,0.000000,163.000000,159.000000,4.000000,14.000000,0.000000,0.000000,0.211658,0.272688,0.036358,0.127254,0.000000,163.000000,159.000000,4.000000,14.000000,0.000000,0.000000:
0000
0000
0000
0000
,
0000
0000
0000
0000
,
0000
0000
0000
0000
,
0000
0000
0000
0000
,
1000
0100
1000
0001
,
0001
0100
0001
1000
,
0100
0010
1000
1000
,
0010
0100
0001
0001
,
0100
0100
0001
1000
,
0100
0100
1000
0001
,
0010
0010
1000
0100
,
0010
0001
0010
0100
,
1000
0100
0001
0000
,
0001
0100
1000
0000
,
0010
1000
0100
0001
,
0010
0100
2002
3003
,
1001
0000
0002
0000
,
1003
0000
2000
0000
,
3001
0000
0020
0000
,
0130
0000
0200
0000
,
0310
0100
0001
0001
,
0010
0100
1000
1000
,
0010
0000
0001
0000
,
0100
0000
1000
0000
,
0020
0000
0000
0000
,
0000
0000
0030
0000
,
0002
0000
0003
0000
,
1000
0000
0001
0000
,
0200
0000
0000
0000
,
0000
0000
0300
0000
,
0002
0000
0003
0000
,
1000
0000
0001
0000
,
0100
0000
0100
0000
,
0010
0000
0010
0000
,
1000
0000
1000
0000
,
0001
0000
0001
0000
,
0100
0010
0100
0000
,
0010
0100
0010
0000
,
1001
0000
1001
0000
,
1000
0100
0001
0100
,
0001
0010
1000
0010
,
0001
0010
1000
0000
,
1000
0100
0001
0100
,
1000
0100
0001
0000
,
0001
0001
1000
0010
,
1000
1000
0001
0010
,
1000
1000
0010
0010
,
0001
0001
0010
0010
,
1000
1000
0100
0010
,
0001
0001
0010
0100
,
1000
0100
0010
0001
,
0001
0010
0100
1000
,
0001
0001
1000
1000
,
0010
0010
0100
0100
,
1000
0001
1000
0001
,
1000
0010
0100
0001
,
0200
0000
0000
0000
,
0320
0000
0000
0000
,
2030
0000
0000
0000
,
0002
0000
0000
0000
,
3003
0000
0000
0000
;

//---------------dance-single - ----------------
#NOTES:
     dance-single:
     :
     Beginner:
     2:
     0.123359,0.163613,0.036358,0.090896,0.000000,95.000000,91.000000,4.000000,10.000000,0.000000,0.000000,0.123359,0.163613,0.036358,0.090896,0.000000,95.000000,91.000000,4.000000,10.000000,0.000000,0.000000:
0000
0000
0000
0000
,
0000
0000
0000
0000
,
0000
0000
0000
0000
,
0000
0000
0000
0000
,
1000
0000
1000
0000
,
0001
0000
0001
0000
,
0010
0000
0010
0000
,
0100
0000
0100
0000
,
0001
0000
0001
0000
,
1000
0000
1000
0000
,
0010
0000
0010
0000
,
0100
0000
0100
0000
,
1000
0000
0001
0000
,
1000
0000
0001
0000
,
0010
0000
0100
0000
,
0010
0000
0100
0000
,
1001
0000
0002
0003
,
0000
0000
2000
3000
,
0000
0000
0020
0030
,
0000
0000
0200
0300
,
0000
0000
0001
0001
,
0000
0000
1000
1000
,
0000
0000
0010
0010
,
0000
0000
0100
0100
,
0100
0000
0000
0000
,
0000
0000
0000
0000
,
0001
0000
0000
0000
,
1000
0000
0000
0000
,
0100
0000
0000
0000
,
0000
0000
0000
0000
,
1000
0000
0000
0000
,
0001
0000
0000
0000
,
2000
0000
3000
0000
,
0002
0000
0003
0000
,
2000
0000
3000
0000
,
0002
0000
0003
0000
,
1000
0000
1000
0000
,
0001
0000
0001
0000
,
1000
0000
0001
0000
,
1000
0000
1001
0000
,
0010
0000
0010
0000
,
0100
0000
0100
0000
,
0001
0000
1000
0000
,
0001
0000
1000
0000
,
0100
0000
0100
0000
,
0010
0000
0010
0000
,
1000
0000
0001
0000
,
1000
0000
0001
0000
,
1000
0000
0100
0000
,
1000
0000
0100
0000
,
0001
0000
0010
0000
,
0001
0000
0010
0000
,
1000
0000
1000
0000
,
0001
0000
0001
0000
,
0010
0000
0100
0000
,
0010
0000
0100
0000
,
1001
0000
0000
0000
,
0010
0000
0000
0000
,
0100
0000
0000
0000
,
2002
0000
0000
0000
,
3003
0000
0000
0000
;

//---------------dance-single - ----------------
#NOTES:
     dance-single:
     :
     Challenge:
     13:
     0.525898,0.736257,0.063627,0.354494,0.499927,405.000000,398.000000,7.000000,39.000000,0.000000,0.000000,0.525898,0.736257,0.063627,0.354494,0.499927,405.000000,398.000000,7.000000,39.000000,0.000000,0.000000:
0000
0000
0000
0000
,
0000
0000
0000
0000
,
0000
0000
0000
0000
,
0000
0000
0000
0000
,
0010
0000
0000
0010
1000
0000
0010
0000
1000
0100
0010
0000
0010
0000
1000
0000
,
0001
0000
0000
0001
0100
0000
0001
0000
1000
0001
0100
0000
0010
0000
0010
0000
,
1000
0000
0000
0010
1000
0000
0010
0000
1000
0100
0010
0000
0001
0000
0001
0000
,
0100
0000
0000
0001
0100
0000
0100
0000
0010
1000
0000
1000
0100
0000
0100
0010
,
0001
0000
1000
0000
0020
0000
0100
0000
0000
0100
0000
0000
0100
0000
0100
0000
,
0100
0000
0000
0100
0000
0000
0130
0000
0001
1000
0001
0000
1000
0100
0010
0000
,
0002
0000
0000
0203
0000
0000
0320
2030
,
3020
0000
2030
0000
0000
0000
0001
0000
0000
0001
0000
0000
3001
0100
0001
0000
,
1000
0000
0100
0000
0020
0000
0001
0000
0000
0001
0000
0000
0001
0000
0001
0000
,
0001
0000
0000
0031
0000
0000
0001
0000
0100
0001
1000
0000
0010
1000
0100
0000
,
0020
0000
0000
0032
0000
0000
0203
0000
,
0310
0000
0100
0000
0010
0000
0100
0000
0010
0100
0010
0100
0010
0100
0010
0100
,
0010
0000
0000
0000
0010
0000
0000
0000
1000
0001
1000
0001
1000
0000
0000
0000
,
0100
0000
0001
0000
0010
0000
1000
0100
,
0001
0000
0000
0000
0010
0000
0000
0000
1000
0100
1000
0100
1000
0000
0000
0000
,
0010
0000
0001
0000
0100
0000
1000
0010
,
0001
0000
0000
0000
0001
0000
0000
0000
1000
0010
1000
0010
1000
0000
0000
0000
,
0100
0000
0100
0000
0100
0000
0100
0010
,
1000
0000
0000
0000
1000
0000
0000
0000
1000
0001
1000
0001
1000
0000
0000
0000
,
2002
3003
0200
0320
,
2030
0000
0000
3200
0000
0000
0320
0000
,
0000
0000
0000
0030
,
2002
0000
3003
0000
,
0220
0330
2200
3300
,
0022
0000
0030
0200
0000
0300
2000
0000
,
0000
0000
3003
0000
,
0020
0000
2030
0000
,
3200
0000
0301
0010
,
1000
0000
0100
0000
0010
0000
0001
0010
0000
0000
0001
0000
0010
0000
0100
1000
,
0000
0000
1000
0000
0100
0000
0010
0001
0000
0000
0001
0000
0010
0000
0100
1000
,
0000
0000
0010
0000
0100
0000
0001
1000
0000
0000
0010
0000
0100
0000
0001
1000
,
0000
0000
0100
0000
0010
0000
1000
0001
0000
0000
0100
0000
0010
0000
1000
0001
,
1000
0000
0001
0000
0010
0000
0100
1000
0000
0000
0001
0000
0010
0000
0100
1000
,
0100
0000
1000
0000
0100
0000
0010
0001
0000
0000
1000
0000
0100
0000
0010
0001
,
0010
0000
0001
0000
0100
0000
0001
1000
0001
0000
0100
0000
0010
0000
1000
0100
,
0010
0010
0001
0001
0200
0000
0320
0000
,
1030
0100
1000
0000
0100
0000
0010
0001
0000
0001
0010
0000
0100
0000
1000
0100
,
0000
0100
0010
0000
0001
0000
0010
0100
0000
0100
1000
0000
0100
0000
0010
0001
,
0000
0001
0100
0000
0010
0000
0100
0001
0000
0001
0010
0000
0001
0000
0100
0010
,
0000
0010
1000
0000
0010
0000
0100
0010
0000
0010
1000
0000
0010
0000
0100
0001
,
0000
0001
1000
0000
0100
0000
1000
0001
0000
0001
0100
0000
0001
0000
1000
0010
,
0000
0010
1000
0000
0001
0000
1000
0010
0000
0010
1000
0000
0001
0000
0100
0010
,
0000
0010
0100
0000
0001
0000
1000
0100
0000
0100
1000
0000
0001
0000
0010
0001
,
0000
0001
0100
0000
0010
0000
0100
0001
0000
0001
0010
0000
0001
0000
1000
0100
,
0010
0100
1000
0000
0001
0000
0100
0010
0100
0010
0100
0000
0001
0000
1000
0001
,
0100
0001
1000
0000
0010
0000
1000
0001
1000
0001
1000
0000
0010
0000
1000
0100
,
0000
0100
0010
0000
0100
0000
1000
0100
0000
0100
0010
0000
0100
0000
1000
0100
,
0000
0100
0010
0000
0001
0000
0010
0100
0000
0100
0010
0000
0001
0000
0010
0100
,
0010
0100
1000
0000
0100
0000
0010
0001
0010
0001
0010
0000
0100
0000
1000
0100
,
1000
0100
0010
0000
0001
0000
0010
0100
0010
0100
1000
0000
0100
0000
0010
0001
,
0010
0001
0010
0000
0100
1000
0100
0000
0010
0001
0100
0000
0010
1000
0100
0000
,
0010
0100
0010
0100
0010
0100
0010
0100
0010
0000
0000
0000
0100
0000
0000
0000
,
2000
0000
0000
0001
0000
0000
0020
0000
,
0000
0000
3030
0000
,
0202
0000
0000
0303
,
2020
0000
0000
0000
,
3030
0000
0000
0000
;

//---------------dance-double - ----------------
#NOTES:
     dance-double:
     :
     Challenge:
     13:
     0.451882,0.627182,0.036358,0.227240,0.231784,348.000000,344.000000,4.000000,25.000000,0.000000,0.000000,0.451882,0.627182,0.036358,0.227240,0.231784,348.000000,344.000000,4.000000,25.000000,0.000000,0.000000:
00000000
00000000
00000000
00000000
,
00000000
00000000
00000000
00000000
,
00000000
00000000
00000000
00000000
,
00000000
00000000
00000000
00000000
,
00100000
00000000
00000000
00100000
10000000
00000000
00010000
00000000
10000000
00000000
01000000
00000000
00010000
00000000
00001000
00000000
,
00010000
00000000
00000000
00010000
00000010
00000000
00001000
00000000
00000010
00000000
00001000
00000000
00000100
00000000
00000010
00000000
,
00000001
00000000
00000000
00000001
00000100
00000000
00000001
00000000
00000100
00000000
00001000
00000000
00010000
00000000
00001000
00000000
,
00100000
00000000
00000000
00100000
00010000
00000000
01000000
00000000
00100000
00000000
10000000
01000000
00000000
00000000
00100000
00000000
,
00001000
00010000
00002000
00000000
00100000
00000000
00010000
00000000
,
00100000
00100000
00103000
00000000
00100000
00001000
00010000
00000100
,
00002000
00000000
00000000
00003020
00000000
00000000
00000130
00000001
,
00001000
00000002
00000000
00000100
00000000
00000100
00000103
00000000
,
00000001
00000100
00001000
00010000
01000000
00000000
10000000
00100000
,
10000000
01000000
00010000
00001000
00000100
00000000
00000001
00000100
,
00002000
00000000
00000000
00003200
00000000
00000000
00020300
00000000
,
00031000
00010000
00001000
00010000
00001000
00100000
00010000
01000000
,
00100000
00000000
00000000
00000000
00100000
00000000
00000000
00000000
10000000
01000000
00100000
00010000
00000000
00000000
00000000
00000000
,
00001000
00010000
00000010
00000100
00000001
00000100
00001000
00010000
,
01000000
00000000
00000000
00000000
00100000
00000000
00000000
00000000
10000000
01000000
00100000
00010000
00000000
00000000
00000000
00000000
,
10000000
01000000
00100000
00001000
00010000
00000010
00001000
00000100
,
00000010
00000000
00000000
00000000
00000010
00000000
00000000
00000000
00000001
00000010
00000100
00001000
00000000
00000000
00000000
00000000
,
00000010
00000100
00000001
00000100
00001000
00010000
00100000
10000000
,
01000000
00000000
00000000
00000000
01000000
00000000
00000000
00000000
10000000
01000000
00100000
00010000
00000000
00000000
00000000
00000000
,
00100000
00001000
00020000
00032000
,
00003200
00000000
00000000
00000320
00000000
00000000
00000032
00000000
,
00000000
00000000
00000003
00000000
,
00002000
00000000
00003000
00000000
,
00020000
00000000
00030000
00000000
,
20000000
00000000
00000000
32000000
00000000
00000000
03020000
00000000
,
00000000
00000000
00030000
00000000
,
00002000
00000000
00003000
00000000
,
00000020
00000000
00000032
00000003
,
00000010
00000001
00000100
00000000
00001000
00000100
00010000
00000000
,
00001000
00100000
00010000
00000000
10000000
00100000
01000000
00000000
,
00001000
00010000
00000010
00000000
00001000
00000100
00000010
00000000
,
00000001
00000010
00000100
00000000
00010000
00001000
01000000
00000000
,
00010000
00100000
01000000
10000000
01000000
00100000
00010000
00000000
,
00000010
00001000
00000100
00000001
00000100
00001000
00000010
00000000
,
00000001
00000100
00001000
00000000
00010000
01000000
10000000
00000000
,
11000000
00110000
01100000
10010000
,
10000000
00000000
01000000
00000000
00100000
00000000
00001000
00010000
00000000
00010000
00001000
00000000
00010000
00000000
00000100
00001000
,
00000000
00001000
00000010
00000000
00000100
00000000
00000001
00000010
00000000
00000010
00000100
00000000
00001000
00000000
00000100
00000000
,
00010000
00000000
00001000
00000000
01000000
00000000
00010000
00100000
00000000
00100000
01000000
00000000
10000000
00000000
01000000
00100000
,
00000000
00100000
00010000
00000000
10000000
00000000
01000000
00010000
00000000
00010000
00100000
00000000
00001000
00000000
00010000
00000000
,
00000010
00000000
00001000
00000000
00000001
00000000
00000100
00000010
00000000
00000010
00001000
00000000
00000100
00000000
00000010
00000001
,
00000000
00000001
00000100
00000000
00000010
00000000
00001000
00000100
00000000
00000100
00010000
00000000
00001000
00000000
00100000
00000000
,
00010000
00000000
01000000
00000000
00100000
00000000
10000000
01000000
00000000
01000000
00100000
00000000
00010000
00000000
01000000
00000000
,
00100000
10000000
01000000
00010000
00001000
00000100
00000001
00000100
,
00000010
00001000
00000010
00000000
00001000
00000000
00000100
00000010
00000000
00000010
00000001
00000000
00000100
00000000
00001000
00000000
,
00010000
00000000
01000000
00000000
10000000
00000000
00100000
10000000
00000000
10000000
00100000
00000000
10000000
00000000
01000000
00000000
,
00010000
00000000
00001000
00000000
00010000
00000000
00000100
00001000
00000000
00001000
00000010
00000000
00000100
00000000
00000001
00000000
,
00000100
00000000
00001000
00000000
00010000
00000000
00001000
00100000
00000000
00100000
00010000
00000000
10000000
00000000
01000000
00000000
,
00100000
00000000
01000000
00000000
10000000
00000000
00010000
00100000
00010000
00000000
00100000
00000000
00001000
00000000
00010000
00000100
,
00010000
00000000
00000100
00000000
00001000
00000000
00000010
00000100
00000010
00000000
00000100
00000000
00000001
00000000
00000010
00000000
,
00000100
00001000
00000100
00000000
00000010
00000000
00000001
00000000
00001000
00000100
00001000
00000000
00000100
00000000
00010000
00000000
,
00001000
00010000
00001000
00010000
00001000
00010000
00001000
00010000
00001000
00000000
00000000
00000000
01000000
00000000
00000000
00000000
,
20000000
00000000
00000000
32000000
00000000
00000000
03020000
00000000
,
00000000
00000000
00000000
00000000
,
00032000
00000000
00000000
00000000
,
00000002
00000000
00000000
00000000
,
00003003
00000000
00000000
00000000
;

//---------------dance-double - ----------------
#NOTES:
     dance-double:
     :
     Hard:
     10:
     0.323330,0.463569,0.009090,0.281777,0.059082,249.000000,248.000000,1.000000,31.000000,0.000000,0.000000,0.323330,0.463569,0.009090,0.281777,0.059082,249.000000,248.000000,1.000000,31.000000,0.000000,0.000000:
00000000
00000000
00000000
00000000
,
00000000
00000000
00000000
00000000
,
00000000
00000000
00000000
00000000
,
00000000
00000000
00000000
00000000
,
00100000
00000000
00000000
00100000
00000000
00000000
10000000
00000000
01000000
00000000
00010000
00000000
00001000
00000000
00000000
00000000
,
00010000
00000000
00000000
00010000
00000000
00000000
00000010
00000000
00001000
00000000
00000100
00000000
00000010
00000000
00000000
00000000
,
00000001
00000000
00000000
00000001
00000000
00000000
00000100
00000000
00001000
00000000
00010000
00000000
01000000
00000000
00000000
00000000
,
00100000
00000000
00000000
00100000
00000000
00000000
10000000
00000000
01000000
00000000
00000000
00100000
00000000
00000000
00001000
00000000
,
00010000
00001000
00020000
00000000
00000100
00000000
00000100
00000000
,
00001000
00000000
00001000
00000000
00000100
00000000
00030100
00000100
,
00002000
00000000
00000000
00003020
00000000
00000000
00000130
00000001
,
00001000
00000002
00000000
00000100
00000000
00000100
00000103
00000000
,
00000001
00000100
00000002
00000000
00001000
00000000
00001003
00000000
,
00000100
00010000
00001000
00000000
00010000
00001000
01000000
00000000
,
00020000
00000000
00000000
20030000
00000000
00000000
30200000
00000000
,
01300000
00010000
01000000
00000000
00100000
00000000
00010000
01000000
,
00100000
00000000
00000000
00000000
00100000
00000000
00000000
00000000
00100000
01000000
00100000
01000000
00000000
00000000
00000000
00000000
,
00001000
00010000
00000010
00001000
,
00000100
00000000
00000000
00000000
00010000
00000000
00000000
00000000
00001000
00010000
00001000
00010000
00000000
00000000
00000000
00000000
,
00001000
00000000
00100000
00000000
00010000
00000000
01000000
01000000
,
01000000
00000000
00000000
00000000
10000000
00000000
00000000
00000000
00010000
01000000
00010000
01000000
00000000
00000000
00000000
00000000
,
00001000
00010000
00000100
00000000
00010000
00001000
00100000
00000000
,
00010000
00000000
00000000
00000000
01000000
00000000
00000000
00000000
10000000
01000000
10000000
01000000
00000000
00000000
00000000
00000000
,
10000000
01000000
00020000
00032000
,
00003200
00000000
00000000
00000320
00000000
00000000
00000032
00000000
,
00000000
00000000
00000003
00000000
,
00002000
00000000
00003000
00000000
,
00020000
00000000
00030000
00000000
,
20000000
00000000
00000000
32000000
00000000
00000000
03020000
00000000
,
00000000
00000000
00030000
00000000
,
00002000
00000000
00003000
00000000
,
00020000
00000000
00030000
00000000
,
00001000
00000000
00000000
00010000
00000000
00000000
00000100
00000000
,
00001000
00000100
00000010
00000000
00000001
00000000
00000100
00000000
,
00010000
01000000
10000000
00100000
,
10000000
01000000
00010000
00001000
,
00000100
00000000
00000000
00000001
00000000
00000000
00000010
00000000
,
00000001
00000100
00001000
00010000
,
00002000
00000000
00000000
00000000
,
00020000
00033000
00002000
00203000
,
00310000
01000000
10000000
00000000
10000000
01000000
00010000
00000000
,
00001000
00000100
00000001
00000000
00000001
00000100
00001000
00000000
,
00010000
01000000
10000000
00000000
10000000
00100000
00010000
00000000
,
00001000
00000010
00000001
00000000
00000001
00000100
00001000
00000000
,
00000002
00000000
00000000
00002003
00000000
00000000
00003010
00000000
,
00000010
00001000
00000100
00000000
00000100
00010000
00001000
00000000
,
00100000
00010000
01000000
00000000
00100000
10000000
01000000
00000000
,
00100000
00100000
00100000
00000000
00001000
00010000
00011000
00000000
,
00010000
00000100
00010000
00000100
00001000
00000100
00000010
00000001
,
00000100
00000010
00000100
00000010
00001000
00000100
00010000
00001000
,
01000000
00010000
01000000
00010000
10000000
01000000
00100000
00010000
,
01000000
00010000
01000000
00010000
00100000
00001000
00010000
00000010
,
00001000
00000100
00001000
00000100
00000010
00000001
00000100
00000000
,
00001000
00000000
00010000
00000000
01000000
10000000
00100000
00000000
,
00010000
00000000
00001000
00000000
00010000
00001000
01000000
00000000
,
00010000
01000000
10000000
00000000
01000000
00010000
01000000
00000000
,
20000000
00000000
00000000
32000000
00000000
00000000
03020000
00000000
,
00000000
00000000
00000000
00000000
,
00032000
00000000
00000000
00000000
,
00000002
00000000
00000000
00000000
,
00003003
00000000
00000000
00000000
;

//---------------dance-double - ----------------
#NOTES:
     dance-double:
     :
     Medium:
     8:
     0.284374,0.381763,0.127254,0.163613,0.000000,219.000000,205.000000,14.000000,18.000000,0.000000,0.000000,0.284374,0.381763,0.127254,0.163613,0.000000,219.000000,205.000000,14.000000,18.000000,0.000000,0.000000:
00000000
00000000
00000000
00000000
,
00000000
00000000
00000000
00000000
,
00000000
00000000
00000000
00000000
,
00000000
00000000
00000000
00000000
,
00001000
00000000
00010000
00000000
00001000
00001000
00001000
00000000
,
00100000
00010000
01000000
00000000
01000000
00000000
10010000
00000000
,
00100000
00000000
10000000
00000000
00010000
00010000
00010000
00000000
,
00100000
00001000
00010000
00000000
00001000
00000000
00011000
00000000
,
00010000
00000200
00001000
00001000
,
00000010
00000010
00001000
00001300
,
00000001
00000100
00001000
00000000
00010000
00000000
01000000
00000000
,
10000000
01000000
00010000
00000000
00001000
00000000
00000100
00000000
,
00000001
00001000
00000002
00000000
00000010
00000000
00000010
00000000
,
00000100
00000100
00001000
00001003
,
00000010
00001000
00000100
00000000
00010000
00000000
00010000
00000000
,
00001000
00100000
00010000
00000000
01000000
00000000
01000000
00000000
,
10010000
00000000
00200000
00300000
,
10000000
01000000
00010000
00001000
,
00000100
00000000
00002002
00003003
,
00000001
00000100
00001000
00010000
,
01000000
00000000
20020000
30030000
,
10000000
00100000
00010000
00001000
,
00000010
00000000
00002002
00003003
,
00000010
00001000
00010000
00001000
,
00020000
00000000
00000000
00001000
00000000
00000000
00031000
00000000
,
00000000
00000000
00000000
00000000
,
02000000
00000000
00000000
03000000
,
00000200
00000000
00000000
00000300
,
00020000
00000000
00000000
00001000
00000000
00000000
00002000
00000000
,
00000000
00000000
00000000
00033000
,
00200000
00000000
00000000
00300000
,
00000020
00000000
00000000
00000030
,
00010000
00000100
00000000
00000100
,
00001000
00000001
00000000
00000001
,
00001000
00000100
00000000
00000100
,
00010000
00001000
00000000
00001000
,
01000000
00010000
00000000
00010000
,
10000000
00100000
00000000
00100000
,
10000000
01000000
00010000
00001000
,
00000100
00000001
00001000
00000001
,
00000100
00000000
00001001
00000000
00000001
00000010
00000001
00000000
,
00000100
00000000
00001001
00000000
00001000
00000010
00001000
00000000
,
00000100
00000000
00010000
00000000
00001000
00010000
00001000
00000000
,
00010000
00000000
00001000
00000000
01000000
00010000
01000000
00000000
,
00010000
01000000
00100000
00000000
10000000
01000000
00100000
00000000
,
00010000
00000000
00010000
00000000
00100000
00001000
00010000
00000000
,
00000100
00000000
00000100
00000000
00001000
00000100
00000010
00000000
,
00000010
00000001
00000100
00000000
00000100
00000001
00001000
00000000
,
00000100
00010000
00001000
00000000
00010000
00000000
00011000
00000000
,
00001000
00100000
00010000
00000000
00010000
00000000
10010000
00000000
,
10000000
01000000
00100000
00000000
00100000
00000000
00101000
00000000
,
00001000
00010000
00000100
00000000
00000100
00000000
00001100
00000000
,
00000010
00000001
00000100
00000000
00000100
00000000
00010100
00000000
,
00010000
00001000
01000000
00000000
00100000
00000000
10100000
00000000
,
10000000
01000000
00100000
00000000
00001000
00010000
00000100
00000000
,
00001000
00000100
00000010
00000000
00000001
00000000
00000100
00000000
,
00010000
00000000
00000000
01000000
00000000
00000000
10000000
00000000
,
00000000
00000000
00000000
00000000
,
00020000
00000000
00000000
00000000
,
00002000
00000000
00000000
00000000
,
00033000
00000000
00000000
00000000
;

//---------------dance-double - ----------------
#NOTES:
     dance-double:
     :
     Easy:
     5:
     0.196075,0.272688,0.018179,0.236329,0.000000,151.000000,149.000000,2.000000,26.000000,0.000000,0.000000,0.196075,0.272688,0.018179,0.236329,0.000000,151.000000,149.000000,2.000000,26.000000,0.000000,0.000000:
// measure 0
00000000
00000000
00000000
00000000
,  // measure 1
00000000
00000000
00000000
00000000
,  // measure 2
00000000
00000000
00000000
00000000
,  // measure 3
00000000
00000000
00000000
00000000
,  // measure 4
10000000
01000000
10000000
00010000
,  // measure 5
00010000
01000000
00010000
10000000
,  // measure 6
01000000
10000000
00100000
10000000
,  // measure 7
01000000
00010000
00100000
00001000
,  // measure 8
00010000
00001000
00010000
00000100
,  // measure 9
00001000
00000100
00000001
00001000
,  // measure 10
00000100
00000100
00000001
00000010
,  // measure 11
00000100
00010000
00001000
01000000
,  // measure 12
00100000
01000000
00010000
00000000
,  // measure 13
00010000
01000000
10000000
00000000
,  // measure 14
00100000
10000000
01000000
00010000
,  // measure 15
00001000
00000010
00002002
00003003
,  // measure 16
00001001
00000000
00002000
00000000
,  // measure 17
00003001
00000000
00000002
00000000
,  // measure 18
00001003
00000000
00000200
00000000
,  // measure 19
00010300
00000000
00002000
00000000
,  // measure 20
01003000
01000000
00010000
00010000
,  // measure 21
00100000
01000000
10000000
10000000
,  // measure 22
00100000
00000000
00010000
00000000
,  // measure 23
01000000
00000000
00001000
00000000
,  // measure 24
00020000
00000000
00000000
00000000
,  // measure 25
00000000
00000000
00000000
00000000
,  // measure 26
00032000
00000000
00000000
00000000
,  // measure 27
00023000
00000000
00030000
00000000
,  // measure 28
00000200
00000000
00000000
00000000
,  // measure 29
00020300
00000000
00000000
00000000
,  // measure 30
00230000
00000000
00000000
00000000
,  // measure 31
02300000
00000000
03000000
00000000
,  // measure 32
00200000
00000000
00000000
00000000
,  // measure 33
20300000
00000000
00000000
00000000
,  // measure 34
32000000
00000000
00000000
00000000
,  // measure 35
03020000
00000000
00000000
00000000
,  // measure 36
00032000
00000000
00000000
00000000
,  // measure 37
00003020
00000000
00000000
00000000
,  // measure 38
00000032
00000000
00000000
00000000
,  // measure 39
00000203
00000000
00020300
00000000
,  // measure 40
00031000
00100000
10000000
00100000
,  // measure 41
00001000
00100000
10000000
00100000
,  // measure 42
00010000
00001000
00000100
00001000
,  // measure 43
00010000
00001000
00000100
00001000
,  // measure 44
00000001
00000010
00000100
00001000
,  // measure 45
00000001
00000010
00000100
00001000
,  // measure 46
00010000
00001000
00000010
00001000
,  // measure 47
00010000
00100000
00010000
00001000
,  // measure 48
01000000
00010000
10000000
00100000
,  // measure 49
01000000
00010000
10000000
00100000
,  // measure 50
01000000
00010000
00001000
00010000
,  // measure 51
01000000
00010000
00001000
00010000
,  // measure 52
00001000
00000100
00001000
00010000
,  // measure 53
00100000
00010000
00001000
00010000
,  // measure 54
01000000
00010000
10000000
00100000
,  // measure 55
01000000
00010000
00001000
00010000
,  // measure 56
02000000
00000000
00000000
00000000
,  // measure 57
03200000
00000000
00000000
00000000
,  // measure 58
20300000
00000000
00000000
00000000
,  // measure 59
00020000
00000000
00000000
00000000
,  // measure 60
30030000
00000000
00000000
00000000
;
