#TITLE:STRIKE BACK;
#SUBTITLE:;
#ARTIST:BACK-ON;
#TITLETRANSLIT:;
#SUBTITLETRANSLIT:;
#ARTISTTRANSLIT:;
#GENRE:;
#CREDIT:;
#BANNER:STRIKE BACK.png;
#BACKGROUND:STRIKE BACK-bg.png;
#LYRICSPATH:;
#CDTITLE:;
#MUSIC:STRIKE BACK.ogg;
#OFFSET:-0.020000;
#SAMPLESTART:61.436668;
#SAMPLELENGTH:13.472221;
#SELECTABLE:YES;
#BPMS:0.000000=180.000000
;
#STOPS:
;
#BGCHANGES:0.000=STRIKE BACK.avi=1.000=0=0=0=StretchNoLoop====,
99999=-nosongbg-=1.000=0=0=0 // don't automatically add -songbackground-
;
#KEYSOUNDS:;
#ATTACKS:;

//---------------dance-single - ----------------
#NOTES:
     dance-single:
     :
     Hard:
     11:
     0.575993,0.612811,0.700741,0.064684,0.000000,374.000000,309.000000,65.000000,6.000000,0.000000,0.000000,0.575993,0.612811,0.700741,0.064684,0.000000,374.000000,309.000000,65.000000,6.000000,0.000000,0.000000:
0000
0000
0000
0000
,
0000
0000
0000
0000
,
0000
0000
0000
0000
,
0000
0000
0000
0000
,
0000
0000
0000
0000
,
0000
0000
0000
0000
,
0000
0000
0000
0000
,
0000
0000
0000
0000
,
0000
0000
0000
0000
,
0101
0000
0001
1000
0000
0001
1000
0000
,
0001
1000
0000
0010
0100
0000
1001
0000
,
1100
0000
0100
1000
0000
0100
1000
0000
,
0010
0100
0000
0010
0100
0000
1001
0000
,
0101
0000
0010
0100
0000
0010
0100
0000
,
0001
1000
0000
0001
1000
0000
0110
0000
,
1001
0000
0010
0100
0000
0001
1000
0000
,
0010
0100
0000
0001
1000
0000
0100
1000
,
0010
0000
0100
0001
0010
0000
0001
1000
,
0100
0000
1000
0001
0000
1001
0000
0001
,
0100
0000
0010
1000
0100
0000
0010
0001
,
0100
0000
0010
1000
0000
1000
0001
0000
,
0110
1100
0101
0010
,
1001
0000
0100
1000
0001
0000
0101
0000
,
1100
0000
0001
0010
0100
0000
1010
0000
,
0011
0000
1000
0100
0010
0000
0100
0001
,
0100
0000
0001
0100
0001
0000
1000
0001
,
1000
0000
0010
1000
0100
1000
0010
1000
,
0001
0000
0100
0001
0010
0000
0001
0100
,
0010
0000
1000
0001
1000
0100
1000
0010
,
0100
0101
1100
0101
,
1001
0000
0010
1000
0001
1000
0010
0100
,
0010
0000
1000
0100
1000
0000
0101
0000
,
1100
0000
0001
0010
0001
0000
0100
0001
,
1000
0000
0001
0100
0001
0000
1000
0100
,
1000
0001
0100
0001
0100
0010
0100
0000
,
0000
0001
0100
0001
1000
0100
1000
0001
,
0010
0001
1000
0010
1000
0010
0100
0000
,
0001
1000
0001
1000
0010
0000
0101
0000
,
0000
1000
0010
0100
0001
0000
1001
0000
,
0011
0000
1100
0000
0000
0001
0100
0001
,
1000
0100
1000
0010
1000
0001
0100
0000
,
1010
0011
0000
0000
,
0110
1001
0000
0000
,
0011
0000
1100
0000
0001
0100
0000
0001
,
0000
1000
0001
0000
1100
0000
0101
0000
,
1001
0000
0001
1000
0010
1000
0001
0100
,
0000
0020
0000
0000
1000
0000
0130
0000
,
1001
0000
1000
0100
0000
0011
0000
1100
,
0000
0001
0100
0000
0101
0000
1100
0000
,
0110
0000
1000
0001
0000
1100
0000
0101
,
0000
1000
0010
0000
0101
0000
1100
0000
,
0001
0100
0001
0100
0010
1000
0100
1000
,
0010
0100
0001
0100
0001
1000
0100
0010
,
0001
0100
0010
0100
0001
1000
0001
1000
,
0000
0101
0000
0000
1100
0000
0101
0000
,
1001
0000
0010
0100
0000
0110
0000
1001
,
0000
0001
0010
0000
1100
0000
0101
0000
,
1100
0000
0010
0100
0000
1001
0000
1100
,
0000
0001
0010
0000
0110
0000
1001
0000
,
1100
0000
0001
0010
0001
0100
0010
0000
,
1100
0000
0001
0100
0010
1000
0010
0000
,
1100
0000
0001
0100
0002
0000
0103
0000
,
2020
3030
0202
0303
,
1001
0000
0010
1000
0000
0010
1000
0000
,
0001
0100
0000
0001
0100
0100
0100
0000
,
1001
0000
1000
0100
0000
1000
0010
0000
,
1000
0100
0000
0001
1000
0100
1000
0001
;

//---------------dance-double - ----------------
#NOTES:
     dance-double:
     :
     Hard:
     12:
     0.529791,0.576763,0.582154,0.161709,0.005390,344.000000,290.000000,54.000000,15.000000,0.000000,0.000000,0.529791,0.576763,0.582154,0.161709,0.005390,344.000000,290.000000,54.000000,15.000000,0.000000,0.000000:
// measure 0
00000000
00000000
00000000
00000000
,  // measure 1
00000000
00000000
00000000
00000000
,  // measure 2
00000000
00000000
00000000
00000000
,  // measure 3
00000000
00000000
00000000
00000000
,  // measure 4
00000000
00000000
00000000
00000000
,  // measure 5
00000000
00000000
00000000
00000000
,  // measure 6
00000000
00000000
00000000
00000000
,  // measure 7
00000000
00000000
00000000
00000000
,  // measure 8
00000000
00000000
00000000
00000000
,  // measure 9
10010000
00000000
10000000
00100000
00000000
01000000
00010000
00000000
,  // measure 10
00001000
00010000
00000000
00000010
00001000
00000000
00001010
00000000
,  // measure 11
00000101
00000000
00000001
00001000
00000000
00000100
00010000
00000000
,  // measure 12
00001000
01000000
00000000
00100000
10000000
00000000
10010000
00000000
,  // measure 13
01010000
00000000
00100000
00001000
00000000
00010000
00000010
00000000
,  // measure 14
00001000
00000001
00000000
00001000
00000100
00000000
00011000
00000000
,  // measure 15
10010000
00000000
10000000
00100000
00000000
01000000
00001000
00000000
,  // measure 16
00010000
00000010
00000000
00001000
00000001
00000000
00001000
00000010
,  // measure 17
00000100
00000000
00000001
00001000
00000100
00000000
00010000
00001000
,  // measure 18
01000000
00000000
00010000
10000000
00100000
10000000
00000000
00010000
,  // measure 19
01000000
00000000
00001000
00010000
00000100
00000000
00001000
00000010
,  // measure 20
00000100
00000000
00000001
00000100
00000000
00000001
00001000
00000000
,  // measure 21
00001100
00000000
00101000
00011000
,  // measure 22
00101000
00000000
00100000
00010000
01000000
00010000
00100000
00010000
,  // measure 23
01000000
00000000
00100000
10000000
01000000
00000000
11000000
00000000
,  // measure 24
01010000
00000000
01000000
00100000
10000000
00000000
00010000
10000000
,  // measure 25
01000000
00000000
10000000
00010000
01000000
00000000
00010000
00100000
,  // measure 26
00010000
00000000
00100000
00001000
00010000
00001000
00100000
00001000
,  // measure 27
00010000
00000000
00000100
00001000
00000010
00000000
00001000
00000001
,  // measure 28
00000100
00000000
00000010
00001000
00000100
00001000
00000010
00000000
,  // measure 29
00001100
00000000
00001010
00001100
,  // measure 30
00001010
00000000
00001000
00000100
00010000
00000000
00001000
01000000
,  // measure 31
00020000
00000000
10030000
00100000
01000000
00000000
01100000
00000000
,  // measure 32
10010000
00000000
10000000
00010000
00200000
00000000
00301000
00000000
,  // measure 33
00010000
00000100
00010000
00000000
00000100
00000000
00001000
00000010
,  // measure 34
00000100
00000010
00001000
00000100
00000010
00000001
00000100
00000000
,  // measure 35
00000000
00000000
00000010
00000000
00001000
00000000
00000100
00000000
00001000
00000000
00000100
00000000
00000000
00010000
00000000
00000000
,  // measure 36
00001000
01000000
00001000
00010000
00000000
00000000
00001000
00000000
,  // measure 37
01000000
00010000
01000000
00000000
01010000
00000000
11000000
00000000
,  // measure 38
00000000
00100000
10000000
00100000
01000000
00000000
10010000
00000000
,  // measure 39
00011000
00000000
00001001
00000000
00000000
00000010
00001000
00000100
,  // measure 40
00001000
00000001
00000100
00000010
00001000
00000100
00001000
00000000
,  // measure 41
00001001
00011000
00000000
00000000
,  // measure 42
10010000
00011000
00000000
00000000
,  // measure 43
00001010
00000000
00000101
00000000
00001000
00000100
00000000
00000100
,  // measure 44
00000000
00000100
00010000
00000000
00011000
00000000
10010000
00000000
,  // measure 45
00100000
00000000
10000000
00000000
00100000
10000000
00100000
10000000
,  // measure 46
00000000
00020000
00000000
00000000
00130000
00000000
00110000
00000000
,  // measure 47
00101000
00000000
00010000
00000100
00000000
00001100
00000000
00001001
,  // measure 48
00000000
00000010
00001000
00000000
00001100
00000000
00110000
00000000
,  // measure 49
11000000
00000000
00100000
01000000
00000000
10010000
00000000
01010000
,  // measure 50
00000000
00100000
00001000
00000000
00022000
00000000
00033000
00000000
,  // measure 51
00000200
00000000
00001300
00000000
00001000
00000010
00000100
00000000
,  // measure 52
00000002
00000000
00000103
00000000
00000010
00001000
00000100
00000000
,  // measure 53
00020000
00000000
00031000
00000000
00100000
00010000
01000000
00000000
,  // measure 54
00100000
20000000
00000000
00000000
30010000
00000000
10010000
00000000
,  // measure 55
01100000
00000000
10000000
01000000
00000000
00110000
00000000
01010000
,  // measure 56
00000000
01000000
00001000
00000000
00011000
00000000
00010100
00000000
,  // measure 57
00010010
00000000
00000010
00001000
00000000
00001001
00000000
00001100
,  // measure 58
00000000
00000010
00001000
00000000
00000200
00000000
00010000
00000000
,  // measure 59
00001300
00000000
00010000
00001000
00100000
00000000
00010000
00000000
,  // measure 60
10000000
00000000
00010000
10000000
01000000
00000000
00100000
00000000
,  // measure 61
00001000
00010000
00000200
00001300
,  // measure 62
00002020
00003030
00000202
00000303
,  // measure 63
00001001
00000000
00000100
00010000
00000000
00001000
01000000
00000000
,  // measure 64
00100000
10000000
00000000
01000000
10000000
10000000
10000000
00000000
,  // measure 65
00100000
00000000
01000000
00001000
00000000
00010000
00000100
00000000
,  // measure 66
00001000
00000001
00000000
00000100
00000010
00001000
00000001
00000100
;

//---------------dance-single - ----------------
#NOTES:
     dance-single:
     :
     Easy:
     7:
     0.323419,0.431764,0.495909,0.215613,0.000000,210.000000,164.000000,46.000000,20.000000,0.000000,0.000000,0.323419,0.431764,0.495909,0.215613,0.000000,210.000000,164.000000,46.000000,20.000000,0.000000,0.000000:
0000
0000
0000
0000
,
0000
0000
0000
0000
,
0000
0000
0000
0000
,
0000
0000
0000
0000
,
0000
0000
0000
0000
,
0000
0000
0000
0000
,
0000
0000
0000
0000
,
0000
0000
0000
0000
,
0000
0000
0000
0000
,
0010
0000
0000
1001
0000
0000
0100
0000
,
0000
1001
0000
0000
0100
0000
0010
0000
,
1000
0000
0000
1001
0000
0000
0001
0000
,
0000
1001
0000
0000
0100
0000
0010
0000
,
1000
0000
0000
1001
0000
0000
0001
0000
,
0000
1001
0000
0000
1000
0000
0010
0000
,
0100
0000
0000
0110
0000
0000
0010
0000
,
0000
0110
0000
0000
0001
0000
1000
0000
,
0002
0003
2000
3000
,
0001
0010
0100
1000
,
0002
0003
2000
3000
,
1000
0100
0010
0001
,
1000
0000
0010
1000
,
0010
1000
0100
0010
,
0002
0003
1001
1001
,
1001
0000
0110
0000
,
0001
0100
0001
0000
0100
0000
0000
0000
,
1000
0010
0100
0000
,
1000
0010
1000
0000
0100
0000
0000
0000
,
0001
0100
0010
0000
,
1000
0001
1000
0001
,
0100
0010
0100
0010
,
2000
3000
0002
0003
,
0100
0100
0100
0000
,
0110
0110
0000
0000
,
1001
1001
0000
0000
,
1010
1010
0000
0000
,
0020
0030
0200
0300
,
0101
0101
0000
0000
,
1100
1100
0000
0000
,
1001
1001
0000
0000
,
0020
0030
0200
0300
,
1001
1001
0000
0000
,
0110
0110
0000
0000
,
1001
0110
0000
0000
,
0002
0003
2000
3000
,
0001
0100
0010
1000
,
0000
1001
0000
0000
0100
0000
0010
0000
,
1001
0000
1000
0001
0000
0001
0000
1001
,
0000
0000
0010
0100
,
1001
0000
0001
1000
0000
1000
0000
1001
,
0000
0000
0020
0030
,
0200
0001
0000
0001
,
0000
0001
0000
0301
,
1000
1001
0000
1001
,
0000
0020
0000
0000
1000
0000
1030
0000
,
1001
0000
1000
0001
0000
0001
0000
1001
,
0000
0000
0010
0100
,
1001
0000
0001
1000
0000
1000
0000
1001
,
0000
0000
0200
0300
,
0020
1000
0000
1000
,
0000
1000
0000
1030
,
0001
0000
1000
0000
,
0020
0000
0200
0330
,
0010
0000
0000
0110
0000
0000
0100
0000
,
0000
0110
0000
0000
0001
0000
0100
0000
,
1000
0000
0000
1001
0000
0000
0001
0000
,
0000
1001
0000
0000
1000
0000
1001
0000
;

//---------------dance-single - ----------------
#NOTES:
     dance-single:
     :
     Medium:
     9:
     0.434305,0.503725,1.056501,0.086245,0.000000,282.000000,184.000000,98.000000,8.000000,0.000000,0.000000,0.434305,0.503725,1.056501,0.086245,0.000000,282.000000,184.000000,98.000000,8.000000,0.000000,0.000000:
0000
0000
0000
0000
,
0000
0000
0000
0000
,
0000
0000
0000
0000
,
0000
0000
0000
0000
,
0000
0000
0000
0000
,
0000
0000
0000
0000
,
0000
0000
0000
0000
,
0000
0000
0000
0000
,
0000
0000
0000
0000
,
0101
0000
0000
1001
0000
0000
1001
0000
,
0000
1001
0000
0000
0110
0000
1001
0000
,
1100
0000
0000
1100
0000
0000
1100
0000
,
0000
0110
0000
0000
0110
0000
1001
0000
,
0101
0000
0000
0110
0000
0000
0110
0000
,
0000
1001
0000
0000
1001
0000
0110
0000
,
1001
0000
0000
0110
0000
0000
1001
0000
,
0000
0110
0000
0000
1001
0000
0000
0010
,
1000
0000
0000
0001
1000
0000
0000
0001
,
1000
0001
1000
1001
,
0101
0000
0000
0010
1000
0000
0000
0001
,
0100
0010
1000
1001
,
0110
0000
0001
0010
,
1000
0000
0001
1000
0001
0000
0101
0000
,
1100
0000
0110
1010
,
0011
0000
0110
0000
,
0100
0001
0100
0000
0001
0100
0001
0000
,
0001
0010
0100
1000
,
0100
1000
0100
0000
1000
0100
1000
0000
,
0100
0010
0001
1000
,
0010
0000
1100
0101
,
1001
0010
0001
0100
,
1000
0000
1100
0101
,
1100
0000
1001
0000
,
1001
0001
0101
0000
,
1100
0100
0101
0000
,
0101
0001
1001
0000
,
0011
0000
1010
0000
,
1001
1001
1010
0000
,
1010
1010
1001
0000
,
1001
1001
0101
0000
,
1001
0000
1010
0000
,
0110
1001
0000
0000
,
0110
1001
0000
0000
,
0110
0000
1001
0000
0010
0000
0000
0001
,
0000
1001
0000
1001
,
0020
0000
0230
0000
,
0300
0020
0000
0000
0100
0000
0100
0000
,
0130
0000
0000
1000
0000
0101
0000
1001
,
0000
0101
0101
1100
,
1100
0000
0000
0001
0000
0100
0000
1001
,
0000
0000
0101
0000
,
1001
0001
0010
0100
,
1000
0100
0010
0001
,
0000
0100
0001
1000
,
0000
1001
0000
0000
0100
0000
0100
0000
,
1001
0000
0000
0010
0000
0100
0000
0010
,
0000
1100
1100
0101
,
0101
0000
0000
0010
0000
0100
0000
1001
,
0000
0000
0110
0000
,
1001
0010
0100
1000
,
0010
1000
0100
1000
,
0010
0000
0002
0103
,
2020
3030
0202
0303
,
1001
0000
0000
1010
0000
0000
1010
0000
,
0000
0101
0000
0000
0101
0000
0000
0000
,
1001
0000
0000
1100
0000
0000
1010
0000
,
0000
0110
0000
0000
1001
0000
1100
0000
;

//---------------dance-single - ----------------
#NOTES:
     dance-single:
     :
     Beginner:
     3:
     0.132448,0.179228,0.010781,0.021561,0.000000,86.000000,85.000000,1.000000,2.000000,0.000000,0.000000,0.132448,0.179228,0.010781,0.021561,0.000000,86.000000,85.000000,1.000000,2.000000,0.000000,0.000000:
0000
0000
0000
0000
,
0000
0000
0000
0000
,
0000
0000
0000
0000
,
0000
0000
0000
0000
,
0000
0000
0000
0000
,
0000
0000
0000
0000
,
0000
0000
0000
0000
,
0000
0000
0000
0000
,
0000
0000
0000
0000
,
0010
0000
0000
0100
,
0000
0000
0100
0000
,
1000
0000
0000
0001
,
0000
0000
0100
0000
,
1000
0000
0000
0001
,
0000
0000
1000
0000
,
0100
0000
0000
0010
,
0000
0000
0001
0000
,
1000
0000
0001
0000
,
1000
0000
0000
0000
,
0001
0000
1000
0000
,
0001
0000
0000
0000
,
1000
0000
0001
0000
,
1000
0000
0001
0000
,
0010
0000
0010
0000
,
0100
0000
0100
0000
,
0001
0000
1000
0000
,
0001
0000
0000
0000
,
1000
0000
0001
0000
,
1000
0000
0000
0000
,
1000
0000
1000
0000
,
0001
0000
0001
0000
,
1000
0000
0001
0000
,
0100
0000
0000
0000
,
0010
0010
0000
0000
,
0010
0010
0000
0000
,
0010
0010
0000
0000
,
0000
0000
0000
0000
,
0100
0100
0000
0000
,
0100
0100
0000
0000
,
0100
0100
0000
0000
,
0000
0000
0000
0000
,
0010
0010
0000
0000
,
0010
0010
0000
0000
,
0010
0010
0000
0000
,
0000
0000
0000
0000
,
2002
0000
3003
0000
,
0000
0000
0000
0000
,
0010
0000
0010
0000
,
0010
0000
0000
0000
,
0100
0000
0100
0000
,
0100
0000
0000
0000
,
0001
0000
0000
0000
,
1000
0000
0000
0000
,
0001
0000
0000
0000
,
1000
0000
0000
0000
,
0010
0000
0010
0000
,
0010
0000
0010
0000
,
0100
0000
0100
0000
,
0100
0000
0100
0000
,
0001
0000
0000
0000
,
1000
0000
0000
0000
,
0001
0000
0000
0000
,
1000
0000
0000
0000
,
0010
0000
0000
0100
,
0000
0000
0000
0000
,
1000
0000
0000
0001
,
0000
0000
1000
0000
;

//---------------dance-double - ----------------
#NOTES:
     dance-double:
     :
     Medium:
     8:
     0.338820,0.431764,0.560592,0.032342,0.000000,220.000000,168.000000,52.000000,3.000000,0.000000,0.000000,0.338820,0.431764,0.560592,0.032342,0.000000,220.000000,168.000000,52.000000,3.000000,0.000000,0.000000:
// measure 0
00000000
00000000
00000000
00000000
,  // measure 1
00000000
00000000
00000000
00000000
,  // measure 2
00000000
00000000
00000000
00000000
,  // measure 3
00000000
00000000
00000000
00000000
,  // measure 4
00000000
00000000
00000000
00000000
,  // measure 5
00000000
00000000
00000000
00000000
,  // measure 6
00000000
00000000
00000000
00000000
,  // measure 7
00000000
00000000
00000000
00000000
,  // measure 8
00000000
00000000
00000000
00000000
,  // measure 9
10010000
00000000
00000000
10100000
00000000
00000000
01010000
00000000
,  // measure 10
00000000
00001000
00010000
00000010
,  // measure 11
00001010
00000000
00000000
00000101
00000000
00000000
00001010
00000000
,  // measure 12
00000000
00010000
00001000
01000000
,  // measure 13
01010000
00000000
00000000
00110000
00000000
00000000
00011000
00000000
,  // measure 14
00000000
00010000
00000100
00001000
,  // measure 15
00001001
00000000
00000000
00000011
00000000
00000000
00000101
00000000
,  // measure 16
00000000
00000010
00001000
00000100
,  // measure 17
00001001
00000000
00011000
00000000
,  // measure 18
00100000
00010000
01000000
00000000
,  // measure 19
10010000
00000000
00011000
00000000
,  // measure 20
00000010
00001000
00000100
00000000
,  // measure 21
00001001
00000000
00000010
00001000
,  // measure 22
00000100
00001000
00000010
00000100
,  // measure 23
00000001
00000000
00001000
00000000
,  // measure 24
00010000
00000000
10000000
00000000
,  // measure 25
00100000
00000000
00010000
00000000
01000000
00010000
01000000
00000000
,  // measure 26
00100000
10000000
01000000
00000000
,  // measure 27
00100000
00000000
00001000
00000000
00010000
00001000
00010000
00000000
,  // measure 28
00000100
00001000
00000010
00000000
,  // measure 29
00000101
00000000
00001100
00000000
,  // measure 30
00000010
00001000
00000100
00000000
,  // measure 31
00011000
00000000
10010000
00000000
,  // measure 32
00011000
00000000
00001001
00000000
,  // measure 33
00011000
00100000
00010000
00000000
,  // measure 34
00100000
10000000
01000000
00000000
,  // measure 35
00100000
00001000
00010000
00000000
,  // measure 36
00011000
00000000
00001100
00000000
,  // measure 37
00001000
00000001
00000100
00000000
,  // measure 38
00000001
00001000
00000100
00000000
,  // measure 39
00000100
00010000
00001000
00000000
,  // measure 40
00011000
00000000
10010000
00000000
,  // measure 41
10100000
01010000
00000000
00000000
,  // measure 42
00011000
00001100
00000000
00000000
,  // measure 43
00000011
00001100
00000000
00000000
,  // measure 44
00000010
00001000
00000100
00000000
,  // measure 45
00010000
00001000
01000000
00100000
,  // measure 46
00000000
10010000
00000000
00000000
10000000
00000000
00100000
00000000
,  // measure 47
10000000
00000000
00010000
01000000
00000000
01000000
00000000
01000000
,  // measure 48
00000000
00001000
00010000
00001000
,  // measure 49
00010000
00000000
00000000
00000100
00000000
00000100
00000000
00000100
,  // measure 50
00000000
00001000
00000002
00000003
,  // measure 51
00001000
00000100
00000000
00001100
,  // measure 52
00000000
00011000
00000000
01010000
,  // measure 53
00000000
00100000
10000000
10100000
,  // measure 54
00000000
01010000
00000000
00000000
10000000
00000000
00010000
00000000
,  // measure 55
01000000
00000000
00000000
01100000
00000000
01010000
00000000
01100000
,  // measure 56
00000000
00001000
00010000
00000100
,  // measure 57
00001000
00000000
00000000
00001010
00000000
00000110
00000000
00001010
,  // measure 58
00000000
00000001
00002000
00003000
,  // measure 59
00000200
00010000
00000000
00010300
,  // measure 60
00000000
00001000
00100000
00010000
,  // measure 61
00000000
01000000
10010000
00000000
,  // measure 62
00011000
00000000
00001001
00000000
,  // measure 63
00001001
00000000
00000000
00000010
00000000
00000000
00010000
00000000
,  // measure 64
00000000
00001000
00000000
00000000
00100000
00000000
00010000
00000000
,  // measure 65
10000000
00000000
00000000
01000000
00000000
00000000
00010000
00000000
,  // measure 66
00000000
00000100
00000000
00000000
00000110
00000000
00001001
00000000
;

//---------------dance-double - ----------------
#NOTES:
     dance-double:
     :
     Easy:
     5:
     0.278756,0.358456,0.431225,0.000000,0.000000,181.000000,141.000000,40.000000,0.000000,0.000000,0.000000,0.278756,0.358456,0.431225,0.000000,0.000000,181.000000,141.000000,40.000000,0.000000,0.000000,0.000000:
// measure 0
00000000
00000000
00000000
00000000
,  // measure 1
00000000
00000000
00000000
00000000
,  // measure 2
00000000
00000000
00000000
00000000
,  // measure 3
00000000
00000000
00000000
00000000
,  // measure 4
00000000
00000000
00000000
00000000
,  // measure 5
00000000
00000000
00000000
00000000
,  // measure 6
00000000
00000000
00000000
00000000
,  // measure 7
00000000
00000000
00000000
00000000
,  // measure 8
00000000
00000000
00000000
00000000
,  // measure 9
00011000
00000000
00000000
00010000
00000000
00000000
00010000
00000000
,  // measure 10
00000000
00000100
00001000
00000000
,  // measure 11
00001001
00000000
00000000
00001001
00000000
00000000
00001001
00000000
,  // measure 12
00000000
00000010
00010000
00000000
,  // measure 13
00011000
00000000
00000000
00011000
00000000
00000000
00011000
00000000
,  // measure 14
00000000
00001000
01000000
00000000
,  // measure 15
10010000
00000000
00000000
10010000
00000000
00000000
10010000
00000000
,  // measure 16
00000000
01000000
00010000
00000000
,  // measure 17
01000000
00000000
10000000
00000000
,  // measure 18
01000000
00000000
00010000
00000000
,  // measure 19
00001000
00000000
00000100
00000000
,  // measure 20
00000001
00000000
00000100
00000000
,  // measure 21
00001000
00000000
00000010
00000010
,  // measure 22
00000010
00000000
00001001
00000000
,  // measure 23
00000100
00000000
00010000
00001000
,  // measure 24
00010000
00000000
10010000
00000000
,  // measure 25
01000000
00000000
10000000
00000000
,  // measure 26
00100000
10000000
01000000
00000000
,  // measure 27
00010000
00000000
00100000
00000000
,  // measure 28
00001000
00010000
00001000
00000000
,  // measure 29
00010000
00000000
00000010
00001000
,  // measure 30
00000100
00000000
00001001
00000000
,  // measure 31
00000010
00000000
00001000
00000100
,  // measure 32
00001000
00000000
00001001
00000000
,  // measure 33
00000001
00000000
00001000
00000000
,  // measure 34
00000100
00000100
00000100
00000000
,  // measure 35
00010000
00001000
00010000
00000000
,  // measure 36
01000000
00000000
01000000
00000000
,  // measure 37
00010000
10000000
00010000
00000000
,  // measure 38
01000000
01000000
00001000
00000000
,  // measure 39
00010000
00010000
00000100
00000000
,  // measure 40
00001001
00000000
00000110
00000000
,  // measure 41
00001001
00001001
00000000
00000000
,  // measure 42
00011000
00011000
00000000
00000000
,  // measure 43
10010000
10010000
00000000
00000000
,  // measure 44
00100000
00000000
01000000
00000000
,  // measure 45
00010000
10000000
00010000
00000000
,  // measure 46
10010000
00000000
00000000
00000000
,  // measure 47
10000000
00100000
10000000
00000000
,  // measure 48
10010000
00000000
00011000
00000000
,  // measure 49
00010000
00001000
00010000
00000000
,  // measure 50
00011000
00000000
00001001
00000000
,  // measure 51
00000010
00001000
00000010
00000000
,  // measure 52
00001001
00000000
00011000
00000000
,  // measure 53
00001000
00010000
00001000
00000000
,  // measure 54
00011000
00000000
10010000
00000000
,  // measure 55
10000000
01000000
00100000
00010000
,  // measure 56
01000000
00000000
00001000
00000000
,  // measure 57
00010000
00000100
00001000
00000100
,  // measure 58
00010000
00000000
00001100
00000000
,  // measure 59
00000001
00000100
00000010
00000000
,  // measure 60
00001010
00000000
00000101
00000000
,  // measure 61
00001000
00000100
00010000
00000000
,  // measure 62
00011000
00000000
10010000
00000000
,  // measure 63
00100000
00000000
11000000
00000000
,  // measure 64
00100000
00000000
00011000
00000000
,  // measure 65
00000010
00000000
00001100
00000000
,  // measure 66
00000010
00000000
00001001
00000000
;
