#TITLE:Running Girl;
#SUBTITLE:;
#ARTIST:Mycin.T;
#TITLETRANSLIT:;
#SUBTITLETRANSLIT:;
#ARTISTTRANSLIT:;
#GENRE:;
#CREDIT:;
#MENUCOLOR:;
#METERTYPE:DDR;
#BANNER:Running Girl.png;
#BACKGROUND:Running Girl-bg.PNG;
#LYRICSPATH:;
#CDTITLE:;
#MUSIC:Running Girl.ogg;
#OFFSET:-0.260;
#SAMPLESTART:49.340;
#SAMPLELENGTH:19.000;
#SELECTABLE:YES;
#LISTSORT:;
#DISPLAYBPM:170.000;
#BPMS:0.000=170.000;
#STOPS:;
#BGCHANGES:-1.000=Running Girl.avi=1.000=1=0=0,
305.000=Running Girl.avi=0.000=0=0=0,
99999=-nosongbg-=1.000=0=0=0 // don't automatically add -songbackground-
;
#ATTACKS:;

//---------------dance-single - ----------------
#NOTES:
     dance-single:
     :
     Hard:
     10:
     0.510,0.473,0.361,0.315,0.000:
0000
0000
0000
0000
,
0000
0000
0000
0000
,
0000
0000
0000
0000
,
0020
0000
0000
0030
,
0001
1000
0000
0001
0000
1000
0000
0000
,
0200
0000
0000
0000
0300
0000
0000
0001
,
1000
0001
0000
0010
0000
0100
0000
0000
,
0020
0000
0100
0000
,
0100
0000
0100
0030
,
2000
0000
0001
0000
,
0001
0000
0002
3003
,
1001
0000
0100
0000
0001
1000
0000
0001
,
0000
0110
0000
0110
0000
1000
0001
0000
,
0100
0000
0001
0000
1000
0001
0000
0100
,
0000
1001
0000
1001
0000
1000
0001
0000
,
1000
0000
0001
0000
1000
0100
0000
0001
,
0000
1001
0000
1001
0000
0010
0100
0010
,
0200
0301
0020
1030
,
2000
0001
0000
3001
0000
0100
0010
0000
,
2000
0000
3001
0000
0100
0010
0000
0100
,
0000
0101
0000
0101
0000
1000
0100
0000
,
1000
0000
0001
0000
0100
0010
0000
0100
,
0000
1100
0000
1100
0000
0001
0100
0000
,
1001
0000
0100
0010
0100
0010
0000
1100
,
0000
0101
0000
0101
0000
1000
0010
0100
,
0020
1030
2000
3100
,
0001
0100
0000
0100
0001
0000
1000
0100
,
1000
0000
0000
0001
0100
0000
1000
0001
,
1000
0000
0001
0200
0000
0320
0000
0030
,
1000
0000
0010
0100
0000
0101
0000
1100
,
0000
0001
1000
0001
1000
0000
0100
0010
,
0100
0000
0001
1000
0100
0000
1000
0001
,
0010
0000
0010
0000
1000
0001
0000
1000
,
1001
0000
0100
0000
0010
0000
0001
0101
,
0000
1000
0010
1000
0001
0000
0001
0100
,
0110
0000
2200
0000
3300
0000
0100
1000
,
0000
0001
0100
0001
0100
0000
0010
1000
,
0100
0000
0220
0000
0330
0000
0000
0002
,
0000
0103
0010
0100
0010
0000
0000
0000
,
2000
0000
3001
0100
0000
0100
0001
0000
,
0100
0010
0100
0010
0000
1000
0001
1000
,
0010
1000
0100
2000
0000
0001
3001
0000
,
0000
1001
0000
1100
0000
0100
0010
0010
,
1000
0000
2002
0000
0000
3003
0000
0010
,
0000
1000
0100
1000
0001
0000
0100
0001
,
0100
0000
0202
0000
0303
0000
0001
1000
,
0000
0010
0100
0000
0001
0000
0100
0010
,
1000
0000
0001
0000
1000
0000
0001
0100
,
0000
0220
0000
0000
0000
0330
0000
0000
,
1100
0000
0101
0000
1100
0000
0001
0010
,
0200
0300
2002
0000
,
3003
0000
0010
0000
1000
0100
1000
0100
,
0000
1000
0001
0000
0100
0001
0100
0001
,
0000
0100
0010
0000
1000
0010
1000
0010
,
0000
0100
0001
0000
1000
0100
1000
0000
,
0001
0100
0010
0000
1000
0010
1000
0001
,
0000
0100
0010
0000
1000
0001
1000
0001
,
0000
0100
0010
0000
1000
0100
1000
0001
,
0000
0010
0001
0000
0100
0010
1000
0000
,
0100
0010
0100
0000
0001
0100
0001
0000
,
1000
1001
1000
1001
,
0100
1000
0100
0000
0001
0100
0001
0000
,
1000
1100
1000
1100
,
0001
0100
0001
0000
1000
0001
1000
0000
,
0010
0110
0010
0110
,
1000
0001
0100
0000
0001
1000
0001
2000
,
0000
0010
0001
3010
,
0001
0100
0001
0002
0000
1000
1003
0000
,
0100
0001
1000
2000
0000
0010
3010
0000
,
0001
0100
0010
1000
0000
0010
0110
0000
,
0000
0000
2002
0000
,
0000
0000
0000
0000
,
0000
0000
0000
0000
,
3003
0000
0000
0000
;

//---------------dance-double - ----------------
#NOTES:
     dance-double:
     :
     Hard:
     10:
     0.526,0.541,0.546,0.370,0.000:
00000000
00000000
00000000
00000000
,
00000000
00000000
00000000
00000000
,
00000000
00000000
00000000
00000000
,
00200000
00000000
00000000
00300000
,
01000000
00010000
00000000
01000000
00000000
00001000
00000000
00010000
,
00000200
00000000
00000000
00000300
,
00000100
00001000
00000000
00000010
00000000
00001000
00000000
00000000
,
00000002
00000000
00000000
00000003
,
00002000
00000000
00000000
00003000
,
00020000
00000000
00000000
00030000
,
20000000
00000000
00000000
30000000
,
01000000
00000000
10000000
00000000
00010000
01000000
00000000
01010000
,
00000000
11000000
00000000
11000000
00000000
00100000
01000000
00000000
,
00001000
00000000
00010000
00000000
00010000
00000100
00000000
00001100
,
00000000
00001010
00000000
00001010
00000000
00000001
00000100
00000000
,
00000001
00000000
00000011
00000000
00001000
00000100
00000000
00001100
,
00000000
00000100
00000000
00010100
00000000
00010000
00001000
00000000
,
00002000
01003000
02000000
03100000
,
00200000
10000000
00000000
10000000
00300000
10000000
01000000
00000000
,
10010000
00000000
11000000
00000000
00100000
00010000
00000000
00100000
,
00000000
00101000
00000000
00011000
00000000
00010000
00000100
00000000
,
00001000
00000000
00000010
00000000
00000100
00000001
00000000
00001000
,
00000000
00001100
00000000
00000110
00000000
00000001
00001000
00000000
,
00000100
00000000
00001100
00000000
00000010
00001000
00000000
00000100
,
00000000
00010100
00000000
00011000
00000000
00001000
00010000
00001000
,
00020000
00030100
00000200
00010300
,
00002000
00000000
00103000
00000000
00010000
00100000
01000000
10000000
,
00100000
00000000
10000000
01000000
10000000
00000000
00010000
00100000
,
00010000
00000000
01000000
00010000
00000000
01000000
00000000
00100000
,
10000000
00000000
01000000
00100000
00000000
00010000
00000000
00001000
,
00000000
00010000
00000100
00000000
00001010
00000000
00000001
00000100
,
00000010
00000000
00001000
00000000
00001100
00000000
00000010
00001000
,
00000100
00000000
00010000
00000000
00011000
00000000
00001000
00100000
,
00020000
00000000
01000000
00000000
01000000
00030000
00100000
01100000
,
00000000
10000000
01000000
00100000
00010000
00000000
01000000
01000000
,
01000000
00000000
20020000
00000000
30030000
00000000
00000000
10000000
,
00000000
01000000
00001000
00010000
00001000
00000000
00010000
00000100
,
00001000
00000000
00002020
00000000
00003030
00000000
00000000
00000001
,
00000000
00000100
00000010
00000100
00000010
00001000
00000000
00000000
,
00001000
00000100
00010000
00002000
00000000
00010000
00013000
00000000
,
00010000
00001000
01000000
00002000
00000000
01000000
01003000
00000000
,
01000000
00010000
10000000
00020000
00000000
01000000
01030000
00000000
,
00000000
11000000
00000000
01010000
00000000
10000000
01000000
00100000
,
00010000
00000000
02200000
00000000
03300000
00000000
00010000
01000000
,
00000000
00100000
10000000
00100000
10000000
00000000
01000000
00010000
,
00100000
00000000
00202000
00000000
00303000
00000000
00010000
00002000
,
00000000
00000000
00010000
00000000
00000000
00000000
00013000
00000100
,
00001000
00000000
00001010
00000000
00000100
00000000
00000001
00000100
,
00000000
00001010
00000000
00001100
00000000
00000100
00010000
00000000
,
00011000
01001000
00010100
01001000
,
20020000
30030000
22000000
33000000
,
10000000
00000000
10100000
00000000
10000000
01000000
00100000
00010000
,
00000000
00000000
01010000
00000000
01000000
00001000
00010000
00001000
,
00000000
00000000
00011000
00000000
00010000
00000100
00001000
00000100
,
00000000
00000000
00001100
00000000
00000001
00000100
00000010
00000000
,
00000101
00000000
00001100
00000000
00000010
00001000
00000100
00000000
,
00010100
00000000
00011000
00000000
00001000
01000000
00010000
00000000
,
01010000
00000000
11000000
00000000
00100000
10000000
01000000
00000000
,
10010000
00000000
01010000
00000000
10000000
00010000
01000000
00000000
,
10000000
01000000
10000000
01000000
00100000
00010000
00100000
00000000
,
00001000
00010000
00000100
00001000
,
00000001
00000100
00000001
00000100
00000010
00001000
00000010
00001000
,
00000100
00010100
00010000
00001000
,
01000000
00010000
01000000
00010000
01000000
10000000
01000000
10000000
,
01000000
10010000
10000000
01100000
,
10000000
01000000
00100000
00000000
00100000
00001000
00010000
00002000
,
00010000
00010000
00010000
00013000
,
00022000
00000000
00033000
00002200
00000000
00000000
00003300
00000000
,
00000202
00000000
00000303
00002200
00000000
00000000
00003300
00000000
,
00011000
00000000
00100000
00001000
00000000
01000000
01100000
00000000
,
00000000
00000000
00022000
00000000
,
00000000
00000000
00000000
00000000
,
00000000
00000000
00000000
00000000
,
00033000
00000000
00000000
00000000
;

//---------------dance-solo - ----------------
#NOTES:
     dance-solo:
     :
     Hard:
     1:
     0.008,0.214,0.009,0.000,0.005:
000000
000000
000000
000000
,
000000
000000
000000
000000
,
000000
000000
000000
000000
,
000000
000000
000000
000000
,
000000
000000
000000
000000
,
000000
000000
000000
000000
,
000000
000000
000000
000000
,
000000
000000
000000
000000
,
000000
000000
000000
000000
,
000000
000000
000000
000000
,
000000
000000
000000
000000
,
000000
000000
000000
000000
,
000000
000000
000000
000000
,
000000
000000
000000
000000
,
000000
000000
000000
000000
,
000000
000000
000000
000000
,
000000
000000
000000
000000
,
000000
000000
000000
000000
,
000000
000000
000000
000000
,
000000
000000
000000
000000
,
000000
000000
000000
000000
,
000000
000000
000000
000000
,
000000
000000
000000
000000
,
000000
000000
000000
000000
,
000000
000000
000000
000000
,
000000
000000
000000
000000
,
000000
000000
000000
000000
,
000000
000000
000000
000000
,
000000
000000
000000
000000
,
000000
000000
000000
000000
,
000000
000000
000000
000000
,
000000
000000
000000
000000
,
000000
000000
000000
000000
,
000000
000000
000000
000000
,
000000
000000
000000
000000
,
000000
000000
000000
000000
,
000000
000000
000000
000000
,
000000
000000
000000
000000
,
000000
000000
000000
000000
,
000000
000000
000000
000000
,
000000
000000
000000
000000
,
000000
000000
000000
000000
,
000000
000000
000000
000000
,
000000
000000
000000
000000
,
000000
000000
000000
000000
,
000000
000000
000000
000000
,
000000
000000
000000
000000
,
000000
000000
000000
000000
,
000000
000000
000000
000000
,
000000
000000
000000
000000
,
000000
000000
000000
000000
,
000000
000000
000000
000000
,
000000
000000
000000
000000
,
000000
000000
000000
000000
,
000000
000000
000000
000000
,
000000
000000
000000
000000
,
000000
000000
000000
000000
,
000000
000000
000000
000000
,
000000
000000
000000
000000
,
000000
000000
000000
000000
,
000000
000000
000000
000000
,
000000
000000
000000
000000
,
000000
000000
000000
000000
,
000000
000000
000000
000000
,
000000
000000
000000
000000
,
000000
000000
000000
000000
,
000000
000000
000000
000000
,
000000
000000
000000
000000
,
000000
000000
000000
000000
,
000000
000000
000000
000000
,
000000
000000
000000
000000
,
000000
000000
000000
000000
,
000000
000000
000000
000000
,
000000
000000
000000
000000
,
000000
000000
000000
000000
,
000000
000000
000000
000000
,
000000
000000
000000
000000
000000
000000
000000
000000
000000
000000
000000
111111
;

//---------------dance-double - ----------------
#NOTES:
     dance-double:
     :
     Medium:
     8:
     0.364,0.439,0.296,0.305,0.000:
00000000
00000000
00000000
00000000
,
00000000
00000000
00000000
00000000
,
00000000
00000000
00000000
00000000
,
00002000
00000000
00000000
00003000
,
00020000
00000000
00000000
00030000
,
00002000
00000000
00000000
00003000
,
02000000
00000000
00000000
03000000
,
00020000
00000000
01000000
00000000
,
01000000
00000000
01030000
00000000
,
00002000
00000000
00000100
00000000
,
00000100
00000000
00003100
00000000
,
00010000
00000000
00001000
00000000
00010000
00010000
00000000
00001000
,
00000000
00000000
00000000
00000000
,
00001000
00000000
00000010
00000000
00001000
00000010
00000000
00000010
,
00000000
00000000
00000000
00000000
,
00000000
00000000
00000001
00000000
00000100
00000001
00000000
00001000
,
00000000
00000010
00000000
00001000
00000000
00000100
00001000
00000000
,
00000200
00000300
00020000
00030000
,
02000000
00000000
00000000
03000000
,
10000000
00000000
00010000
00000000
01000000
00100000
00000000
10000000
,
00000000
00010000
00000000
10010000
00000000
00000000
00000000
00000000
,
01000000
00000000
00001000
00000000
01000000
00100000
00000000
00001000
,
00000000
00010000
00000000
00011000
00000000
00000000
00000000
00000000
,
00010000
00000000
00000100
00000000
00001000
00000100
00000000
00001000
,
00000000
00000010
00000000
00000100
00000000
00000001
00000000
00000000
,
00000002
00000003
00000200
00000300
,
00002000
00000000
00003000
00010000
,
00002000
00000000
00103000
00010000
,
02000000
00000000
03100000
00000000
,
10000000
00000000
01000000
10000000
00000000
00010000
00000000
20000000
,
00000000
00100000
00000000
30100000
,
02000000
00000000
03010000
00100000
,
00002000
00000000
00023000
00000000
,
00030020
00000000
00000100
00000000
00000130
00000000
00000001
00001000
,
00000000
00000010
00000100
00000010
00000100
00000000
00000001
00000000
,
00001000
00002002
00000000
00003003
,
00000100
00010000
00001000
01000000
,
00100000
02200000
00000000
03300000
,
10000000
00010000
01000000
00001000
,
00010000
00000000
00001000
00001000
00000000
00000000
00000000
00000000
,
00010000
00000000
00000100
00000100
00000000
00000000
00001000
00000000
,
00000001
00000000
00000100
00000100
00000000
00000000
00000010
00000000
,
00000000
00001100
00000000
00000101
00000000
00000000
00000010
00000000
,
00001000
00002200
00003300
00001100
,
00000100
00010000
00001000
01000000
,
00100000
00000000
02200000
00000000
03300000
00000000
10000000
00010000
,
00000000
01100000
00000000
10010000
,
10000000
00000000
00010000
00000000
01000000
00000000
00000000
00010000
,
00000000
00100000
00000000
00002000
00000000
00000000
00000000
00003000
,
00010000
00001000
00000100
00000010
,
00000002
00000003
00002000
00003000
,
00000010
00000000
00000010
00000000
00000010
00000000
00001000
00000100
,
00000000
00000000
00010000
00000000
00010000
00000000
00001000
01000000
,
00000000
00000000
00100000
00000000
00100000
00000000
10000000
00010000
,
00000000
01000000
11000000
01010000
,
00100000
00000000
00100000
00000000
10010000
00000000
01000000
00001000
,
00000000
00000000
00010000
00000000
00010000
00000000
00001000
00000100
,
00000000
00000000
00001010
00000000
00000010
00000000
00000010
00000100
,
00000000
00000101
00001100
00000101
,
00000010
00000000
00000010
00000000
00000100
00000010
00000100
00000010
,
00000000
00001100
00000000
00011000
,
01000000
00000000
01000000
00000000
00010000
01000000
00010000
01000000
,
00000000
10010000
00000000
00110000
,
00100000
00000000
00001000
00000000
00010000
00001000
00010000
00001000
,
00000000
00010010
00000000
00001001
,
00000100
00000000
00000100
00000000
00000010
00001000
00000010
00002000
,
00000000
00000100
00000100
00003100
,
00001010
00000000
00000000
00011000
00000000
00000000
00000000
00000000
,
01010000
00000000
00000000
00011000
00000000
00000000
00000000
00000000
,
10010000
00000000
00000000
01010000
00000000
00000000
00001100
00000000
,
00000000
00000000
00022000
00000000
,
00000000
00000000
00000000
00000000
,
00000000
00000000
00000000
00000000
,
00033000
00000000
00000000
00000000
;

//---------------dance-single - ----------------
#NOTES:
     dance-single:
     :
     Medium:
     8:
     0.354,0.439,0.278,0.296,0.000:
0000
0000
0000
0000
,
0000
0000
0000
0000
,
0000
0000
0000
0000
,
2000
0000
0000
3000
,
0002
0000
0000
0003
,
0200
0000
0000
0300
,
0020
0000
0000
0030
,
2000
0000
0001
0000
,
0001
0000
3001
0000
,
0002
0000
1000
0000
,
1000
0000
1003
0000
,
0010
0000
1000
0000
0001
0001
0000
0001
,
0000
0000
0000
0000
,
0010
0000
0001
0000
1000
1000
0000
1000
,
0000
0000
0000
0000
,
0000
0000
0001
0000
0100
0001
0000
1000
,
0000
0001
0000
1000
0000
0000
0001
0000
,
0200
0300
2000
3000
,
0200
0000
0000
0300
,
0100
0000
0001
0000
1000
1000
0000
1000
,
0000
0000
0000
0000
,
0100
0000
1000
0000
0001
0001
0000
0001
,
0000
0000
0000
0000
,
0000
0000
1000
0000
0010
1000
0000
0001
,
0000
1000
0000
0001
0000
0000
1000
0000
,
0020
0030
0002
0003
,
0020
0000
0030
1000
,
0002
0000
0103
0010
,
0100
0000
0010
1000
0000
0010
0000
0000
,
1000
0000
0100
1000
0000
0001
0000
2000
,
0000
0010
0000
3010
,
0200
0000
0301
0010
,
2000
0000
3002
0000
,
0023
0000
0100
0000
0130
0000
0001
1000
,
0000
0010
0100
0010
0100
0000
0001
0000
,
1000
2002
0000
3003
,
0100
0010
0001
1000
,
0010
0220
0000
0330
,
0001
1000
0100
0010
,
0001
0000
1000
1000
0000
0000
0000
0000
,
0001
0000
0100
0100
0000
0000
1000
0000
,
0001
0000
0010
0010
0000
0000
0010
0000
,
0000
1100
0000
0101
0000
0000
0010
0000
,
1000
2200
3300
1100
,
0010
0001
1000
0100
,
0010
0000
0220
0000
0330
0000
1000
0001
,
0000
0110
0000
1001
,
0010
0000
0001
0000
0100
0000
0000
0001
,
0000
0010
0000
2000
0000
0000
0000
3000
,
0001
1000
0100
0010
,
0002
0003
2000
3000
,
0010
0000
0010
0000
0010
0000
1000
0100
,
0000
0000
0001
0000
0001
0000
1000
0100
,
0000
0000
0010
0000
0010
0000
1000
0001
,
0000
0100
1100
0101
,
0010
0000
0010
0000
1001
0000
0100
1000
,
0000
0000
0001
0000
0001
0000
1000
0100
,
0000
0000
1010
0000
0010
0000
0010
0100
,
0000
0101
1100
0101
,
0010
0000
0010
0000
0100
0010
0100
0010
,
0000
1100
0000
1001
,
0100
0000
0100
0000
0001
0100
0001
0100
,
0000
1001
0000
0011
,
0010
0000
1000
0000
0001
1000
0001
1000
,
0000
0011
0000
1001
,
0100
0000
0100
0000
0010
1000
0010
2000
,
0000
0100
0100
3100
,
0110
0000
0000
1001
0000
0000
0000
0000
,
0101
0000
0000
1010
0000
0000
0000
0000
,
0011
0000
0000
0101
0000
0000
1100
0000
,
0000
0000
2002
0000
,
0000
0000
0000
0000
,
0000
0000
0000
0000
,
3003
0000
0000
0000
;

//---------------dance-double - ----------------
#NOTES:
     dance-double:
     :
     Easy:
     5:
     0.276,0.304,0.130,0.389,0.000:
00000000
00000000
00000000
00000000
,
00000000
00000000
00000000
00000000
,
00000000
00000000
00000000
00000000
,
00200000
00000000
00000000
00000000
,
00300000
00000000
00000000
00000000
,
00002000
00000000
00000000
00000000
,
00003000
00000000
00000000
00000000
,
00020000
00000000
00030000
00000000
,
00002000
00000000
00003000
00000000
,
00000200
00000000
00000300
00000000
,
00000020
00000000
00000030
00000000
,
00000001
00000001
00000000
00000001
,
00000000
00000001
00000100
00001000
,
00000000
00001000
00000000
00001000
,
00000000
00001000
00100000
00010000
,
00000000
01000000
00000000
01000000
,
00000000
10000000
01000000
00010000
,
02000000
03000000
00002000
00003000
,
00020000
00030000
00000200
00000300
,
00001000
00000100
00000000
00000100
,
00000000
00000001
00000010
00000100
,
00000000
00000010
00000000
00000010
,
00000000
00000100
00000010
00010000
,
00000000
00001000
00000000
00001000
,
00000000
01000000
00010000
00100000
,
20000000
30000000
00020000
00030000
,
02000000
00000000
03000000
00000000
,
20000000
00000000
30010000
00000000
,
00020000
00000000
00031000
00000000
,
00000020
00000000
00000130
00000000
,
00000200
00000000
00000310
00000000
,
00000002
00000000
00000103
00000000
,
00002000
00000000
01003000
00000000
,
00200000
00000000
00000000
00000000
00300000
00000000
01000000
01000000
,
00000000
10010000
10010000
00000000
,
10000000
20020000
00000000
30030000
,
00000000
00100000
00000000
00100000
,
00010000
00022000
00000000
00033000
,
00000000
00000010
00000000
00000010
,
00001000
00001001
00000000
00000010
,
00000001
00001001
00000000
00000100
,
00010000
00022000
00000000
00033000
,
00000000
00100000
00000000
00100000
00000000
00000000
00010000
00000000
,
01000000
20020000
00000000
30030000
,
00000000
00100000
00000000
00001000
,
00000100
00002002
00003003
00000200
,
00000000
00000010
00000000
00000310
,
00000002
00000003
00002000
00003000
,
00020000
00030000
20000000
30000000
,
01000000
01000000
01000000
01000000
,
00200000
00300000
00022000
00000000
,
00033000
00000100
00000000
00000100
,
00000000
00000001
00000010
00001000
,
00000000
01000000
00000000
01000000
,
00000000
10000000
00100000
00010000
,
00000000
00000010
00001000
00000010
,
00000000
00000010
00010000
00000010
,
00000000
00000100
00001000
00000100
,
00000000
00000100
00010000
00000100
,
00001000
01000000
10000000
01000000
,
00000000
00100000
00000000
00100000
,
00010000
00000100
00010000
00000100
,
00000000
00000010
00000000
00000010
,
00001000
00100000
00001000
00100000
,
00000000
01000000
00000000
01000000
,
00100000
00010000
00100000
00020000
,
20000000
00000000
00000000
30030000
,
00100000
00000000
00000000
00011000
00000000
00000000
00000000
00000000
,
00000100
00000000
00000000
00011000
00000000
00000000
00000000
00000000
,
00100000
00000000
00000000
01000000
00000000
00000000
10010000
00000000
,
00000000
00000000
00022000
00000000
,
00000000
00000000
00000000
00000000
,
00000000
00000000
00000000
00000000
,
00033000
00000000
00000000
00000000
;

//---------------dance-single - ----------------
#NOTES:
     dance-single:
     :
     Easy:
     6:
     0.276,0.304,0.130,0.389,0.000:
0000
0000
0000
0000
,
0000
0000
0000
0000
,
0000
0000
0000
0000
,
0020
0000
0000
0000
,
0030
0000
0000
0000
,
2000
0000
0000
0000
,
3000
0000
0000
0000
,
0002
0000
0003
0000
,
2000
0000
3000
0000
,
0200
0000
0300
0000
,
0020
0000
0030
0000
,
0001
0001
0000
0001
,
0000
0001
0100
1000
,
0000
1000
0000
1000
,
0000
1000
0010
0001
,
0000
0100
0000
0100
,
0000
1000
0100
0001
,
0200
0300
2000
3000
,
0002
0003
0200
0300
,
1000
0100
0000
0100
,
0000
0001
0010
0100
,
0000
0010
0000
0010
,
0000
0100
0010
0001
,
0000
1000
0000
1000
,
0000
0100
0001
0010
,
2000
3000
0002
0003
,
0200
0000
0300
0000
,
2000
0000
3001
0000
,
0002
0000
1003
0000
,
0020
0000
0130
0000
,
0200
0000
0310
0000
,
0002
0000
0103
0000
,
2000
0000
3100
0000
,
0020
0000
0000
0000
0030
0000
0100
0100
,
0000
1001
1001
0000
,
1000
2002
0000
3003
,
0000
0010
0000
0010
,
0001
2002
0000
3003
,
0000
0010
0000
0010
,
1000
1001
0000
0010
,
0001
1001
0000
0100
,
0001
2002
0000
3003
,
0000
0010
0000
0010
0000
0000
0001
0000
,
0100
2002
0000
3003
,
0000
0010
0000
1000
,
0100
2002
3003
0200
,
0000
0010
0000
0310
,
0002
0003
2000
3000
,
0002
0003
2000
3000
,
0100
0100
0100
0100
,
0020
0030
2002
0000
,
3003
0100
0000
0100
,
0000
0001
0010
1000
,
0000
0100
0000
0100
,
0000
1000
0010
0001
,
0000
0010
1000
0010
,
0000
0010
0001
0010
,
0000
0100
1000
0100
,
0000
0100
0001
0100
,
1000
0100
1000
0100
,
0000
0010
0000
0010
,
0001
0100
0001
0100
,
0000
0010
0000
0010
,
1000
0010
1000
0010
,
0000
0100
0000
1000
,
0010
0001
0010
0002
,
2000
0000
0000
3003
,
0010
0000
0000
1001
0000
0000
0000
0000
,
0100
0000
0000
1001
0000
0000
0000
0000
,
0010
0000
0000
0100
0000
0000
1001
0000
,
0000
0000
2002
0000
,
0000
0000
0000
0000
,
0000
0000
0000
0000
,
3003
0000
0000
0000
;

//---------------dance-single - Copied from ----------------
#NOTES:
     dance-single:
     Copied from:
     Beginner:
     3:
     0.181,0.236,0.046,0.213,0.000: // measure 1
0000
0000
0000
0000
,  // measure 2
0000
0000
0000
0000
,  // measure 3
0000
0000
0000
0000
,  // measure 4
0020
0000
0000
0000
,  // measure 5
0030
0000
0000
0000
,  // measure 6
0200
0000
0000
0000
,  // measure 7
0300
0000
0000
0000
,  // measure 8
0002
0000
0000
0000
,  // measure 9
0003
0000
0000
0000
,  // measure 10
2000
0000
0000
0000
,  // measure 11
3000
0000
0000
0000
,  // measure 12
0000
0001
0000
0001
,  // measure 13
0000
0001
0000
0001
,  // measure 14
0000
1000
0000
1000
,  // measure 15
0000
1000
0000
1000
,  // measure 16
0000
0100
0000
0100
,  // measure 17
0000
0100
0000
0000
,  // measure 18
0010
0000
0010
0000
,  // measure 19
0020
0000
0030
0000
,  // measure 20
0000
0100
0000
0100
,  // measure 21
0000
0010
0000
0010
,  // measure 22
0000
1000
0000
1000
,  // measure 23
0000
0001
0000
0001
,  // measure 24
0000
0100
0000
0010
,  // measure 25
0000
0100
0000
0000
,  // measure 26
1000
0000
0001
0000
,  // measure 27
2000
0000
3000
0000
,  // measure 28
0010
0000
0100
0000
,  // measure 29
0010
0000
0100
0000
,  // measure 30
0001
0000
1000
0000
,  // measure 31
0001
0000
1000
0000
,  // measure 32
0010
0000
0100
0000
,  // measure 33
0010
0000
0100
0000
,  // measure 34
0002
0000
0000
0000
0003
0000
0000
1001
,  // measure 35
0000
0000
0000
0000
,  // measure 36
1000
2000
3000
0000
,  // measure 37
0000
0100
0000
0001
,  // measure 38
0001
0002
0003
0000
,  // measure 39
0000
0100
0000
1000
,  // measure 40
2000
0000
3000
0000
,  // measure 41
0002
0000
0003
0000
,  // measure 42
0200
0000
0300
0000
,  // measure 43
0000
0010
0000
0010
0000
0000
1000
0000
,  // measure 44
1000
2000
0000
3000
,  // measure 45
0000
0010
0000
0001
,  // measure 46
0001
0002
0003
0000
,  // measure 47
0000
0100
0000
0001
,  // measure 48
0001
0000
1000
0000
,  // measure 49
0001
0000
1000
0000
,  // measure 50
0100
0100
0100
0100
,  // measure 51
0100
0000
2002
0000
,  // measure 52
3003
0000
0000
0000
,  // measure 53
0000
0001
0000
0001
,  // measure 54
0000
0100
0000
0100
,  // measure 55
0000
1000
0000
1000
,  // measure 56
0000
0010
0000
0010
,  // measure 57
0000
0001
0000
0001
,  // measure 58
0000
0010
0000
0010
,  // measure 59
0000
1000
0000
0000
,  // measure 60
1000
1000
1000
0000
,  // measure 61
0000
0000
0000
0000
,  // measure 62
0001
0001
0001
0000
,  // measure 63
0000
0000
0000
0000
,  // measure 64
0010
0010
0010
0000
,  // measure 65
0000
0000
0000
0000
,  // measure 66
0010
0010
0010
0000
,  // measure 67
2002
0000
3003
0000
,  // measure 68
0200
0000
0000
0300
0000
0000
0000
0000
,  // measure 69
0200
0000
0000
0300
0000
0000
0000
0000
,  // measure 70
0020
0000
0000
0030
0000
0000
1001
0000
,  // measure 71
0000
0000
2002
0000
,  // measure 72
0000
0000
0000
0000
,  // measure 73
0000
0000
0000
0000
,  // measure 74
3003
0000
0000
0000
;
