#TITLE:Round 3;
#SUBTITLE:;
#ARTIST:r300k;
#TITLETRANSLIT:;
#SUBTITLETRANSLIT:;
#ARTISTTRANSLIT:;
#GENRE:;
#CREDIT:;
#MENUCOLOR:;
#METERTYPE:DDR;
#BANNER:Round 3.png;
#BACKGROUND:Round 3-bg.png;
#LYRICSPATH:;
#CDTITLE:;
#MUSIC:Round 3.ogg;
#OFFSET:-0.100;
#SAMPLESTART:13.648;
#SAMPLELENGTH:18.581;
#SELECTABLE:YES;
#LISTSORT:;
#BPMS:0.000=155.000,111.000=77.500,128.000=155.000;
#STOPS:104.000=1.161
,105.000=1.161
,106.000=1.161
,107.000=1.161
,108.000=1.258
,108.750=1.065
,110.000=1.258
,110.750=0.677
,255.750=1.548
;
#BGCHANGES:0.000=Round 3.avi=1.000=0=0=0,
99999=-nosongbg-=1.000=0=0=0 // don't automatically add -songbackground-
;
#ATTACKS:;

//---------------dance-single - ----------------
#NOTES:
     dance-single:
     :
     Beginner:
     3:
     0.154,0.193,0.008,0.015,0.000:
0000
0000
0000
0000
,
0000
0000
0000
0000
,
0000
0000
0000
0000
,
0000
0000
0000
0000
,
0000
0000
0000
0000
,
0000
0000
0000
0000
,
0010
0000
0010
0000
,
0010
0000
0010
0000
,
0100
0000
0100
0000
,
0100
0000
0100
0000
,
0001
0000
0001
0000
,
1000
0000
1000
0000
,
0001
0000
1000
0000
,
0001
0000
1000
0000
,
0010
0000
0010
0000
,
0100
0000
0100
0000
,
0010
0000
0100
0000
,
0010
0000
0100
0000
,
0001
0001
0001
0000
,
1000
1000
1000
0000
,
0001
0001
0001
0000
,
1000
0000
0001
0000
,
1000
1000
1000
0000
,
0001
0001
0001
0000
,
0100
0100
0100
0000
,
0010
0000
0100
0000
,
0001
0000
1000
0000
,
0001
0000
1000
0000
,
0010
0010
0000
0000
,
1000
1000
0000
0000
,
0100
0000
0000
0001
,
0001
0000
1000
0000
,
0010
0000
0010
0000
,
0001
0000
0001
0000
,
0100
0000
0100
0000
,
1000
0000
1000
0000
,
0010
0000
0010
0000
,
1000
0000
1000
0000
,
0100
0000
0100
0000
,
0001
0000
0001
0000
,
1000
0000
1000
0000
,
0001
0000
0001
0000
,
0100
0000
0100
0000
,
0010
0000
0010
0000
,
1000
0000
0001
0000
,
0100
0000
0010
0000
,
0001
0000
0100
0000
,
0010
0000
1000
0000
,
0001
0000
1000
0000
,
0000
0000
1000
0000
,
0001
0000
1000
0000
,
0000
0000
0001
0000
,
0100
0000
0100
0000
,
0010
0000
0010
0000
,
0100
0100
0100
0000
,
0010
0010
0010
0000
,
1000
0000
0001
0000
,
0000
0000
0100
0000
,
0010
0000
0100
0000
,
0000
0000
0001
0000
,
1000
0000
0010
0000
,
0100
0000
0001
0000
,
1000
1000
1000
0000
,
0001
0001
0001
0000
,
0100
0000
0100
0000
,
0100
0000
0100
0000
,
0010
0000
0010
0000
,
0010
0000
0010
0000
,
0100
0000
0100
0000
,
0010
0000
0010
0000
,
0100
0000
0010
0000
,
2002
0000
0000
3003
;

//---------------dance-single - ----------------
#NOTES:
     dance-single:
     :
     Hard:
     13:
     0.621,0.826,0.361,0.177,0.530:
0000
0000
0000
0000
,
0000
0000
0000
0000
,
0000
0000
0000
0000
,
0000
0000
0000
0000
,
0000
0000
0000
0000
,
0000
0000
0000
0000
,
0110
0110
0110
1001
,
0110
0110
0110
1001
,
0101
0101
1100
1100
,
0011
0000
0000
0000
0101
0000
0000
0000
1001
0000
0000
0000
0100
0000
0001
0100
,
0001
0000
0000
0001
0000
0000
0001
0000
1000
0000
0000
1000
0000
0000
0010
1000
,
0100
0000
0000
0100
0000
0000
0100
0000
0010
0000
0000
0010
0000
0000
1000
0001
,
0100
0000
0000
0100
0000
0000
0100
0000
0010
0000
0000
0010
0000
0000
1000
0100
,
1000
0000
0000
1000
0000
0000
0001
0100
0001
0000
0000
0001
0000
0000
0100
0010
,
0100
0000
0000
0100
0000
0000
0100
0000
0100
0000
0000
0010
0000
0000
1000
0001
,
1000
0000
0000
1000
0000
0000
1000
0000
0001
0000
0000
0001
0000
0000
0100
0010
,
0100
0000
0000
0100
0000
0000
0100
0000
0001
0000
0000
0001
0000
0000
1000
0001
,
1000
0000
0000
1000
0000
0000
0010
0000
0001
0000
0000
0001
0000
0000
0100
0010
,
0100
0000
0000
0001
0100
0000
0001
0000
0001
0000
0000
1000
0001
0000
1000
0001
,
1000
0000
0000
0010
1000
0000
0010
0000
0010
0000
0000
1000
0100
0000
1000
0100
,
1000
0000
0000
0010
1000
0000
0010
0000
0010
0000
0000
0100
0010
0000
0100
0010
,
0100
0000
0000
0100
0001
0000
1000
0001
1000
0000
0000
0001
0100
0000
0001
0100
,
0001
0000
0000
1000
0001
0000
0010
0000
0010
0000
0000
0001
1000
0000
0100
0000
,
0100
0000
0000
1000
0001
0000
0010
0000
0010
0000
0000
0001
1000
0000
0100
0010
,
0100
0000
0000
0001
0100
0000
0001
0000
0001
0000
0000
1000
0100
0000
1000
0010
,
1000
0000
0000
0110
0000
0000
0001
0000
0100
0000
0000
1001
0000
0000
0010
0000
,
2200
0000
0000
3300
0000
0000
0022
0000
0033
0100
0000
0000
2200
0000
0000
3300
0000
0000
0022
0000
0033
1000
0000
0000
,
0101
0000
0000
1001
0000
0000
0010
0000
0110
0000
0000
1001
0100
0000
0000
0010
,
0002
0000
0000
0000
2003
0000
0000
0000
0000
0000
0000
0000
3020
0000
0000
0100
,
0032
0000
0000
0000
2003
0000
0000
0000
0000
0000
0000
0000
3020
0000
0000
1000
,
0230
0000
0000
0000
0000
0301
1000
0010
,
0200
0001
0320
1000
,
0130
0000
0001
0000
0100
0001
0000
0001
0100
0000
0001
0000
0100
0001
0000
0001
,
1000
0000
0001
1000
0000
0001
1000
0000
0001
0000
1000
0000
0001
1000
0000
1000
,
0001
0000
0100
0000
0001
0100
0000
0100
0001
0000
0100
0000
0100
0010
0000
0010
,
0100
0000
0010
0100
0000
0010
0100
0000
0010
0000
0100
0000
0100
0010
0000
0010
,
1000
0000
0001
0000
1000
0100
0000
1000
0100
0000
1000
0001
0000
1000
0001
0000
,
0100
0000
0001
0000
0100
0001
0000
0100
0010
0000
0100
0010
0000
0100
0001
0000
,
1000
0000
0010
0000
1000
0100
0000
1000
0100
0000
1000
0010
0000
1000
0010
0000
,
0100
0000
0001
0000
0100
0010
0000
0100
0010
0000
0100
0001
0000
0100
0001
0000
,
1000
0000
0001
0000
1000
0001
0000
0001
1000
0000
0001
0000
0100
0001
0000
0100
,
0001
0000
0100
0010
0000
0100
0010
0000
0001
0000
1000
0000
0001
1000
0000
1000
,
0001
0000
0100
0000
0010
0100
0000
0100
0010
0000
1000
0000
0100
1000
0000
1000
,
0100
0000
1000
0100
0000
1000
0100
0000
0001
0000
0100
0000
0010
0100
0000
0100
,
0010
0000
1000
0000
0001
0100
0000
0100
0001
0000
1000
0001
0000
1000
0001
0000
,
1000
0010
0000
1000
0010
0000
1000
0100
1000
0000
0100
0000
1000
0010
0000
0010
,
0100
0000
0001
0000
0100
0010
0000
0010
1000
0000
1000
0100
0000
0100
1000
0000
,
0010
0100
0001
1000
0101
0000
0010
0100
,
1001
1100
0101
0110
,
0001
0100
1000
0100
0001
0000
1000
0010
,
1001
0100
1010
0100
,
0001
0010
0100
1000
1001
0000
0100
0010
,
1000
0000
0001
0000
1000
0100
0000
0100
1000
0000
0001
1000
0000
1000
0001
0000
,
1000
0010
0100
0000
0001
0100
0010
0000
,
1000
0000
0001
0000
0100
0001
0000
0001
0100
0000
0010
0000
1000
0000
0100
0000
,
0001
0000
1000
0000
0001
0100
0000
0100
0001
0000
1000
0010
1000
0000
0100
0000
,
0001
0000
1000
0000
0001
0100
0000
0100
0001
0000
0010
0000
0100
0000
0000
0000
,
1000
0000
0001
0000
1000
0100
0000
0100
1000
0000
0010
0000
0100
0000
0001
0000
,
1000
0000
0001
0000
0100
0010
0000
0010
0100
0000
0001
0000
1000
0000
0000
0000
,
0001
0000
1000
0000
0010
0100
0000
0100
0010
0000
1000
0000
0001
0000
0100
0000
,
0010
0000
1000
0000
1000
0100
0000
0100
1000
0000
1000
0010
0000
0010
0100
0000
,
0001
0000
0100
0000
0010
0100
0000
0100
0010
0000
1000
0000
0001
0000
0100
0000
,
0020
0000
1030
0000
0001
0100
1000
0000
,
0200
0000
0301
0000
0010
0100
1000
0001
,
0100
0010
1001
0000
0010
0100
1001
0000
,
1000
0100
1100
0000
0001
0100
0101
0000
,
1000
0010
1010
0000
0001
0010
0011
0000
,
1000
0100
0010
0001
0100
0010
0110
0000
,
0001
0100
0101
0000
1000
0100
1100
0000
,
0001
0010
0011
0000
1000
0010
1010
0000
,
0001
1000
1001
0000
0010
0100
0110
0000
,
2002
0000
0000
3003
;

//---------------dance-double - ----------------
#NOTES:
     dance-double:
     :
     Hard:
     12:
     0.477,0.496,0.299,0.107,0.230:
00000000
00000000
00000000
00000000
,
00000000
00000000
00000000
00000000
,
00000000
00000000
00000000
00000000
,
00000000
00000000
00000000
00000000
,
00000000
00000000
00000000
00000000
,
00000000
00000000
00000000
00000000
,
00001000
00001000
00000010
00000010
,
00000001
00000001
00000100
00000100
,
00010000
00010000
01000000
01000000
,
10000000
00000000
00000000
00000000
00000000
00000000
00000000
00000000
00100000
00000000
00000000
00000000
00000000
00000000
00010000
01000000
,
00010000
00000000
00000000
00010000
00000000
00000000
00010000
00000000
10000000
00000000
00000000
10000000
00000000
00000000
10000000
00000000
,
00100000
00000000
00000000
00100000
00000000
00000000
00100000
00000000
01000000
00000000
00000000
01000000
00000000
00000000
00001000
00000000
,
00010000
00000000
00000000
00010000
00000000
00000000
00000100
00000000
00001000
00000000
00000000
00001000
00000000
00000000
00000010
00000000
,
00000100
00000000
00000000
00000100
00000000
00000000
00000010
00000000
00001000
00000000
00000000
00001000
00000000
00000000
00001000
00000000
,
00000100
00000000
00000000
00000100
00000000
00000000
00000100
00000000
00010000
00000000
00000000
00010000
00000000
00000000
00010000
00000000
,
00001000
00000000
00000000
00001000
00000000
00000000
00001000
00000000
01000000
00000000
00000000
01000000
00000000
00000000
01000000
00000000
,
00100000
00000000
00000000
00100000
00000000
00000000
00100000
00000000
10000000
00000000
00000000
10000000
00000000
00000000
00010000
00000000
,
01000000
00000000
00000000
01000000
00000000
00000000
00100000
10000000
00100000
00000000
00000000
00100000
00000000
00000000
01000000
00010000
,
01000000
00000000
00000000
01000000
00000000
00000000
00100000
00000000
10000000
00000000
00000000
10000000
00000000
00000000
00010000
01000000
,
00010000
00000000
00000000
00010000
00000000
00000000
00100000
00000000
00100000
00000000
00000000
00001000
00000000
00000000
00010000
00001000
,
00010000
00000000
00000000
00010000
00000000
00000000
00000100
00000000
00000100
00000000
00000000
00000100
00000000
00000000
00001000
00000100
,
00001000
00000000
00000000
00000010
00000000
00000000
00000001
00001000
00000001
00000000
00000000
00000001
00000000
00000000
00000100
00000010
,
00000100
00000000
00000000
00000100
00000000
00000000
00001000
00000000
00001000
00000000
00000000
00000100
00000000
00000000
00010000
00000000
,
00010000
00000000
00000000
00001000
00000000
00000000
00010000
00000000
00001000
00000000
00000000
00001000
00000000
00000000
01000000
00000000
,
01000000
00000000
00000000
00100000
00000000
00000000
10000000
00000000
01000000
00000000
00000000
00100000
00000000
00000000
00010000
00000000
,
01000000
00000000
00000000
01000000
00000000
00000000
00100000
00000000
00100000
00000000
00000000
10000000
00000000
00000000
00010000
00000000
,
01000000
00000000
00100000
10000000
00010000
00000000
01000000
00100000
,
10000000
00000000
00000000
01010000
00000000
00000000
10000000
00000000
01000000
00000000
00000000
10000000
00100000
00000000
00000000
01000000
,
00020000
00000000
00000000
00000000
00032000
00000000
00000000
00000000
00003020
00000000
00000000
00000000
00000230
00000000
00000000
00000001
,
00002300
00003200
00020300
00032000
,
00203000
00000000
00000000
00000000
00000000
00310000
01000000
00100000
,
20000000
00000000
30020000
02030000
,
03100000
10000000
00010000
00000000
01000000
10000000
00010000
00000000
,
00100000
00001000
00010000
00000000
00010000
00000100
00001000
00000000
,
00000010
00001000
00000100
00000000
00000100
00000001
00000010
00000000
,
00000010
00001000
00000100
00000000
00000100
00010000
00001000
00000000
,
00001000
00100000
00010000
00000000
00010000
01000000
00100000
00000000
,
00100000
10000000
01000000
00000000
01000000
00100000
00010000
00000000
,
00010000
00000100
00001000
00000000
00001000
00000010
00000100
00000000
,
00000001
00000010
00000100
00000000
00001000
00000100
00010000
00000000
,
00010000
00000000
00001000
00000000
00010000
00001000
00000000
00001000
00010000
00000000
00001000
00000000
00010000
00001000
00000000
00001000
,
00010000
00001000
01000000
00000000
01000000
00100000
10000000
00000000
,
10000000
00000000
01000000
00000000
10000000
01000000
00000000
01000000
10000000
00000000
00100000
00000000
01000000
00100000
00000000
00100000
,
01000000
00010000
00100000
00000000
00100000
00001000
00010000
00000000
,
00010000
00000000
00000100
00000000
00001000
00000100
00000000
00000100
00001000
00000000
00000010
00000000
00001000
00000010
00000000
00000010
,
00001000
00000001
00000100
00000000
00000001
00001000
00000100
00000000
,
00000010
00000000
00001000
00000000
00000100
00001000
00000000
00001000
00000100
00000000
00001000
00000000
00000010
00000000
00000000
00000000
,
00000001
00000000
00000100
00000000
00000001
00000100
00000000
00000100
00000010
00000000
00000000
00000000
00001000
00000000
00000100
00000000
,
00001001
00000000
00000010
00001000
00000100
00000000
00001000
00000000
,
00000100
00010000
00001000
00000000
00010000
00001000
00100000
00010000
,
01000000
00000000
10100000
00000000
10000000
01000000
00100000
00000000
,
00100000
00001000
00010000
00000000
00010000
00000100
00001000
00000010
,
00000100
00000000
00001001
00000000
00000010
00001000
00000100
00000000
,
00001010
00000000
00001100
00000000
00000100
00010000
00001000
00000000
,
00101000
00000000
00011000
00000000
00100000
00010000
01000000
10000000
,
10100000
00000000
01010000
00000000
10000000
01000000
00010000
00000000
,
00110000
00000000
00011000
00000000
00001000
00000100
00000010
00000000
,
00000011
00000000
00000110
00000000
00000010
00001000
00000100
00000000
,
00001100
00000000
00011000
00000000
00001000
00100000
00010000
00000000
,
01010000
00000000
11000000
00000000
10000000
01000000
00010000
00000000
,
01010000
00000000
01010000
00000000
00100000
00001000
00010000
00000000
,
00011000
00000000
00011000
00000000
00010000
00000100
00001000
00000000
,
00001010
00000000
00000101
00000000
00000001
00000100
00001000
00000000
,
00000010
00010000
00001000
00000000
00001000
01000000
00010000
00000000
,
11000000
00000000
01010000
00000000
10000000
01000000
00100000
00000000
,
00110000
00000000
00011000
00000000
00010000
00000100
00001000
00000000
,
00001100
00000000
00000110
00000000
00000100
00000001
00001000
00000000
,
00000110
00000000
00001100
00000000
00000100
00010000
00001000
00000000
,
00011000
00000000
00101000
00000000
00100000
00010000
01000000
00000000
,
10100000
00000000
01010000
00000000
00100000
00001000
00010000
00000000
,
00010100
00000000
00001100
00000000
00010000
00000100
00010000
00000000
,
00022000
00000000
00000000
00033000
;

//---------------dance-double - ----------------
#NOTES:
     dance-double:
     :
     Easy:
     5:
     0.288,0.330,0.100,0.246,0.008:
00000000
00000000
00000000
00000000
,
00000000
00000000
00000000
00000000
,
00000000
00000000
00000000
00000000
,
00000000
00000000
00000000
00000000
,
00000000
00000000
00000000
00000000
,
00000000
00000000
00000000
00000000
,
00010000
00010000
00010000
00001000
,
00010000
00010000
00010000
00001000
,
00010000
00010000
00010000
00001000
,
00010000
00000000
00001000
00000000
,
00000010
00000010
00000010
00000001
,
00000100
00000100
00000100
00001000
,
00010000
00010000
00010000
01000000
,
10000000
10000000
00100000
00100000
,
10000000
10000000
10000000
01000000
,
00010000
00010000
00010000
00100000
,
00001000
00001000
00001000
00010000
,
00000100
00000000
00000010
00000000
,
00000001
00000001
00000001
00001001
,
00001000
00001000
00001000
00001001
,
00000001
00000001
00000001
00001001
,
00001000
00001001
00000001
00001001
,
00001000
00011000
00010000
00010000
,
00010000
10010000
10000000
10000000
,
10000000
10010000
00010000
00010000
,
00011000
00000000
00011000
00000000
,
00010000
00001000
00000010
00000001
,
00000100
00000000
00000000
00001000
00000000
00000000
00000000
00000000
00010000
00000000
00000000
01000000
00000000
00000000
00000000
00000000
,
10000000
00100000
00000000
10000000
,
00100000
00010000
00000000
00010000
,
00001000
00000000
00000000
00000010
,
00000100
00000000
00000001
00001000
,
00000020
00000030
00000200
00000300
,
00000001
00000010
00000100
00001000
,
00020000
00030000
00002000
00003000
,
00010000
00100000
01000000
10000000
,
02000000
03000000
00200000
00300000
,
10000000
01000000
00100000
00010000
,
00002000
00003000
00020000
00030000
,
00001000
00000100
00000010
00000001
,
00000200
00000300
00000020
00000030
,
00001000
00000100
00001000
00000100
,
00020000
00030000
00002000
00003000
,
00010000
00100000
00010000
00100000
,
02000000
03000000
00200000
00300000
,
10000000
01000000
10000000
01000000
,
00200000
00300000
00020000
00030000
,
00002000
00003000
00000200
00000300
,
00000020
00000030
00002000
00003000
,
00000001
00000010
00000100
00001001
,
00002000
00003000
00000200
00000300
,
00010000
00001000
01000000
00010000
,
01000000
00000000
10010000
00000000
,
00100000
10000000
01000000
00100000
,
00010000
00010000
00010000
00010000
,
00001000
00001000
00000100
00000100
,
00000002
00000003
00002000
00003000
,
00000001
00000010
00001000
00000100
,
00020000
00030000
00002000
00003000
,
00010000
01000000
00100000
10000000
,
02000000
03000000
20000000
30000000
,
00100000
00010000
00100000
00001000
,
00020000
00030000
00002000
00003000
,
00000100
00000010
00000100
00000010
,
00000001
00000001
00000100
00000100
,
00001000
00001000
00000100
00000100
,
00010000
00010000
00001000
00001000
,
00010000
00010000
01000000
01000000
,
10000000
01000000
00010000
01000000
,
00010000
01000000
00001000
01000000
,
00001000
00010000
00001000
00010000
,
00022000
00000000
00000000
00033000
;

//---------------dance-double - ----------------
#NOTES:
     dance-double:
     :
     Medium:
     9:
     0.340,0.330,0.054,0.046,0.008:
00000000
00000000
00000000
00000000
,
00000000
00000000
00000000
00000000
,
00000000
00000000
00000000
00000000
,
00000000
00000000
00000000
00000000
,
00000000
00000000
00000000
00000000
,
00000000
00000000
00000000
00000000
,
00010000
00010000
00010000
00000100
,
00010000
00010000
00010000
01000000
,
00010000
00010000
00010000
00000100
,
00001100
00000000
00000011
00000000
,
00000001
00000000
00000001
00000000
00000001
00000000
00000001
00000100
,
00000010
00000000
00000010
00000000
00000010
00000000
00000010
00001000
,
00000100
00000000
00000100
00000000
00000100
00000000
00000100
00010000
,
00001000
00000000
00001000
01000000
00010000
00000000
00010000
10000000
,
00100000
00000000
00100000
00000000
00100000
00000000
10000000
01000000
,
00100000
00100000
00100000
00100000
,
00010000
00000000
00010000
00000000
00010000
00000000
00010000
00000100
,
00001000
00000000
00000000
00001000
00000010
00000000
00000000
00000010
,
00000100
00000000
00000100
00000000
00000001
00000000
00001000
00000010
,
00001000
00000000
00000100
00000000
00000100
00000000
00010000
00001000
,
00010000
00000000
00010000
00000000
00010000
00000000
00001000
00100000
,
00001000
00000000
00100000
00010000
00100000
00000000
00010000
01000000
,
00010000
00000000
00010000
00000000
00010000
00000000
00100000
10000000
,
00100000
00000000
00100000
01000000
00100000
00000000
01000000
00100000
,
01000000
00000000
01000000
00000000
01000000
00000000
00010000
00100000
,
00010000
00000000
00010000
00001000
00010000
00000000
00001000
00000100
,
00001000
00010000
01000000
10000000
,
00100000
00000000
00000000
00010000
00000000
00000000
00000000
00000000
00001000
00000000
00000000
00000100
00000000
00000000
00000000
00000000
,
00000010
00000001
00000100
00001000
,
00010000
00100000
10000000
01000000
,
00020000
00000000
00030000
00001000
,
00000200
00000000
00000000
00000300
00000020
00000000
00000032
00000000
,
00001003
00001000
00000100
00000100
,
00010000
00000000
00010000
00000000
00001000
00010000
00001000
00000000
,
00010000
00010000
00001000
00001000
,
01000000
00000000
01000000
00000000
00100000
01000000
00100000
00000000
,
10000000
10000000
01000000
01000000
,
00010000
00100000
00010000
00000000
00100000
00001000
00100000
00000000
,
00001000
00001000
00010000
00010000
,
00000100
00000000
00000100
00000000
00001000
00000010
00001000
00000000
,
00000001
00000100
00000001
00000000
00001000
00000000
00001000
00000000
,
00000010
00000000
00000010
00000000
00001000
00000100
00001000
00000000
,
00000100
00010000
00000100
00000000
00010000
00000000
00010000
00000000
,
00001000
00001000
01000000
01000000
,
00010000
00000000
00010000
00000000
10000000
00010000
10000000
00000000
,
00100000
01000000
00100000
00000000
10000000
00010000
10000000
00000000
,
01000000
01000000
00010000
00010000
,
00100000
00000000
00100000
00000000
00001000
00000000
00000000
00010000
,
00000100
00000100
00000010
00000010
,
00000001
00000000
00000001
00000000
00001000
00000000
00001000
00000010
,
00001000
00001000
00000100
00000100
,
00010000
00000000
00010000
00000000
00001000
00000000
00001000
01000000
,
00001000
01000000
00010000
01000000
,
00100000
01000000
00100000
10000000
,
10010000
01000000
00100000
00010000
,
00011000
00000000
00010000
00000000
00000100
00000000
00001000
00000010
,
00001000
00000001
00000100
00000010
,
00001000
00000100
00001000
00000000
00000001
00000100
00000001
00000000
,
00001000
00000100
00010000
00001000
,
00100000
00010000
01000000
00000000
01000000
00100000
01000000
00000000
,
10000000
01000000
00100000
00010000
,
00001000
00000100
00000010
00000001
,
00001001
00001000
00000010
00000100
,
00001001
00000100
00000010
00001000
,
00010000
00000000
00001000
00000000
00010000
00001000
00010000
00000000
,
00010000
00000000
00001000
00000000
01000000
00001000
01000000
00000000
,
01000000
00000000
00010000
00000000
10000000
00010000
10000000
00000000
,
00100000
01000000
00010000
10000000
,
00100000
00000000
00100000
00000000
00001000
00010000
00001000
00000000
,
00010000
00000000
00001000
00000000
00000100
00000000
00000010
00000001
,
00000010
00001000
00000100
00010000
,
00022000
00000000
00000000
00033000
;

//---------------dance-single - ----------------
#NOTES:
     dance-single:
     :
     Easy:
     5:
     0.288,0.330,0.100,0.246,0.008:
0000
0000
0000
0000
,
0000
0000
0000
0000
,
0000
0000
0000
0000
,
0000
0000
0000
0000
,
0000
0000
0000
0000
,
0000
0000
0000
0000
,
0001
0001
0001
1000
,
0001
0001
0001
1000
,
0001
0001
0001
1000
,
0001
0000
1000
0000
,
0010
0010
0010
0001
,
0100
0100
0100
1000
,
0001
0001
0001
0100
,
1000
1000
0010
0010
,
1000
1000
1000
0100
,
0001
0001
0001
0010
,
1000
1000
1000
0001
,
0100
0000
0010
0000
,
0001
0001
0001
1001
,
1000
1000
1000
1001
,
0001
0001
0001
1001
,
1000
1001
0001
1001
,
1000
1001
0001
0001
,
0001
1001
1000
1000
,
1000
1001
0001
0001
,
1001
0000
1001
0000
,
0001
1000
0010
0001
,
0100
0000
0000
1000
0000
0000
0000
0000
0001
0000
0000
0100
0000
0000
0000
0000
,
1000
0010
0000
1000
,
0010
0001
0000
0001
,
1000
0000
0000
0010
,
0100
0000
0001
1000
,
0020
0030
0200
0300
,
0001
0010
0100
1000
,
0002
0003
2000
3000
,
0001
0010
0100
1000
,
0200
0300
0020
0030
,
1000
0100
0010
0001
,
2000
3000
0002
0003
,
1000
0100
0010
0001
,
0200
0300
0020
0030
,
1000
0100
1000
0100
,
0002
0003
2000
3000
,
0001
0010
0001
0010
,
0200
0300
0020
0030
,
1000
0100
1000
0100
,
0020
0030
0002
0003
,
2000
3000
0200
0300
,
0020
0030
2000
3000
,
0001
0010
0100
1001
,
2000
3000
0200
0300
,
0001
1000
0100
0001
,
0100
0000
1001
0000
,
0010
1000
0100
0010
,
0001
0001
0001
0001
,
1000
1000
0100
0100
,
0002
0003
2000
3000
,
0001
0010
1000
0100
,
0002
0003
2000
3000
,
0001
0100
0010
1000
,
0200
0300
2000
3000
,
0010
0001
0010
1000
,
0002
0003
2000
3000
,
0100
0010
0100
0010
,
0001
0001
0100
0100
,
1000
1000
0100
0100
,
0001
0001
1000
1000
,
0001
0001
0100
0100
,
1000
0100
0001
0100
,
0001
0100
1000
0100
,
1000
0001
1000
0001
,
2002
0000
0000
3003
;

//---------------dance-single - ----------------
#NOTES:
     dance-single:
     :
     Medium:
     9:
     0.340,0.330,0.054,0.046,0.008: // measure 1
0000
0000
0000
0000
,  // measure 2
0000
0000
0000
0000
,  // measure 3
0000
0000
0000
0000
,  // measure 4
0000
0000
0000
0000
,  // measure 5
0000
0000
0000
0000
,  // measure 6
0000
0000
0000
0000
,  // measure 7
0001
0001
0001
0100
,  // measure 8
0001
0001
0001
0100
,  // measure 9
0001
0001
0001
0100
,  // measure 10
1100
0000
0011
0000
,  // measure 11
0001
0000
0001
0000
0001
0000
0001
0100
,  // measure 12
0010
0000
0010
0000
0010
0000
0010
1000
,  // measure 13
0100
0000
0100
0000
0100
0000
0100
0001
,  // measure 14
1000
0000
1000
0100
0001
0000
0001
1000
,  // measure 15
0010
0000
0010
0000
0010
0000
1000
0100
,  // measure 16
0010
0010
0010
0010
,  // measure 17
0001
0000
0001
0000
0001
0000
0001
0100
,  // measure 18
1000
0000
0000
1000
0010
0000
0000
0010
,  // measure 19
0100
0000
0100
0000
0001
0000
1000
0010
,  // measure 20
1000
0000
0100
0000
0100
0000
0001
1000
,  // measure 21
0001
0000
0001
0000
0001
0000
1000
0010
,  // measure 22
1000
0000
0010
0001
0010
0000
0001
0100
,  // measure 23
0001
0000
0001
0000
0001
0000
0010
1000
,  // measure 24
0010
0000
0010
0100
0010
0000
0100
0010
,  // measure 25
0100
0000
0100
0000
0100
0000
0001
0010
,  // measure 26
0001
0000
0001
1000
0001
0000
1000
0100
,  // measure 27
1000
0001
0100
1000
,  // measure 28
0010
0000
0000
0001
0000
0000
0000
0000
1000
0000
0000
0100
0000
0000
0000
0000
,  // measure 29
0010
0001
0100
1000
,  // measure 30
0001
0010
1000
0100
,  // measure 31
0002
0000
0003
1000
,  // measure 32
0200
0000
0000
0300
0020
0000
0032
0000
,  // measure 33
1003
1000
0100
0100
,  // measure 34
0001
0000
0001
0000
1000
0001
1000
0000
,  // measure 35
0001
0001
1000
1000
,  // measure 36
0100
0000
0100
0000
0010
0100
0010
0000
,  // measure 37
1000
1000
0100
0100
,  // measure 38
0001
0010
0001
0000
0010
1000
0010
0000
,  // measure 39
1000
1000
0001
0001
,  // measure 40
0100
0000
0100
0000
1000
0010
1000
0000
,  // measure 41
0001
0100
0001
0000
1000
0000
1000
0000
,  // measure 42
0010
0000
0010
0000
1000
0100
1000
0000
,  // measure 43
0100
0001
0100
0000
0001
0000
0001
0000
,  // measure 44
1000
1000
0100
0100
,  // measure 45
0001
0000
0001
0000
1000
0001
1000
0000
,  // measure 46
0010
0100
0010
0000
1000
0001
1000
0000
,  // measure 47
0100
0100
0001
0001
,  // measure 48
0010
0000
0010
0000
1000
0000
0000
0001
,  // measure 49
0100
0100
0010
0010
,  // measure 50
0001
0000
0001
0000
1000
0000
1000
0010
,  // measure 51
1000
1000
0100
0100
,  // measure 52
0001
0000
0001
0000
1000
0000
1000
0100
,  // measure 53
1000
0100
0001
0100
,  // measure 54
0010
0100
0010
1000
,  // measure 55
1001
0100
0010
0001
,  // measure 56
1001
0000
0001
0000
0100
0000
1000
0010
,  // measure 57
1000
0001
0100
0010
,  // measure 58
1000
0100
1000
0000
0001
0100
0001
0000
,  // measure 59
1000
0100
0001
1000
,  // measure 60
0010
0001
0100
0000
0100
0010
0100
0000
,  // measure 61
1000
0100
0010
0001
,  // measure 62
1000
0100
0010
0001
,  // measure 63
1001
1000
0010
0100
,  // measure 64
1001
0100
0010
1000
,  // measure 65
0001
0000
1000
0000
0001
1000
0001
0000
,  // measure 66
0001
0000
1000
0000
0100
1000
0100
0000
,  // measure 67
0100
0000
0001
0000
1000
0001
1000
0000
,  // measure 68
0010
0100
0001
1000
,  // measure 69
0010
0000
0010
0000
1000
0001
1000
0000
,  // measure 70
0001
0000
1000
0000
0100
0000
0010
0001
,  // measure 71
0010
1000
0100
0001
,  // measure 72
2002
0000
0000
3003
;
